<?xml version="1.0" standalone="no"?>
<!DOCTYPE svg PUBLIC "-//W3C//DTD SVG 1.1//EN" "http://www.w3.org/Graphics/SVG/1.1/DTD/svg11.dtd">
<svg xmlns="http://www.w3.org/2000/svg">
<metadata>Copyright (C) 2014 by original authors @ fontello.com</metadata>
<defs>
<font id="office365icons" horiz-adv-x="1000" >
<font-face font-family="office365icons" font-weight="400" font-stretch="normal" units-per-em="1000" ascent="850" descent="-150" />
<missing-glyph horiz-adv-x="1000" />
<glyph glyph-name="dog-2" unicode="&#xe181;" d="m1107 132l-68 169 0 0c2 11 3 22 3 34 0 57-31 107-77 134l0 0 112 52 0 0c40 22 67 66 63 116-4 59-52 107-111 112-29 2-55-6-77-20-7-5-3-16 5-15 3 0 6 0 8 0 59 0 107-38 107-85 0-26-15-49-38-65l-109-75 0 0h-392l0 0-121 162c-11 15-26 28-43 38l0 0c0 0-15 57-28 78-7 11-15 10-22 2-16-20-35-67-35-67l0 0c-44-7-80-38-97-78l0 0-106-46c-4-2-7-6-6-10 5-27 28-47 55-47 4 0 8 1 12 2l123 31 0 0-71-65c-6-6-1-16 7-14l64 11c14 3 26-6 28-20l28-191c0 0 4-27 10-37l0 0-110-229c-3-7 2-16 10-16h23c8 0 16 4 21 11l113 155 0 0c6-6 25-17 31-19l0 0-93-200c-3-7 2-15 10-15h26c8 0 15 4 20 10l147 184v0c47 44 229 85 293 85 67 0 131-57 131-57l0 0c16-19 26-43 26-70 0-25-8-48-23-66-5-7-1-18 9-18h34c12 0 23 9 26 20 3 12 4 25 4 39 0 25-6 49-16 70l0 0c54-28 88-68 88-113 0-19-7-38-18-55-5-7 0-17 9-17h23c10 0 20 6 24 15 9 20 14 43 14 67 0 44-18 84-46 113l0 0z m-872 467c-14-2-26 10-24 24 2 8 8 15 16 16 15 3 27-10 24-24-1-8-8-14-16-16z" horiz-adv-x="1228" />
<glyph glyph-name="document-file" unicode="&#xe182;" d="m846 547l0 0 0 1v0h0l-228 227h-464v-850h692l0 622z m-101 1h-127v126l127-126z m-523 159h328v-227h228v-487h-556v714z" horiz-adv-x="1000" />
<glyph glyph-name="metadata" unicode="&#xe183;" d="m152 698v77h77v-77h-77z m0-155v78h77v-78h-77z m0-154v77h77v-77h-77z m0-155v77h77v-77h-77z m0-155v78h77v-78h-77z m0-154v77h77v-77h-77z m155 773v77h77v-77h-77z m0-773v77h77v-77h-77z m154 773v77h78v-77h-78z m0-773v77h78v-77h-78z m155 850l232-232h-232v232z m0-850v77h77v-77h-77z m155 464v77h77v-77h-77z m0-155v77h77v-77h-77z m0-155v78h77v-78h-77z m0-154v77h77v-77h-77z" horiz-adv-x="1000" />
<glyph glyph-name="point-item" unicode="&#xe184;" d="m1244 775v-850h-1169v850h1169z m-638-425h-424v-106h424v106z m532 319h-956v-214h956v214z m-532-532h-424v-106h424v106z m532 213h-372v-319h372v319z" horiz-adv-x="1319" />
<glyph glyph-name="text" unicode="&#xe185;" d="m858 174h-288l-50-117c-13-29-19-51-19-65 0-12 6-22 16-30 11-9 35-14 70-17v-20h-234v20c31 6 51 13 61 22 18 17 39 53 61 107l262 612h19l259-619c21-50 40-82 57-97 17-15 41-23 71-25v-20h-293v20c59 3 75 22 75 46 0 16-7 42-22 76l-45 107z m-15 41l-126 300-130-300h256z m-312 144l-155 416h-100l-201-536h97l47 136h211l48-136 53 120z m-289 89l73 214c3 8 6 19 8 33h1c3-15 5-26 8-33l74-214h-164z" horiz-adv-x="1218" />
<glyph glyph-name="text-field" unicode="&#xe186;" d="m584 159h-66l-33 94h-144l-32-94h-67l138 367h68l136-367z m-115 143l-51 147c-2 4-3 12-5 23h-1c-2-10-3-18-5-23l-51-147h113z m220-105h-1v-38h-60v388h60v-172h1c20 35 49 52 89 52 33 0 58-11 77-35 19-23 28-55 28-94 0-44-10-79-31-105-21-27-50-40-86-40-34 0-60 15-77 44z m-2 104v-32c0-19 6-35 18-49 12-13 28-20 47-20 22 0 39 9 51 26 13 17 19 41 19 72 0 26-6 46-17 60-12 15-28 22-48 22-21 0-38-7-51-22-13-15-19-34-19-57z m444-130c-21-12-46-18-74-18-39 0-70 12-94 37-24 24-36 56-36 94 0 43 13 78 38 104 26 26 60 39 103 39 24 0 45-4 63-12v-55c-18 13-37 20-58 20-25 0-45-8-62-25-16-17-24-39-24-67 0-27 8-48 23-64 15-16 35-24 61-24 21 0 41 8 60 23v-52z m505-246h-1561v850h1561v-850z m-1497 64h1433v722h-1433v-722z" horiz-adv-x="1711" />
<glyph glyph-name="number-field" unicode="&#xe187;" d="m411 540v-383h-62v309c-23-16-47-27-81-35v52c42 13 76 28 117 57h26z m322-383h-241v29c0 71 65 112 117 155 33 27 55 51 55 87 0 40-26 60-63 60-31 0-65-14-95-43v58c32 23 64 35 106 35 70 0 115-36 115-103 0-61-32-94-81-134-42-33-86-61-86-91v-1h173v-52z m67 15v57c25-20 54-29 85-29 25 0 46 6 61 17 15 11 23 26 23 46 0 42-33 64-100 64h-29v48h28c59 0 88 20 88 60 0 37-23 56-69 56-25 0-49-9-72-27v54c26 14 57 21 92 21 34 0 61-8 82-25 21-17 31-38 31-64 0-50-26-81-77-96v-1c27-2 49-12 65-28 16-16 24-37 24-61 0-34-12-61-38-81-26-21-60-31-103-31-38 0-68 6-91 20z m-725 603v-850h1561v850h-1561z m1497-786h-1433v722h1433v-722z" horiz-adv-x="1711" />
<glyph glyph-name="dropdown" unicode="&#xe188;" d="m1572-11h-1433v722h1433v-722z m-1497 786v-850h1561v850h-1561z m1329-338l-193-194-194 194h387z" horiz-adv-x="1711" />
<glyph glyph-name="radio-button" unicode="&#xe189;" d="m500 704c195 0 354-159 354-354s-159-354-354-354-354 159-354 354 159 354 354 354m0 71c-235 0-425-190-425-425s190-425 425-425 425 190 425 425-190 425-425 425l0 0z m0-224c-111 0-200-90-200-201s89-200 200-200 201 89 201 200-90 201-201 201z" horiz-adv-x="1000" />
<glyph glyph-name="checkbox" unicode="&#xe18a;" d="m925-75h-850v850h850v-850z m-778 72h706v706h-706v-706z m59 352c-6 6-5 15 0 20l58 54c3 2 6 4 9 4 4 0 8-2 11-5l158-170 272 350c2 3 6 5 11 5 3 0 6-1 8-3l63-48c2-2 4-6 5-10 0-3-1-7-3-10l-349-449-243 262z" horiz-adv-x="1000" />
<glyph glyph-name="story" unicode="&#xe18b;" d="m996 683v-663c0-13-9-25-22-27l-433-68c-2 0-4 0-5 0s-4 0-6 0l-433 68c-13 3-22 14-22 27v663c0 8 4 16 10 21 6 5 15 7 23 6l29-6v-604c0-33 23-62 54-71l325-67c7-2 13-3 20-3s12 1 18 2l326 68c32 9 54 38 54 71v604l30 6c7 1 16-1 22-6 6-5 10-13 10-21z m-433-692l305 83c11 3 20 14 20 26v648c0 8-4 16-11 21-5 4-11 6-17 6-2 0-4 0-7-1l-290-78v-705z m-359 83l304-83v705l-290 78c-3 1-5 1-7 1-6 0-12-2-17-6-7-5-10-13-10-21v-648c0-12 8-23 20-26z" horiz-adv-x="1071" />
<glyph glyph-name="bold" unicode="&#xe18c;" d="m181-75v850h309c95 0 168-17 219-52 51-35 76-84 76-147 0-46-15-86-46-121-31-34-71-58-119-71v-3c61-7 109-29 145-67 36-37 54-82 54-135 0-78-28-140-83-186-56-45-132-68-229-68h-326z m191 709v-202h85c39 0 70 10 93 29 23 19 34 46 34 79 0 63-47 94-140 94h-72z m0-344v-224h104c44 0 79 10 104 31 25 20 38 48 38 84 0 34-13 61-37 80-25 19-60 29-104 29h-105z" horiz-adv-x="1000" />
<glyph glyph-name="italic" unicode="&#xe18d;" d="m487-75c-41 0-73 10-94 31-22 21-32 50-32 89 0 19 2 38 6 57l83 406h137l-77-361c-7-37-11-61-11-72 0-29 16-43 48-43 19 0 36 3 51 9l-21-103c-32-9-62-13-90-13z m-11 775c0-41 36-75 82-75 45 0 81 34 81 75s-36 75-81 75c-46 0-82-34-82-75z" horiz-adv-x="1000" />
<glyph glyph-name="underline" unicode="&#xe18e;" d="m742 407c0-174-83-261-247-261-158 0-236 84-236 251v378h102v-357c0-121 47-182 142-182 90 0 136 59 136 176v363h103v-368z m-1-482v103h-482v-103h482z" horiz-adv-x="1000" />
<glyph glyph-name="quote" unicode="&#xe18f;" d="m529 422c0-216-127-403-310-491-27-14-60-2-74 25l0 0c-13 24-6 55 16 72 82 62 141 154 162 259 7 33-18 64-52 67-74 5-143 49-176 121-42 88-17 190 54 251 13 12 29 22 47 30 105 50 228-3 280-101 34-71 53-150 53-233z m484 233c-52 98-175 151-280 101-18-8-34-18-47-30-72-61-96-163-54-251 33-72 102-116 176-121 34-3 59-34 52-68-21-105-80-196-162-259-22-17-29-47-16-72l0 0c14-26 47-38 74-25 183 89 310 276 310 492-1 83-19 162-53 233z" horiz-adv-x="1140" />
<glyph glyph-name="remove-style" unicode="&#xe190;" d="m592 347l-159 428h-114l-228-608h110l53 155h239l19-53 80 78z m-312 57l84 243c3 9 6 22 8 38h2c3-18 6-30 8-38l85-243h-187z m455 2c7 7 19 7 26 0l87-86c7-7 7-19 0-26l-276-276c-7-7-19-7-26 0l-86 86c-8 7-8 19 0 26l275 276z m-343-456c49-49 98-11 98-11 8 6 20 17 27 24 7 7 7 19 0 26l-86 86c-7 7-19 8-26 1-7-8-18-20-24-28 0 0-38-49 11-98m445 502c-10-3-12-11-5-18l45-44c7-7 15-5 17 5l15 58c2 10-4 16-14 13l-58-14z" horiz-adv-x="1000" />
<glyph glyph-name="add-photo" unicode="&#xe191;" d="m504 227h-283c-3 1-9 1-13 8s-1 15 1 19l207 290c2 2 13 14 31 14s30-10 33-13l132-169-108-149z m42 0l177 246c3 4 10 13 27 13s28-12 28-12l172-219c3-4 6-12 3-20s-8-7-14-8h-393z m73 400c-39 0-70-31-70-69s31-70 70-70c38 0 69 32 69 70s-31 69-69 69z m485-702h-95l0 151h-151l0 95h151v151h95v-151h151l0-95h-151v-151z m-341 237h-612v537h866v-282h76v358h-1018v-689h688v76z" horiz-adv-x="1330" />
<glyph glyph-name="remove-photo" unicode="&#xe192;" d="m504 227h-283c-3 1-9 1-13 8s-1 15 1 19l207 290c2 2 13 14 31 14s30-10 33-13l132-169-108-149z m42 0l177 246c3 4 10 13 27 13s28-12 28-12l172-219c3-4 6-12 3-20s-8-7-14-8h-393z m73 400c-39 0-70-31-70-69s31-70 70-70c38 0 69 32 69 70s-31 69-69 69z m239-551l0 95h397l0-95h-397z m-95 86h-612v537h866v-432h76v508h-1018v-689h688v76z" horiz-adv-x="1330" />
<glyph glyph-name="desktop" unicode="&#xe193;" d="m1096 682v-460h-780v460h780m32 93h-844c-33 0-60-27-60-60v-526c0-33 27-60 60-60h844c33 0 60 27 60 60v526c0 33-27 60-60 60l0 0z m60-701h-964l-149-149h1262l-149 149z" horiz-adv-x="1412" />
<glyph glyph-name="tablet" unicode="&#xe194;" d="m1294 775h-1149c-33 0-60-27-60-60v-730c0-33 27-60 60-60h1149c33 0 60 27 60 60v730c0 33-27 60-60 60z m-60-730h-1029v610h1029v-610z m56 275c-17 0-30 13-30 30s13 30 30 30 30-13 30-30-13-30-30-30z" horiz-adv-x="1420" />
<glyph glyph-name="mobile" unicode="&#xe195;" d="m710 795h-370c-33 0-60-27-60-60v-730c0-33 27-60 60-60h370c33 0 60 27 60 60v730c0 33-27 60-60 60z m-265-71c0 11 9 20 20 20h120c11 0 20-9 20-20v0c0-11-9-20-20-20h-120c-11 0-20 9-20 20l0 0z m80-743c-19 0-35 16-35 35s16 35 35 35c19 0 35-16 35-35s-15-35-35-35z m156 104h-312v570h312v-570z" horiz-adv-x="1000" />
<glyph glyph-name="table" unicode="&#xe196;" d="m81 775v-850h838v850h-838z m772-353h-193v152h193v-152z m-450-217v153h193v-152h-193z m193-63v-153h-193v153h193z m-257 63h-193v153h193v-153z m64 217v152h193v-152h-193z m257-64h193v-152h-193v152z m-321 216v-152h-193v152h193z m-193-432h193v-153h-193v153z m514-153v153h193v-153h-193z" horiz-adv-x="1000" />
<glyph glyph-name="hide" unicode="&#xe197;" d="m530 168l227 227c3-14 5-29 5-45 0-103-84-187-187-187-15 0-30 2-45 5z m-293-20l57 57c-50 38-92 85-123 139 81 140 231 234 404 234 29 0 57-2 85-7l64 64c-47 13-97 20-149 20-192 0-361-97-461-244-15-21-28-44-39-67 11-23 24-45 39-66 34-50 75-94 123-130z m799 263c-35 52-79 97-129 134l-57-57c52-38 97-87 129-144-80-140-231-234-404-234-32 0-63 3-94 10l-63-64c50-15 102-23 157-23 192 0 361 97 461 245 15 21 28 43 39 66-11 23-24 46-39 67z m-461 126c-103 0-187-84-187-187 0-16 2-31 5-46l228 228c-15 3-30 5-46 5z m385 142l-56 56-714-714 56-56 714 714z" horiz-adv-x="1150" />
</font>
</defs>
</svg>
