<?xml version="1.0" encoding="UTF-8"?><svg xmlns="http://www.w3.org/2000/svg" width="100%" height="100%"><defs><font id="web" horiz-adv-x="1182"><!--



NOTICE: This font software is the valuable property 
of Monotype Imaging and/or its suppliers and its use 
by you is covered under the terms of the Web Font license 
agreement between you and Monotype Imaging. You may 
ONLY use this font software with the licensed web site. 
Except as specifically permitted by the license, you 
may not copy this font software. If you have any questions, 
please contact Monotype Imaging. 

For more information, please visit http://www.ascenderfonts.com/info/webfont-eula.aspx

Licensed to: Microsoft

Serial number: SH-00001
--><font-face font-family="" units-per-em="2048" panose-1="2 4 3 3 2 1 2 2 2 3" ascent="1940" descent="-468" alphabetic="0"/><missing-glyph horiz-adv-x="2048" d="M256 0V1536H1792V0H256ZM384 128H1664V1408H384V128Z"/><glyph unicode=" " horiz-adv-x="512"/><glyph unicode="!" horiz-adv-x="512" d="M203 1391H309V956L285 369H227L203 956V1391ZM313 190V0H199V190H313Z"/><glyph unicode="&quot;" horiz-adv-x="575" d="M140 883H101L52 1208Q40 1288 40 1318Q40 1354 60 1383T124 1413Q162 1413 184 1385T206 1315Q206 1271 194 1204L140 883ZM470 883H431L382 1208Q370 1288 370 1318Q370 1354 390 1383T454 1413Q491 1413 513 1385T536 1315Q536 1271 524 1204L470 883Z"/><glyph unicode="#" horiz-adv-x="1368" d="M543 1430H639L553 1012H942L1028 1430H1124L1038 1012H1202V920H1018L938 522H1202V430H918L827 14H731L821 430H436L346 14H250L340 430H168V522H356L438 920H168V1012H457L543 1430ZM535 920L453 522H842L922 920H535Z"/><glyph unicode="$" horiz-adv-x="1044" d="M492 70V666Q317 691 220 784T123 1010Q123 1152 221 1247T492 1354V1413H586V1354Q917 1307 928 950H829Q821 1215 586 1264V745Q985 685 985 369Q985 206 882 103T586 -20V-174H492V-20Q119 -2 76 410H178Q213 93 492 70ZM492 770V1268Q368 1257 300 1191T231 1022Q231 833 492 770ZM586 72Q730 90 809 168T889 365Q889 596 586 643V72Z"/><glyph unicode="%" horiz-adv-x="1729" d="M346 1413Q621 1413 621 1040Q621 670 344 670Q68 670 68 1042Q68 1413 346 1413ZM346 727Q539 727 539 1040Q539 1356 348 1356Q154 1356 154 1040Q154 727 346 727ZM338 0L1317 1391H1386L408 0H338ZM1384 733Q1659 733 1659 360Q1659 -10 1382 -10Q1106 -10 1106 362Q1106 733 1384 733ZM1384 47Q1577 47 1577 360Q1577 676 1386 676Q1192 676 1192 360Q1192 47 1384 47Z"/><glyph unicode="&amp;" horiz-adv-x="1430" d="M1073 0L958 158Q778 -20 559 -20Q366 -20 236 104T106 412Q106 704 471 834Q322 1026 322 1126Q322 1245 418 1329T651 1413Q783 1413 874 1332T965 1135Q965 927 618 797L958 315Q1071 474 1112 698H1348V606H1192Q1129 368 1022 238L1128 92H1348V0H1073ZM565 872Q870 977 870 1137Q870 1215 806 1269T647 1323Q551 1323 488 1270T424 1137Q424 1105 440 1064T565 872ZM899 238L526 758Q221 648 221 428Q221 294 318 187T571 80Q753 80 899 238Z"/><glyph unicode="'" horiz-adv-x="449" d="M242 883H203L154 1208Q142 1288 142 1318Q142 1354 162 1383T226 1413Q264 1413 286 1385T308 1315Q308 1271 296 1204L242 883Z"/><glyph unicode="(" horiz-adv-x="725" d="M672 1323Q289 1105 289 489Q289 -126 672 -344V-434Q427 -325 304 -84T180 489Q180 822 303 1063T672 1413V1323Z"/><glyph unicode=")" horiz-adv-x="725" d="M53 -344Q436 -126 436 489Q436 1105 53 1323V1413Q298 1304 421 1063T545 489Q545 157 422 -84T53 -434V-344Z"/><glyph unicode="*" horiz-adv-x="1004" d="M385 700L293 578L205 645L293 770Q346 784 461 952Q313 1001 259 1001L221 997L72 1047L109 1155L254 1108Q298 1060 477 997Q473 1108 457 1181L440 1239V1391H563V1239Q532 1177 526 997Q595 1021 637 1039T703 1074L750 1108L895 1155L932 1047L780 997Q765 1002 745 1002Q687 1002 545 952Q652 787 709 770L799 645L709 578L618 700Q618 766 502 918Q388 770 385 700Z"/><glyph unicode="+" horiz-adv-x="1366" d="M729 702H1221V610H729V119H637V610H145V702H637V1194H729V702Z"/><glyph unicode="," horiz-adv-x="512" d="M199 0V190H313V-33Q313 -250 180 -258V-184Q225 -184 236 -141T250 0H199Z"/><glyph unicode="-" horiz-adv-x="705" d="M70 438V530H633V438H70Z"/><glyph unicode="." horiz-adv-x="512" d="M199 0V190H313V0H199Z"/><glyph unicode="/" horiz-adv-x="575" d="M479 1391H575L96 -29H0L479 1391Z"/><glyph unicode="0" horiz-adv-x="1087" d="M993 696Q993 346 879 164T545 -18Q325 -18 211 163T96 696Q96 1049 210 1231T545 1413Q764 1413 878 1231T993 696ZM201 698Q201 68 545 68Q713 68 801 230T889 698Q889 1004 800 1165T545 1327Q378 1327 290 1166T201 698Z"/><glyph unicode="1" horiz-adv-x="1087" d="M303 0V92H500V1298H303V1391H606V92H803V0H303Z"/><glyph unicode="2" horiz-adv-x="1087" d="M952 432L940 0H123Q113 120 177 270T338 516T580 707T778 871T829 1051Q829 1172 754 1249T559 1327Q245 1327 250 944H155Q147 1162 258 1287T557 1413Q728 1413 831 1313T934 1047Q934 912 878 832T664 649Q371 459 299 306T227 92H852L862 432H952Z"/><glyph unicode="3" horiz-adv-x="1087" d="M80 428H176Q195 252 293 160T532 68Q668 68 767 152T866 385Q866 528 773 607T531 686Q487 686 444 678V770Q597 760 690 839T784 1059Q784 1175 710 1251T520 1327Q398 1327 330 1252T258 1038H160Q164 1217 264 1315T524 1413Q681 1413 785 1312T889 1057Q889 825 664 739V735Q806 714 888 622T971 383Q971 209 847 96T530 -18Q343 -18 218 102T80 428Z"/><glyph unicode="4" horiz-adv-x="1087" d="M522 0V84H678V408H141Q127 459 90 489L678 1403H770V489H995V408H770V84H893V0H522ZM678 489L679 1273L184 489H678Z"/><glyph unicode="5" horiz-adv-x="1087" d="M100 391H203Q252 68 532 68Q681 68 781 171T881 446Q881 606 790 704T553 803Q369 803 244 631Q214 660 162 680L225 1391H901V1096H807V1288H309L260 760L264 756Q393 889 575 889Q751 889 868 763T985 446Q985 228 851 105T535 -18Q361 -18 240 92T100 391Z"/><glyph unicode="6" horiz-adv-x="1087" d="M954 1028H852Q841 1327 592 1327Q254 1327 236 711L240 707Q393 883 594 883Q762 883 870 760T979 444Q979 239 864 111T567 -18Q133 -18 133 639Q133 1000 247 1206T580 1413Q745 1413 844 1313T954 1028ZM236 602Q236 343 321 206T567 68Q707 68 790 168T874 442Q874 595 796 696T580 797Q394 797 236 602Z"/><glyph unicode="7" horiz-adv-x="1087" d="M281 0V92H455Q451 137 451 186Q451 452 551 753T838 1288H225V1081H131V1391H942V1298Q755 1046 657 755T559 182Q559 136 561 92H725V0H281Z"/><glyph unicode="8" horiz-adv-x="1087" d="M375 735V737Q261 762 196 847T131 1049Q131 1211 246 1312T545 1413Q723 1413 839 1310T956 1049Q956 932 892 847T713 737V733Q851 701 926 608T1001 385Q1001 210 873 96T545 -18Q344 -18 215 95T86 385Q86 515 161 608T375 735ZM229 1047Q229 921 314 848T545 774Q689 774 773 847T858 1047Q858 1182 767 1254T545 1327Q406 1327 318 1249T229 1047ZM190 391Q190 247 285 158T545 68Q701 68 799 156T897 391Q897 521 805 606T545 692Q381 692 286 611T190 391Z"/><glyph unicode="9" horiz-adv-x="1087" d="M133 367H236Q247 68 496 68Q833 68 852 684L848 688Q694 512 494 512Q326 512 218 635T109 950Q109 1156 223 1284T520 1413Q954 1413 954 756Q954 394 841 188T508 -18Q342 -18 243 82T133 367ZM852 793Q852 1051 767 1189T520 1327Q380 1327 297 1227T213 952Q213 799 291 699T508 598Q693 598 852 793Z"/><glyph unicode=":" horiz-adv-x="512" d="M199 778V969H313V778H199ZM199 0V190H313V0H199Z"/><glyph unicode=";" horiz-adv-x="512" d="M199 778V969H313V778H199ZM199 0V190H313V-33Q313 -250 180 -258V-184Q225 -184 236 -141T250 0H199Z"/><glyph unicode="&lt;" horiz-adv-x="1366" d="M270 657L1219 262V160L145 616V698L1219 1155V1053L270 657Z"/><glyph unicode="=" horiz-adv-x="1366" d="M145 938H1221V846H145V938ZM145 473H1221V381H145V473Z"/><glyph unicode="&gt;" horiz-adv-x="1366" d="M1096 657L147 1053V1155L1221 698V616L147 160V262L1096 657Z"/><glyph unicode="?" horiz-adv-x="918" d="M387 377L350 770L365 776Q405 770 444 770Q578 770 653 838T729 1038Q729 1159 647 1240T438 1321Q313 1321 236 1242T158 1034H61Q61 1201 166 1307T440 1413Q610 1413 720 1305T831 1032Q831 883 732 776T461 674L436 377H387ZM465 190V0H350V190H465Z"/><glyph unicode="@" horiz-adv-x="1642" d="M1145 1014H1270L1100 211Q1091 169 1091 144Q1091 90 1139 90Q1262 90 1396 258T1530 662Q1530 943 1359 1128T860 1313Q519 1313 301 1088T82 512Q82 165 300 -50T870 -266Q1310 -266 1542 47H1645Q1397 -346 868 -346Q480 -346 240 -109T0 514Q0 896 236 1146T866 1397Q1216 1397 1414 1188T1612 668Q1612 383 1444 192T1096 0Q975 0 975 108Q975 141 985 184L981 188Q835 0 641 0Q493 0 394 120T295 422Q295 648 437 843T805 1038Q1006 1038 1110 846L1145 1014ZM678 96Q834 96 948 286T1063 668Q1063 791 991 870T807 950Q635 950 529 775T422 416Q422 278 495 187T678 96Z"/><glyph unicode="A" horiz-adv-x="1343" d="M129 92L547 1298H373V1391H971V1298H797L1221 92H1393V0H932V92H1106L952 528H391L242 92H424V0H-47V92H129ZM424 621H922L680 1325H666L424 621Z"/><glyph unicode="B" horiz-adv-x="1153" d="M35 0V92H213V1298H35V1391H590Q792 1391 898 1296T1004 1038Q1004 819 799 739V735Q1075 655 1075 397Q1075 224 954 112T600 0H35ZM328 772H561Q713 772 801 845T889 1036Q889 1152 810 1225T578 1298H328V772ZM328 92H594Q768 92 864 173T961 389Q961 526 865 603T584 680H328V92Z"/><glyph unicode="C" horiz-adv-x="1536" d="M1378 508L1468 457Q1396 224 1228 102T819 -20Q512 -20 320 177T127 692Q127 1019 322 1216T807 1413Q1135 1413 1323 1169H1327V1391H1421V946H1325Q1294 1116 1144 1214T815 1313Q564 1313 403 1141T242 700Q242 429 406 255T823 80Q1225 80 1378 508Z"/><glyph unicode="D" horiz-adv-x="1450" d="M18 0V92H211V1298H18V1391H571Q1020 1391 1186 1183T1352 709Q1352 496 1267 329T1034 81T584 0H18ZM326 92H588Q956 92 1096 262T1237 705Q1237 952 1093 1125T584 1298H326V92Z"/><glyph unicode="E" horiz-adv-x="1237" d="M31 0V92H209V1298H31V1391H1145V1053H1051V1298H324V758H901V666H324V92H1051V342H1145V0H31Z"/><glyph unicode="F" horiz-adv-x="1087" d="M31 0V92H211V1298H31V1391H1087V1051H995V1298H326V762H838V670H326V92H510V0H31Z"/><glyph unicode="G" horiz-adv-x="1622" d="M1024 535V627H1511Q1510 328 1315 154T821 -20Q507 -20 305 181T102 694Q102 1003 300 1208T797 1413Q1134 1413 1333 1155H1337V1391H1430V936H1337Q1292 1105 1139 1209T801 1313Q547 1313 382 1140T217 700Q217 429 388 255T823 80Q1035 80 1201 197T1393 535H1024Z"/><glyph unicode="H" horiz-adv-x="1409" d="M41 0V92H209V1298H41V1391H500V1298H324V774H1083V1298H905V1391H1368V1298H1198V92H1368V0H905V92H1083V682H324V92H500V0H41Z"/><glyph unicode="I" horiz-adv-x="575" d="M55 0V92H229V1298H55V1391H520V1298H344V92H520V0H55Z"/><glyph unicode="J" horiz-adv-x="555" d="M-139 -412V-311Q-38 -334 4 -334Q119 -334 172 -287T225 -111V1298H16V1391H539V1298H340V-96Q340 -434 -2 -434Q-80 -434 -139 -412Z"/><glyph unicode="K" horiz-adv-x="1194" d="M29 0V92H211V1298H29V1391H518V1298H326V92H518V0H29ZM731 0V92H918L340 731L918 1298H758V1391H1200V1298H1051L487 741L1079 92H1227V0H731Z"/><glyph unicode="L" horiz-adv-x="1044" d="M33 0V92H221V1298H33V1391H522V1298H336V92H909V553H1018V0H33Z"/><glyph unicode="M" horiz-adv-x="1749" d="M39 0V92H219V1298H39V1391H395L825 350Q851 292 877 203H881Q894 266 922 334L1354 1391H1712V1298H1540V92H1712V0H1249V92H1425V1327H1421L879 0H856L319 1327H315V92H481V0H39Z"/><glyph unicode="N" horiz-adv-x="1450" d="M20 0V92H207V1298H20V1391H348L1151 164V1298H956V1391H1430V1298H1247V-18H1141L303 1260V92H500V0H20Z"/><glyph unicode="O" horiz-adv-x="1599" d="M815 -20Q501 -20 302 180T102 696Q102 1008 299 1210T801 1413Q1103 1413 1301 1210T1499 696Q1499 389 1303 185T815 -20ZM801 1313Q549 1313 383 1138T217 696Q217 430 383 255T801 80Q1053 80 1218 255T1384 696Q1384 963 1219 1138T801 1313Z"/><glyph unicode="P" horiz-adv-x="1130" d="M33 0V92H217V1298H33V1391H635Q853 1391 972 1280T1092 983Q1092 802 974 688T643 573H332V92H520V0H33ZM332 1298V666H594Q977 666 977 973Q977 1146 887 1222T606 1298H332Z"/><glyph unicode="Q" horiz-adv-x="1599" d="M670 -6V-2Q401 53 252 241T102 696Q102 1008 299 1210T801 1413Q1103 1413 1301 1210T1499 696Q1499 409 1318 203T846 -16V-20Q891 -32 1002 -91T1193 -150Q1219 -150 1245 -145L1208 -242Q1187 -244 1166 -244Q1061 -244 921 -161T684 -78Q586 -78 502 -137L459 -76Q545 -6 670 -6ZM801 1313Q551 1313 384 1138T217 702Q217 437 382 260T801 82Q1050 82 1217 259T1384 700Q1384 965 1218 1139T801 1313Z"/><glyph unicode="R" horiz-adv-x="1174" d="M6 0V92H211V1298H6V1391H688Q864 1391 965 1296T1067 1049Q1067 765 748 705L1026 92H1204V0H946L633 694H326V92H520V0H6ZM326 786H614Q952 786 952 1047Q952 1162 873 1230T657 1298H326V786Z"/><glyph unicode="S" horiz-adv-x="1110" d="M88 0V477H182V430Q182 289 299 185T575 80Q717 80 811 163T905 375Q905 468 842 538T583 662T300 753T153 867T92 1069Q92 1215 206 1314T498 1413Q725 1413 856 1251H860V1391H952V1016H860V1044Q860 1149 750 1231T494 1313Q366 1313 283 1243T199 1069Q199 980 260 914T517 795T803 704T956 585T1020 369Q1020 204 893 92T578 -20Q456 -20 350 33T186 182H182V0H88Z"/><glyph unicode="T" horiz-adv-x="1174" d="M340 0V92H530V1298H129V952H35V1391H1141V952H1047V1298H645V92H836V0H340Z"/><glyph unicode="U" horiz-adv-x="1323" d="M184 1298H6V1391H475V1298H299V406Q299 248 391 164T655 80Q1022 80 1022 401V1298H846V1391H1315V1298H1137V406Q1137 195 1008 88T672 -20Q440 -20 312 88T184 406V1298Z"/><glyph unicode="V" horiz-adv-x="1343" d="M633 -14L135 1298H-45V1391H426V1298H252L690 152L1112 1298H942V1391H1391V1298H1210L729 -14H633Z"/><glyph unicode="W" horiz-adv-x="1942" d="M526 -14L133 1298H-41V1391H422V1298H250L584 147L879 1298H715V1391H1239V1298H1071L1389 147L1708 1298H1530V1391H1980V1298H1804L1425 -14H1335L965 1321L621 -14H526Z"/><glyph unicode="X" horiz-adv-x="1343" d="M29 0V92H221L604 700L221 1298H29V1391H518V1298H352L662 807L975 1298H803V1391H1270V1298H1085L721 719L1120 92H1317V0H803V92H989L662 612L336 92H518V0H29Z"/><glyph unicode="Y" horiz-adv-x="1237" d="M375 0V92H567V627L141 1298H-39V1391H457V1298H274L635 727L997 1298H817V1391H1276V1298H1108L682 627V92H881V0H375Z"/><glyph unicode="Z" horiz-adv-x="1130" d="M55 0V92L907 1298H193V1053H100V1391H1044V1298L193 92H973V358H1067V0H55Z"/><glyph unicode="[" horiz-adv-x="705" d="M346 1298V-319H672V-412H240V1391H672V1298H346Z"/><glyph unicode="\" horiz-adv-x="575" d="M96 1391L575 -29H479L0 1391H96Z"/><glyph unicode="]" horiz-adv-x="705" d="M358 1298H33V1391H465V-412H33V-319H358V1298Z"/><glyph unicode="^" horiz-adv-x="1343" d="M672 1413L1120 877L1055 821L672 1282L287 821L225 877L672 1413Z"/><glyph unicode="_" horiz-adv-x="1024" d="M-12 -154H1036V-256H-12V-154Z"/><glyph unicode="`" horiz-adv-x="682" d="M414 1098L170 1415H287L492 1098H414Z"/><glyph unicode="a" horiz-adv-x="1044" d="M758 0V139Q576 -14 399 -14Q277 -14 191 69T104 272Q104 402 205 486T463 571Q605 571 758 492V717Q758 920 500 920Q278 920 201 754L121 774Q224 995 508 995Q864 995 864 721V92H1024V0H758ZM758 229V406Q612 492 481 492Q362 492 288 429T213 266Q213 181 273 125T426 68Q508 68 601 112T758 229Z"/><glyph unicode="b" horiz-adv-x="1260" d="M29 0V92H205V1298H29V1391H311V774H315Q444 995 698 995Q904 995 1037 855T1171 500Q1171 276 1036 131T692 -14Q450 -14 315 188H311V0H29ZM694 907Q529 907 419 789T309 494Q309 308 415 191T688 74Q853 74 958 192T1063 500Q1063 679 959 793T694 907Z"/><glyph unicode="c" horiz-adv-x="1044" d="M897 299L983 262Q927 123 816 47T563 -29Q354 -29 219 112T84 473Q84 691 217 837T549 983Q751 983 856 842H860V969H948V600H860Q860 726 771 806T553 887Q394 887 294 774T193 481Q193 296 295 182T561 68Q795 68 897 299Z"/><glyph unicode="d" horiz-adv-x="1217" d="M1210 0H928V188H924Q791 -14 551 -14Q346 -14 210 129T74 487Q74 705 209 850T545 995Q795 995 924 774H928V1298H739V1391H1034V92H1210V0ZM551 74Q717 74 823 190T930 489Q930 666 819 786T547 907Q391 907 283 786T174 489Q174 312 282 193T551 74Z"/><glyph unicode="e" horiz-adv-x="1130" d="M1059 461H188Q188 294 308 176T596 57Q825 57 975 268L1059 229Q986 107 859 39T584 -29Q365 -29 224 115T82 483Q82 707 221 851T575 995Q784 995 918 853T1059 461ZM190 553H948Q919 723 819 814T567 905Q421 905 321 813T190 553Z"/><glyph unicode="f" horiz-adv-x="512" d="M47 0V92H197V877H47V969H197V1147Q197 1272 267 1342T436 1413Q617 1413 664 1219L567 1204Q531 1321 432 1321Q303 1321 303 1165V969H494V877H303V92H494V0H47Z"/><glyph unicode="g" horiz-adv-x="1217" d="M944 -35V203H940Q818 -14 557 -14Q354 -14 217 126T80 475Q80 686 220 834T561 983Q805 983 940 762H944V969H1231V877H1051V-25Q1051 -233 908 -346T565 -459Q327 -459 188 -322L258 -252Q387 -362 575 -362Q734 -362 839 -278T944 -35ZM563 891Q405 891 297 773T188 479Q188 303 294 190T563 76Q727 76 836 193T946 485Q946 654 834 772T563 891Z"/><glyph unicode="h" horiz-adv-x="1110" d="M27 0V92H203V1298H27V1391H309V838Q493 995 676 995Q797 995 868 928T940 739V92H1098V0H662V92H834V717Q834 899 664 899Q495 899 309 731V92H469V0H27Z"/><glyph unicode="i" horiz-adv-x="512" d="M242 1247Q208 1247 184 1272T160 1331Q160 1365 184 1389T242 1413Q276 1413 301 1389T326 1331Q326 1298 301 1273T242 1247ZM49 0V92H219V877H49V969H326V92H492V0H49Z"/><glyph unicode="j" horiz-adv-x="492" d="M164 1331Q164 1365 188 1389T246 1413Q280 1413 305 1389T330 1331Q330 1298 305 1273T246 1247Q212 1247 188 1272T164 1331ZM223 877H45V969H330V-117Q330 -420 9 -420Q-34 -420 -82 -414V-322Q-33 -328 6 -328Q123 -328 173 -270T223 -86V877Z"/><glyph unicode="k" horiz-adv-x="1067" d="M27 0V92H205V1298H27V1391H311V514L821 877H674V969H1077V877H952L442 514L926 92H1096V0H885L311 500V92H489V0H27Z"/><glyph unicode="l" horiz-adv-x="492" d="M18 0V92H193V1298H16V1391H299V92H473V0H18Z"/><glyph unicode="m" horiz-adv-x="1729" d="M31 0V92H201V877H31V969H307V819Q485 983 670 983Q861 983 915 811Q1107 983 1292 983Q1413 983 1478 915T1544 721V92H1700V0H1272V92H1438V711Q1438 887 1278 887Q1104 887 926 711V92H1085V0H653V92H819V711Q819 887 664 887Q503 887 307 711V92H467V0H31Z"/><glyph unicode="n" horiz-adv-x="1087" d="M14 0V92H193V877H14V969H299V819Q497 983 664 983Q781 983 853 915T926 731V92H1081V0H647V92H819V702Q819 887 657 887Q487 887 299 713V92H457V0H14Z"/><glyph unicode="o" horiz-adv-x="1130" d="M565 -29Q361 -29 223 118T84 483Q84 701 222 848T565 995Q770 995 909 848T1049 483Q1049 266 910 119T565 -29ZM565 899Q405 899 299 781T193 483Q193 304 299 186T565 68Q726 68 833 186T940 483Q940 662 833 780T565 899Z"/><glyph unicode="p" horiz-adv-x="1217" d="M172 -342V877H8V969H279V764H283Q406 983 659 983Q860 983 995 839T1130 481Q1130 257 997 114T653 -29Q396 -29 283 193H279V-342H455V-434H-4V-342H172ZM645 891Q483 891 379 776T274 481Q274 300 381 184T655 68Q821 68 925 183T1030 481Q1030 661 922 776T645 891Z"/><glyph unicode="q" horiz-adv-x="1217" d="M1042 -342H1221V-434H762V-342H936V193H932Q821 -29 563 -29Q354 -29 220 113T86 479Q86 694 221 838T557 983Q803 983 932 768H936V969H1221V877H1042V-342ZM561 68Q726 68 833 184T940 481Q940 661 837 776T571 891Q402 891 294 776T186 477Q186 296 291 182T561 68Z"/><glyph unicode="r" horiz-adv-x="811" d="M45 0V92H229V877H45V969H336V731H340Q451 1003 784 983V881Q560 885 448 805T336 494V92H535V0H45Z"/><glyph unicode="s" horiz-adv-x="918" d="M78 0V336H172Q172 216 255 142T473 68Q592 68 667 122T743 260Q743 324 697 368T450 452T190 557T131 719Q131 831 218 907T434 983Q607 983 700 856H705V969H795V651H705Q700 761 624 828T438 895Q339 895 283 843T227 717Q227 659 271 619T516 541T778 434T840 268Q840 140 740 63T471 -14Q265 -14 176 121H172V0H78Z"/><glyph unicode="t" horiz-adv-x="532" d="M178 877H6V969H178V1186L285 1270V969H487V877H285V201Q285 119 306 97T372 74Q414 74 487 92V0Q410 -22 350 -22Q178 -22 178 156V877Z"/><glyph unicode="u" horiz-adv-x="1110" d="M821 0V139Q643 -14 440 -14Q329 -14 263 51T197 225V877H27V969H303V252Q303 82 461 82Q644 82 821 258V877H651V969H928V92H1094V0H821Z"/><glyph unicode="v" horiz-adv-x="1067" d="M498 -14L156 877H-4V969H397V877H264L459 354Q525 177 547 92Q579 210 610 297L823 877H688V969H1071V877H924L596 -14H498Z"/><glyph unicode="w" horiz-adv-x="1536" d="M410 -14L133 877H6V969H346V877H233L387 375Q446 182 461 109Q483 231 528 375L688 877H575V969H942V877H834L971 440Q1029 249 1059 100Q1058 168 1139 410L1294 877H1167V969H1530V877H1397L1108 -14H1010L760 827L514 -14H410Z"/><glyph unicode="x" horiz-adv-x="1087" d="M37 0V92H168L479 500L178 877H53V969H414V877H299L539 575L774 877H670V969H1026V877H895L600 500L930 92H1053V0H692V92H811L539 426L287 92H414V0H37Z"/><glyph unicode="y" horiz-adv-x="1087" d="M377 -342L512 27L164 877H4V969H426V877H268L563 156L836 877H682V969H1085V877H938L442 -434H172V-342H377Z"/><glyph unicode="z" horiz-adv-x="981" d="M92 0V92L774 877H225V625H141V969H891V877L209 92H805V354H891V0H92Z"/><glyph unicode="{" horiz-adv-x="682" d="M98 545Q291 545 291 838V1083Q291 1242 370 1322T584 1393V1282Q472 1283 438 1236T403 1012V870Q403 556 207 479Q403 402 403 88V-53Q403 -230 437 -277T584 -324V-434Q449 -444 370 -364T291 -125V121Q291 414 98 414V545Z"/><glyph unicode="|" horiz-adv-x="1016" d="M455 1391H561V-459H455V1391Z"/><glyph unicode="}" horiz-adv-x="682" d="M584 545V414Q391 414 391 121V-125Q391 -283 312 -363T98 -434V-324Q210 -324 244 -277T279 -53V88Q279 402 475 479Q279 556 279 870V1012Q279 1189 245 1236T98 1282V1393Q233 1403 312 1323T391 1083V838Q391 545 584 545Z"/><glyph unicode="~" horiz-adv-x="1343" d="M135 596V707Q301 827 422 827Q514 827 682 749T926 670Q990 670 1053 702T1210 801V690Q1043 569 930 569Q844 569 670 648T422 727Q359 727 302 701T135 596Z"/><glyph unicode=" " horiz-adv-x="512"/><glyph unicode="¡" horiz-adv-x="512" d="M199 778V969H313V778H199ZM203 -422V12L227 600H285L309 12V-422H203Z"/><glyph unicode="¢" horiz-adv-x="1044" d="M274 -434L387 0Q246 52 165 181T84 473Q84 685 217 833T534 982Q586 982 637 969L739 1370H807L700 954Q802 921 856 842H860V969H948V600H860Q853 794 678 864L473 76Q519 68 561 68Q795 68 897 299L983 262Q929 126 817 49T563 -28Q508 -28 451 -16L344 -434H274ZM414 96L614 881Q583 885 554 885Q387 885 290 768T193 483Q193 356 253 248T414 96Z"/><glyph unicode="£" horiz-adv-x="1067" d="M111 641V733H356Q250 958 250 1098Q250 1238 345 1325T594 1413Q754 1413 845 1327T942 1077H842Q829 1327 594 1327Q488 1327 421 1266T354 1108Q354 993 461 733H729V641H492Q539 515 539 399Q539 325 518 231Q634 128 687 98T791 68Q937 68 942 307H1026Q1029 156 965 69T795 -18Q659 -18 492 150Q412 -18 270 -18Q191 -18 140 33T88 162Q88 240 143 292T285 344Q365 344 446 287Q455 319 455 359Q455 477 387 641H111ZM428 205Q364 270 289 270Q235 270 200 238T164 158Q164 115 194 85T268 55Q367 55 428 205Z"/><glyph unicode="¤" horiz-adv-x="1366" d="M1092 1171L1155 1104L1026 975Q1124 853 1124 698Q1124 539 1026 420L1155 293L1092 227L961 354Q835 258 680 258Q531 258 406 354L279 227L213 293L338 420Q242 548 242 700Q242 845 338 975L213 1104L279 1171L406 1040Q547 1141 686 1141Q830 1141 961 1040L1092 1171ZM1028 700Q1028 842 926 943T682 1044Q540 1044 439 944T338 700Q338 558 439 456T682 354Q824 354 926 456T1028 700Z"/><glyph unicode="¥" horiz-adv-x="1130" d="M634 631L632 628V417H1111V322H632V92H827V0H320V92H514V322H36V417H514V628L512 631H36V726H452L87 1299H-93V1391H402V1299H221L584 726L943 1299H762V1391H1223V1299H1055L694 726H1111V631H634Z"/><glyph unicode="¦" horiz-adv-x="1016" d="M455 645V1391H561V645H455ZM455 -459V289H561V-459H455Z"/><glyph unicode="§" horiz-adv-x="897" d="M109 -80H209Q209 -197 283 -271T473 -346Q586 -346 658 -278T731 -113Q731 -42 678 19T396 178T100 362T33 549Q33 702 209 844Q74 943 74 1104Q74 1237 173 1325T422 1413Q573 1413 680 1327T795 1071H698Q692 1194 615 1260T420 1327Q312 1327 242 1265T172 1108Q172 1029 227 962T509 798T799 620T862 440Q862 261 684 141Q823 54 823 -113Q823 -257 726 -345T469 -434Q315 -434 212 -337T109 -80ZM614 184Q764 283 764 428Q764 535 701 587T492 700T276 797Q131 698 131 563Q131 485 188 417T408 279T614 184Z"/><glyph unicode="¨" horiz-adv-x="682" d="M449 1253Q449 1282 469 1302T518 1323Q547 1323 567 1303T588 1253Q588 1224 568 1204T518 1184Q489 1184 469 1204T449 1253ZM94 1253Q94 1282 114 1302T164 1323Q193 1323 213 1303T233 1253Q233 1224 213 1204T164 1184Q135 1184 115 1204T94 1253Z"/><glyph unicode="©" horiz-adv-x="1642" d="M57 727Q57 1042 281 1266T821 1491Q1136 1491 1360 1267T1585 727Q1585 412 1361 188T821 -37Q506 -37 282 187T57 727ZM152 727Q152 452 348 256T819 59Q1094 59 1290 255T1487 727Q1487 1002 1291 1198T819 1395Q544 1395 348 1199T152 727ZM1153 924L1057 895Q986 1061 831 1061Q707 1061 629 972T551 739Q551 580 626 481T821 381Q1001 381 1071 586L1161 553Q1124 422 1033 357T825 291Q659 291 551 417T442 729Q442 899 548 1021T831 1143Q1042 1143 1153 924Z"/><glyph unicode="ª" horiz-adv-x="682" d="M502 815V899Q379 807 270 807Q189 807 134 857T78 981Q78 1057 143 1108T309 1159Q404 1159 502 1110V1237Q502 1366 334 1366Q189 1366 139 1268L86 1280Q157 1413 336 1413Q459 1413 515 1370T571 1229V870H674V815H502ZM502 952V1059Q410 1110 324 1110Q245 1110 196 1072T147 975Q147 923 186 890T287 856Q407 856 502 952Z"/><glyph unicode="«" horiz-adv-x="961" d="M616 489L928 0H815L502 489L815 979H928L616 489ZM180 489L492 0H379L66 489L379 979H492L180 489Z"/><glyph unicode="¬" horiz-adv-x="1366" d="M145 948H1221V369H1128V856H145V948Z"/><glyph unicode="­" horiz-adv-x="705" d="M70 439V529H634V439H70Z"/><glyph unicode="®" horiz-adv-x="1642" d="M57 727Q57 1042 281 1266T821 1491Q1136 1491 1360 1267T1585 727Q1585 412 1361 188T821 -37Q506 -37 282 187T57 727ZM152 727Q152 452 348 256T819 59Q1094 59 1290 255T1487 727Q1487 1002 1291 1198T819 1395Q544 1395 348 1199T152 727ZM512 1120H850Q979 1120 1051 1063T1124 905Q1124 814 1060 750T885 682V678Q980 647 1027 575T1153 317H1032Q934 546 871 606T664 666H618V317H512V1120ZM618 750H752Q891 750 950 783T1010 899Q1010 981 957 1009T766 1038H618V750Z"/><glyph unicode="¯" horiz-adv-x="1024" d="M-12 1647H1036V1545H-12V1647Z"/><glyph unicode="°" horiz-adv-x="811" d="M117 1124Q117 1244 201 1328T406 1413Q525 1413 609 1329T694 1124Q694 1005 610 921T406 836Q286 836 202 920T117 1124ZM612 1124Q612 1193 555 1262T406 1331Q318 1331 259 1269T199 1124Q199 1042 258 980T406 918Q487 918 549 978T612 1124Z"/><glyph unicode="±" horiz-adv-x="1366" d="M729 862H1221V770H729V279H637V770H145V862H637V1354H729V862ZM145 55H1221V-37H145V55Z"/><glyph unicode="²" horiz-adv-x="662" d="M565 913L557 680H51Q51 898 330 1055Q427 1110 449 1145T471 1221Q471 1282 429 1319T317 1356Q235 1356 191 1305T152 1161H72Q70 1177 70 1193Q70 1291 140 1352T317 1413Q425 1413 489 1360T553 1219Q553 1140 515 1100T391 1012Q166 888 137 741H481L487 913H565Z"/><glyph unicode="³" horiz-adv-x="662" d="M55 911H135Q161 729 336 729Q419 729 470 771T522 883Q522 947 472 989T332 1031Q304 1031 272 1026V1085Q289 1084 305 1084Q382 1084 428 1124T475 1225Q475 1282 434 1319T328 1356Q185 1356 186 1208H102Q105 1303 166 1358T326 1413Q427 1413 493 1359T559 1221Q559 1112 451 1063Q606 1013 606 881Q606 791 529 731T334 670Q215 670 138 734T55 911Z"/><glyph unicode="´" horiz-adv-x="682" d="M268 1098H190L395 1415H512L268 1098Z"/><glyph unicode="µ" horiz-adv-x="1130" d="M213 969H313V479Q313 284 383 183T573 82Q831 82 831 489V969H932V0H831V119H827Q727 -25 569 -25Q421 -25 317 119H313V-434H213V969Z"/><glyph unicode="¶" horiz-adv-x="1323" d="M1266 1391V1253H1071V-434H942V1253H676V-434H545V545Q339 545 218 667T96 973Q96 1163 226 1277T575 1391H1266Z"/><glyph unicode="·" horiz-adv-x="682" d="M589 765Q619 765 639 744T659 696Q659 667 639 647T589 626Q561 626 541 646T520 695Q520 724 540 744T589 765Z"/><glyph unicode="¸" horiz-adv-x="682" d="M260 -164L289 -14H354L340 -88Q489 -108 489 -246Q489 -444 147 -434V-369Q172 -371 195 -371Q387 -371 387 -258Q387 -178 260 -164Z"/><glyph unicode="¹" horiz-adv-x="662" d="M172 680V739H287V1341H172V1401H375V739H489V680H172Z"/><glyph unicode="º" horiz-adv-x="725" d="M365 799Q230 799 140 887T49 1106Q49 1236 139 1324T362 1413Q495 1413 585 1325T676 1106Q676 976 586 888T365 799ZM365 1356Q259 1356 190 1285T121 1106Q121 997 190 927T365 856Q468 856 537 927T606 1106Q606 1213 537 1284T365 1356Z"/><glyph unicode="»" horiz-adv-x="961" d="M780 489L469 979H582L895 489L582 0H469L780 489ZM344 489L33 979H145L459 489L145 0H33L344 489Z"/><glyph unicode="¼" horiz-adv-x="1729" d="M172 680V739H287V1341H172V1401H375V739H489V680H172ZM256 0L1235 1391H1307L328 0H256ZM1257 0V55H1348V209H1034Q1027 241 1001 254L1348 727H1427V262H1561V209H1427V55H1499V0H1257ZM1348 262V612H1343L1087 262H1348Z"/><glyph unicode="½" horiz-adv-x="1729" d="M172 680V739H287V1341H172V1401H375V739H489V680H172ZM256 0L1235 1391H1307L328 0H256ZM1534 233L1526 0H1020Q1020 218 1299 375Q1396 430 1418 465T1440 541Q1440 602 1398 639T1286 676Q1204 676 1160 625T1121 481H1041Q1039 497 1039 513Q1039 611 1109 672T1286 733Q1394 733 1458 680T1522 539Q1522 460 1484 420T1360 332Q1135 208 1106 61H1450L1456 233H1534Z"/><glyph unicode="¾" horiz-adv-x="1729" d="M55 911H135Q161 729 336 729Q419 729 470 771T522 883Q522 947 472 989T332 1031Q304 1031 272 1026V1085Q289 1084 305 1084Q382 1084 428 1124T475 1225Q475 1282 434 1319T328 1356Q185 1356 186 1208H102Q105 1303 166 1358T326 1413Q427 1413 493 1359T559 1221Q559 1112 451 1063Q606 1013 606 881Q606 791 529 731T334 670Q215 670 138 734T55 911ZM256 0L1235 1391H1307L328 0H256ZM1257 0V55H1348V209H1034Q1027 241 1001 254L1348 727H1427V262H1561V209H1427V55H1499V0H1257ZM1348 262V612H1343L1087 262H1348Z"/><glyph unicode="¿" horiz-adv-x="918" d="M453 778V969H567V778H453ZM530 592L567 199L553 193Q512 199 474 199Q340 199 264 131T188 -70Q188 -190 271 -271T479 -352Q605 -352 682 -273T760 -66H856Q856 -233 751 -338T477 -444Q307 -444 197 -337T86 -63Q86 86 185 193T457 295L481 592H530Z"/><glyph unicode="À" horiz-adv-x="1343" d="M129 92L547 1298H373V1391H971V1298H797L1221 92H1393V0H932V92H1106L952 528H391L242 92H424V0H-47V92H129ZM424 621H922L680 1325H666L424 621ZM746 1513L502 1830H619L824 1513H746Z"/><glyph unicode="Á" horiz-adv-x="1343" d="M129 92L547 1298H373V1391H971V1298H797L1221 92H1393V0H932V92H1106L952 528H391L242 92H424V0H-47V92H129ZM424 621H922L680 1325H666L424 621ZM600 1513H522L727 1830H844L600 1513Z"/><glyph unicode="Â" horiz-adv-x="1343" d="M129 92L547 1298H373V1391H971V1298H797L1221 92H1393V0H932V92H1106L952 528H391L242 92H424V0H-47V92H129ZM424 621H922L680 1325H666L424 621ZM371 1522L613 1819H715L975 1522H899L664 1729L443 1522H371Z"/><glyph unicode="Ã" horiz-adv-x="1343" d="M129 92L547 1298H373V1391H971V1298H797L1221 92H1393V0H932V92H1106L952 528H391L242 92H424V0H-47V92H129ZM424 621H922L680 1325H666L424 621ZM398 1581H342Q400 1762 522 1762Q578 1762 676 1713T830 1663Q907 1663 950 1759H1004Q955 1581 815 1581Q758 1581 660 1630T516 1680Q434 1680 398 1581Z"/><glyph unicode="Ä" horiz-adv-x="1343" d="M129 92L547 1298H373V1391H971V1298H797L1221 92H1393V0H932V92H1106L952 528H391L242 92H424V0H-47V92H129ZM424 621H922L680 1325H666L424 621ZM781 1668Q781 1697 801 1717T850 1738Q879 1738 899 1718T920 1668Q920 1639 900 1619T850 1599Q821 1599 801 1619T781 1668ZM426 1668Q426 1697 446 1717T496 1738Q525 1738 545 1718T565 1668Q565 1639 545 1619T496 1599Q467 1599 447 1619T426 1668Z"/><glyph unicode="Å" horiz-adv-x="1343" d="M766 1391H969V1299H796L1219 92H1391V0H930V92H1104L951 528H390L240 92H422V0H-48V92H128L546 1299H371V1391H579Q455 1453 455 1587Q455 1676 519 1740T672 1804Q762 1804 825 1740T889 1587Q889 1453 766 1391ZM672 1726Q615 1726 575 1685T534 1587Q534 1529 574 1489T672 1448Q728 1448 769 1489T810 1587Q810 1644 770 1685T672 1726ZM422 619H920L680 1326H664L422 619Z"/><glyph unicode="Æ" horiz-adv-x="1921" d="M-125 0V92H23L686 1298H457V1391H1829V1053H1735V1298H1004V760H1587V668H1004V92H1735V342H1829V0H657V92H889V668H457L137 92H299V0H-125ZM504 760H889V1298H801L504 760Z"/><glyph unicode="Ç" horiz-adv-x="1536" d="M884 -257Q884 -175 756 -164L784 -19Q633 -19 476 58T223 306T127 703Q127 1018 321 1215T807 1413Q965 1413 1105 1346T1328 1169V1391H1422V947H1328Q1288 1122 1139 1217T815 1312Q560 1312 400 1139T240 701Q240 441 398 261T823 80Q1226 80 1378 509L1468 457Q1403 241 1243 116T849 -19L835 -88Q890 -88 937 -132T985 -245Q985 -320 920 -376T643 -433V-369Q667 -370 679 -370Q884 -370 884 -257Z"/><glyph unicode="È" horiz-adv-x="1237" d="M31 0V92H209V1298H31V1391H1145V1053H1051V1298H324V758H901V666H324V92H1051V342H1145V0H31ZM693 1513L449 1830H566L771 1513H693Z"/><glyph unicode="É" horiz-adv-x="1237" d="M31 0V92H209V1298H31V1391H1145V1053H1051V1298H324V758H901V666H324V92H1051V342H1145V0H31ZM547 1513H469L674 1830H791L547 1513Z"/><glyph unicode="Ê" horiz-adv-x="1237" d="M31 0V92H209V1298H31V1391H1145V1053H1051V1298H324V758H901V666H324V92H1051V342H1145V0H31ZM317 1522L559 1819H661L921 1522H845L610 1729L389 1522H317Z"/><glyph unicode="Ë" horiz-adv-x="1237" d="M31 0V92H209V1298H31V1391H1145V1053H1051V1298H324V758H901V666H324V92H1051V342H1145V0H31ZM728 1668Q728 1697 748 1717T797 1738Q826 1738 846 1718T867 1668Q867 1639 847 1619T797 1599Q768 1599 748 1619T728 1668ZM373 1668Q373 1697 393 1717T443 1738Q472 1738 492 1718T512 1668Q512 1639 492 1619T443 1599Q414 1599 394 1619T373 1668Z"/><glyph unicode="Ì" horiz-adv-x="575" d="M55 0V92H229V1298H55V1391H520V1298H344V92H520V0H55ZM361 1513L117 1830H234L439 1513H361Z"/><glyph unicode="Í" horiz-adv-x="575" d="M55 0V92H229V1298H55V1391H520V1298H344V92H520V0H55ZM215 1513H137L342 1830H459L215 1513Z"/><glyph unicode="Î" horiz-adv-x="575" d="M55 0V92H229V1298H55V1391H520V1298H344V92H520V0H55ZM-14 1522L228 1819H330L590 1522H514L279 1729L58 1522H-14Z"/><glyph unicode="Ï" horiz-adv-x="575" d="M55 0V92H229V1298H55V1391H520V1298H344V92H520V0H55ZM396 1668Q396 1697 416 1717T465 1738Q494 1738 514 1718T535 1668Q535 1639 515 1619T465 1599Q436 1599 416 1619T396 1668ZM41 1668Q41 1697 61 1717T111 1738Q140 1738 160 1718T180 1668Q180 1639 160 1619T111 1599Q82 1599 62 1619T41 1668Z"/><glyph unicode="Ð" horiz-adv-x="1450" d="M18 0V92H211V651H18V743H211V1298H18V1391H571Q1020 1391 1186 1183T1352 709Q1352 496 1267 329T1034 81T584 0H18ZM326 92H588Q956 92 1096 262T1237 705Q1237 952 1093 1125T584 1298H326V743H752V651H326V92Z"/><glyph unicode="Ñ" horiz-adv-x="1450" d="M20 0V92H207V1298H20V1391H348L1151 164V1298H956V1391H1430V1298H1247V-18H1141L303 1260V92H500V0H20ZM451 1581H395Q453 1762 575 1762Q631 1762 729 1713T883 1663Q960 1663 1003 1759H1057Q1008 1581 868 1581Q811 1581 713 1630T569 1680Q487 1680 451 1581Z"/><glyph unicode="Ò" horiz-adv-x="1599" d="M815 -20Q501 -20 302 180T102 696Q102 1008 299 1210T801 1413Q1103 1413 1301 1210T1499 696Q1499 389 1303 185T815 -20ZM801 1313Q549 1313 383 1138T217 696Q217 430 383 255T801 80Q1053 80 1218 255T1384 696Q1384 963 1219 1138T801 1313ZM873 1513L629 1830H746L951 1513H873Z"/><glyph unicode="Ó" horiz-adv-x="1599" d="M815 -20Q501 -20 302 180T102 696Q102 1008 299 1210T801 1413Q1103 1413 1301 1210T1499 696Q1499 389 1303 185T815 -20ZM801 1313Q549 1313 383 1138T217 696Q217 430 383 255T801 80Q1053 80 1218 255T1384 696Q1384 963 1219 1138T801 1313ZM727 1513H649L854 1830H971L727 1513Z"/><glyph unicode="Ô" horiz-adv-x="1599" d="M815 -20Q501 -20 302 180T102 696Q102 1008 299 1210T801 1413Q1103 1413 1301 1210T1499 696Q1499 389 1303 185T815 -20ZM801 1313Q549 1313 383 1138T217 696Q217 430 383 255T801 80Q1053 80 1218 255T1384 696Q1384 963 1219 1138T801 1313ZM498 1522L740 1819H842L1102 1522H1026L791 1729L570 1522H498Z"/><glyph unicode="Õ" horiz-adv-x="1599" d="M815 -20Q501 -20 302 180T102 696Q102 1008 299 1210T801 1413Q1103 1413 1301 1210T1499 696Q1499 389 1303 185T815 -20ZM801 1313Q549 1313 383 1138T217 696Q217 430 383 255T801 80Q1053 80 1218 255T1384 696Q1384 963 1219 1138T801 1313ZM525 1581H469Q527 1762 649 1762Q705 1762 803 1713T957 1663Q1034 1663 1077 1759H1131Q1082 1581 942 1581Q885 1581 787 1630T643 1680Q561 1680 525 1581Z"/><glyph unicode="Ö" horiz-adv-x="1599" d="M815 -20Q501 -20 302 180T102 696Q102 1008 299 1210T801 1413Q1103 1413 1301 1210T1499 696Q1499 389 1303 185T815 -20ZM801 1313Q549 1313 383 1138T217 696Q217 430 383 255T801 80Q1053 80 1218 255T1384 696Q1384 963 1219 1138T801 1313ZM908 1668Q908 1697 928 1717T977 1738Q1006 1738 1026 1718T1047 1668Q1047 1639 1027 1619T977 1599Q948 1599 928 1619T908 1668ZM553 1668Q553 1697 573 1717T623 1738Q652 1738 672 1718T692 1668Q692 1639 672 1619T623 1599Q594 1599 574 1619T553 1668Z"/><glyph unicode="×" horiz-adv-x="1368" d="M684 592L260 170L195 236L616 657L195 1079L260 1145L682 721L1106 1145L1171 1079L750 657L1171 236L1106 170L684 592Z"/><glyph unicode="Ø" horiz-adv-x="1599" d="M1251 1257L1378 1403L1432 1356L1300 1208Q1499 1015 1499 700Q1499 398 1311 189T801 -20Q644 -20 547 14T356 131L229 -10L176 35L303 180Q102 385 102 692Q102 993 292 1203T801 1413Q945 1413 1044 1377T1251 1257ZM375 262L1180 1178Q1089 1249 1008 1281T807 1313Q546 1313 382 1139T217 688Q217 440 375 262ZM1233 1128L428 213Q572 80 793 80Q1070 80 1227 266T1384 700Q1384 962 1233 1128Z"/><glyph unicode="Ù" horiz-adv-x="1323" d="M184 1298H6V1391H475V1298H299V406Q299 248 391 164T655 80Q1022 80 1022 401V1298H846V1391H1315V1298H1137V406Q1137 195 1008 88T672 -20Q440 -20 312 88T184 406V1298ZM736 1513L492 1830H609L814 1513H736Z"/><glyph unicode="Ú" horiz-adv-x="1323" d="M184 1298H6V1391H475V1298H299V406Q299 248 391 164T655 80Q1022 80 1022 401V1298H846V1391H1315V1298H1137V406Q1137 195 1008 88T672 -20Q440 -20 312 88T184 406V1298ZM590 1513H512L717 1830H834L590 1513Z"/><glyph unicode="Û" horiz-adv-x="1323" d="M184 1298H6V1391H475V1298H299V406Q299 248 391 164T655 80Q1022 80 1022 401V1298H846V1391H1315V1298H1137V406Q1137 195 1008 88T672 -20Q440 -20 312 88T184 406V1298ZM360 1522L602 1819H704L964 1522H888L653 1729L432 1522H360Z"/><glyph unicode="Ü" horiz-adv-x="1323" d="M184 1298H6V1391H475V1298H299V406Q299 248 391 164T655 80Q1022 80 1022 401V1298H846V1391H1315V1298H1137V406Q1137 195 1008 88T672 -20Q440 -20 312 88T184 406V1298ZM771 1668Q771 1697 791 1717T840 1738Q869 1738 889 1718T910 1668Q910 1639 890 1619T840 1599Q811 1599 791 1619T771 1668ZM416 1668Q416 1697 436 1717T486 1738Q515 1738 535 1718T555 1668Q555 1639 535 1619T486 1599Q457 1599 437 1619T416 1668Z"/><glyph unicode="Ý" horiz-adv-x="1237" d="M375 0V92H567V627L141 1298H-39V1391H457V1298H274L635 727L997 1298H817V1391H1276V1298H1108L682 627V92H881V0H375ZM547 1513H469L674 1830H791L547 1513Z"/><glyph unicode="Þ" horiz-adv-x="1130" d="M33 0V92H217V1298H33V1391H520V1298H332V1104H635Q853 1104 972 993T1092 696Q1092 515 974 401T643 287H332V92H520V0H33ZM332 1012V379H594Q977 379 977 686Q977 854 887 933T606 1012H332Z"/><glyph unicode="ß" horiz-adv-x="1260" d="M207 92V1030Q207 1209 318 1311T631 1413Q819 1413 933 1320T1047 1075Q1047 874 858 813V809Q1010 780 1093 673T1176 408Q1176 222 1066 104T784 -14Q719 -14 668 0V92Q698 72 788 72Q899 72 985 161T1071 401Q1071 762 668 762V844Q801 838 871 906T942 1083Q942 1191 857 1259T631 1327Q313 1327 313 1036V92H467V0H33V92H207Z"/><glyph unicode="à" horiz-adv-x="1044" d="M758 0V139Q576 -14 399 -14Q277 -14 191 69T104 272Q104 402 205 486T463 571Q605 571 758 492V717Q758 920 500 920Q278 920 201 754L121 774Q224 995 508 995Q864 995 864 721V92H1024V0H758ZM758 229V406Q612 492 481 492Q362 492 288 429T213 266Q213 181 273 125T426 68Q508 68 601 112T758 229ZM596 1098L352 1415H469L674 1098H596Z"/><glyph unicode="á" horiz-adv-x="1044" d="M758 0V139Q576 -14 399 -14Q277 -14 191 69T104 272Q104 402 205 486T463 571Q605 571 758 492V717Q758 920 500 920Q278 920 201 754L121 774Q224 995 508 995Q864 995 864 721V92H1024V0H758ZM758 229V406Q612 492 481 492Q362 492 288 429T213 266Q213 181 273 125T426 68Q508 68 601 112T758 229ZM451 1098H373L578 1415H695L451 1098Z"/><glyph unicode="â" horiz-adv-x="1044" d="M758 0V139Q576 -14 399 -14Q277 -14 191 69T104 272Q104 402 205 486T463 571Q605 571 758 492V717Q758 920 500 920Q278 920 201 754L121 774Q224 995 508 995Q864 995 864 721V92H1024V0H758ZM758 229V406Q612 492 481 492Q362 492 288 429T213 266Q213 181 273 125T426 68Q508 68 601 112T758 229ZM221 1106L463 1403H565L825 1106H749L514 1313L293 1106H221Z"/><glyph unicode="ã" horiz-adv-x="1044" d="M758 0V139Q576 -14 399 -14Q277 -14 191 69T104 272Q104 402 205 486T463 571Q605 571 758 492V717Q758 920 500 920Q278 920 201 754L121 774Q224 995 508 995Q864 995 864 721V92H1024V0H758ZM758 229V406Q612 492 481 492Q362 492 288 429T213 266Q213 181 273 125T426 68Q508 68 601 112T758 229ZM249 1165H193Q251 1346 373 1346Q429 1346 527 1297T681 1247Q758 1247 801 1343H855Q806 1165 666 1165Q609 1165 511 1214T367 1264Q285 1264 249 1165Z"/><glyph unicode="ä" horiz-adv-x="1044" d="M758 0V139Q576 -14 399 -14Q277 -14 191 69T104 272Q104 402 205 486T463 571Q605 571 758 492V717Q758 920 500 920Q278 920 201 754L121 774Q224 995 508 995Q864 995 864 721V92H1024V0H758ZM758 229V406Q612 492 481 492Q362 492 288 429T213 266Q213 181 273 125T426 68Q508 68 601 112T758 229ZM631 1253Q631 1282 651 1302T700 1323Q729 1323 749 1303T770 1253Q770 1224 750 1204T700 1184Q671 1184 651 1204T631 1253ZM276 1253Q276 1282 296 1302T346 1323Q375 1323 395 1303T415 1253Q415 1224 395 1204T346 1184Q317 1184 297 1204T276 1253Z"/><glyph unicode="å" horiz-adv-x="1044" d="M758 0V139Q576 -14 399 -14Q277 -14 191 69T104 272Q104 402 205 486T463 571Q605 571 758 492V717Q758 920 500 920Q278 920 201 754L121 774Q224 995 508 995Q864 995 864 721V92H1024V0H758ZM758 229V406Q612 492 481 492Q362 492 288 429T213 266Q213 181 273 125T426 68Q508 68 601 112T758 229ZM336 1253Q336 1331 390 1385T522 1440Q600 1440 655 1386T710 1253Q710 1175 655 1120T522 1065Q444 1065 390 1120T336 1253ZM649 1253Q649 1305 612 1341T522 1378Q470 1378 434 1342T397 1253Q397 1201 433 1164T522 1126Q574 1126 611 1163T649 1253Z"/><glyph unicode="æ" horiz-adv-x="1772" d="M1698 461H846Q863 274 973 169T1249 63Q1478 63 1630 268L1712 225Q1543 -29 1251 -29Q982 -29 838 193Q638 -29 426 -29Q290 -29 201 56T111 270Q111 403 206 485T459 567Q611 567 752 481V713Q752 915 492 915Q284 915 209 752L125 774Q220 995 506 995Q794 995 846 774Q987 995 1235 995Q1433 995 1565 852T1698 461ZM856 553H1593Q1583 711 1476 808T1229 905Q1091 905 983 811T856 553ZM752 399Q583 489 469 489Q357 489 285 427T213 268Q213 175 276 113T432 51Q597 51 752 213V399Z"/><glyph unicode="ç" horiz-adv-x="1044" d="M444 -164L473 -18Q292 14 188 148T84 473Q84 691 217 837T549 983Q751 983 856 842H860V969H948V600H860Q860 726 771 806T553 887Q394 887 294 774T193 481Q193 296 295 182T561 68Q795 68 897 299L983 262Q927 123 816 47T563 -29H537L524 -88Q674 -108 674 -246Q674 -444 332 -434V-369Q356 -371 380 -371Q571 -371 571 -258Q571 -178 444 -164Z"/><glyph unicode="è" horiz-adv-x="1130" d="M1059 461H188Q188 294 308 176T596 57Q825 57 975 268L1059 229Q986 107 859 39T584 -29Q365 -29 224 115T82 483Q82 707 221 851T575 995Q784 995 918 853T1059 461ZM190 553H948Q919 723 819 814T567 905Q421 905 321 813T190 553ZM639 1098L395 1415H512L717 1098H639Z"/><glyph unicode="é" horiz-adv-x="1130" d="M1059 461H188Q188 294 308 176T596 57Q825 57 975 268L1059 229Q986 107 859 39T584 -29Q365 -29 224 115T82 483Q82 707 221 851T575 995Q784 995 918 853T1059 461ZM190 553H948Q919 723 819 814T567 905Q421 905 321 813T190 553ZM494 1098H416L621 1415H738L494 1098Z"/><glyph unicode="ê" horiz-adv-x="1130" d="M1059 461H188Q188 294 308 176T596 57Q825 57 975 268L1059 229Q986 107 859 39T584 -29Q365 -29 224 115T82 483Q82 707 221 851T575 995Q784 995 918 853T1059 461ZM190 553H948Q919 723 819 814T567 905Q421 905 321 813T190 553ZM264 1106L506 1403H608L868 1106H792L557 1313L336 1106H264Z"/><glyph unicode="ë" horiz-adv-x="1130" d="M1059 461H188Q188 294 308 176T596 57Q825 57 975 268L1059 229Q986 107 859 39T584 -29Q365 -29 224 115T82 483Q82 707 221 851T575 995Q784 995 918 853T1059 461ZM190 553H948Q919 723 819 814T567 905Q421 905 321 813T190 553ZM674 1253Q674 1282 694 1302T743 1323Q772 1323 792 1303T813 1253Q813 1224 793 1204T743 1184Q714 1184 694 1204T674 1253ZM319 1253Q319 1282 339 1302T389 1323Q418 1323 438 1303T458 1253Q458 1224 438 1204T389 1184Q360 1184 340 1204T319 1253Z"/><glyph unicode="ì" horiz-adv-x="512" d="M49 0V92H221V877H49V969H328V92H492V0H49ZM269 1098L25 1415H142L347 1098H269Z"/><glyph unicode="í" horiz-adv-x="512" d="M49 0V92H221V877H49V969H328V92H492V0H49ZM440 1098H362L567 1415H684L440 1098Z"/><glyph unicode="î" horiz-adv-x="512" d="M49 0V92H221V877H49V969H328V92H492V0H49ZM211 1106L453 1403H555L815 1106H739L504 1313L283 1106H211Z"/><glyph unicode="ï" horiz-adv-x="512" d="M49 0V92H221V877H49V969H328V92H492V0H49ZM621 1253Q621 1282 641 1302T690 1323Q719 1323 739 1303T760 1253Q760 1224 740 1204T690 1184Q661 1184 641 1204T621 1253ZM266 1253Q266 1282 286 1302T336 1323Q365 1323 385 1303T405 1253Q405 1224 385 1204T336 1184Q307 1184 287 1204T266 1253Z"/><glyph unicode="ð" horiz-adv-x="1153" d="M1010 1366L752 1245Q1059 986 1059 578Q1059 295 928 133T584 -29Q372 -29 233 115T94 483Q94 700 233 847T575 995Q777 995 905 838L909 842Q831 1056 645 1194L379 1067L303 1120L569 1247Q450 1323 344 1364L457 1419Q589 1362 680 1298L934 1419L1010 1366ZM575 899Q415 899 309 781T203 483Q203 304 309 186T575 68Q739 68 844 191T950 512Q950 672 846 785T575 899Z"/><glyph unicode="ñ" horiz-adv-x="1087" d="M14 0V92H193V877H14V969H299V819Q497 983 664 983Q781 983 853 915T926 731V92H1081V0H647V92H819V702Q819 887 657 887Q487 887 299 713V92H457V0H14ZM269 1165H213Q271 1346 393 1346Q449 1346 547 1297T701 1247Q778 1247 821 1343H875Q826 1165 686 1165Q629 1165 531 1214T387 1264Q305 1264 269 1165Z"/><glyph unicode="ò" horiz-adv-x="1130" d="M565 -29Q361 -29 223 118T84 483Q84 701 222 848T565 995Q770 995 909 848T1049 483Q1049 266 910 119T565 -29ZM565 899Q405 899 299 781T193 483Q193 304 299 186T565 68Q726 68 833 186T940 483Q940 662 833 780T565 899ZM639 1098L395 1415H512L717 1098H639Z"/><glyph unicode="ó" horiz-adv-x="1130" d="M565 -29Q361 -29 223 118T84 483Q84 701 222 848T565 995Q770 995 909 848T1049 483Q1049 266 910 119T565 -29ZM565 899Q405 899 299 781T193 483Q193 304 299 186T565 68Q726 68 833 186T940 483Q940 662 833 780T565 899ZM494 1098H416L621 1415H738L494 1098Z"/><glyph unicode="ô" horiz-adv-x="1130" d="M565 -29Q361 -29 223 118T84 483Q84 701 222 848T565 995Q770 995 909 848T1049 483Q1049 266 910 119T565 -29ZM565 899Q405 899 299 781T193 483Q193 304 299 186T565 68Q726 68 833 186T940 483Q940 662 833 780T565 899ZM264 1106L506 1403H608L868 1106H792L557 1313L336 1106H264Z"/><glyph unicode="õ" horiz-adv-x="1130" d="M565 -29Q361 -29 223 118T84 483Q84 701 222 848T565 995Q770 995 909 848T1049 483Q1049 266 910 119T565 -29ZM565 899Q405 899 299 781T193 483Q193 304 299 186T565 68Q726 68 833 186T940 483Q940 662 833 780T565 899ZM292 1165H236Q294 1346 416 1346Q472 1346 570 1297T724 1247Q801 1247 844 1343H898Q849 1165 709 1165Q652 1165 554 1214T410 1264Q328 1264 292 1165Z"/><glyph unicode="ö" horiz-adv-x="1130" d="M565 -29Q361 -29 223 118T84 483Q84 701 222 848T565 995Q770 995 909 848T1049 483Q1049 266 910 119T565 -29ZM565 899Q405 899 299 781T193 483Q193 304 299 186T565 68Q726 68 833 186T940 483Q940 662 833 780T565 899ZM674 1253Q674 1282 694 1302T743 1323Q772 1323 792 1303T813 1253Q813 1224 793 1204T743 1184Q714 1184 694 1204T674 1253ZM319 1253Q319 1282 339 1302T389 1323Q418 1323 438 1303T458 1253Q458 1224 438 1204T389 1184Q360 1184 340 1204T319 1253Z"/><glyph unicode="÷" horiz-adv-x="1368" d="M748 1071Q748 1045 728 1027T682 1008Q656 1008 637 1026T618 1071Q618 1097 637 1117T682 1137Q708 1137 728 1117T748 1071ZM145 612V705H1221V612H145ZM748 244Q748 218 728 199T682 180Q656 180 637 199T618 244Q618 270 637 289T682 309Q708 309 728 290T748 244Z"/><glyph unicode="ø" horiz-adv-x="1130" d="M1063 1001L922 838Q1051 684 1051 483Q1051 266 912 119T569 -29Q400 -29 266 78L131 -80L74 -33L213 129Q86 278 86 487Q86 702 225 848T567 995Q739 995 870 889L1010 1049L1063 1001ZM281 207L805 811Q703 899 567 899Q407 899 301 781T195 485Q195 326 281 207ZM854 758L332 154Q435 68 569 68Q728 68 835 186T942 481Q942 640 854 758Z"/><glyph unicode="ù" horiz-adv-x="1110" d="M821 0V139Q643 -14 440 -14Q329 -14 263 51T197 225V877H27V969H303V252Q303 82 461 82Q644 82 821 258V877H651V969H928V92H1094V0H821ZM568 1098L324 1415H441L646 1098H568Z"/><glyph unicode="ú" horiz-adv-x="1110" d="M821 0V139Q643 -14 440 -14Q329 -14 263 51T197 225V877H27V969H303V252Q303 82 461 82Q644 82 821 258V877H651V969H928V92H1094V0H821ZM484 1098H406L611 1415H728L484 1098Z"/><glyph unicode="û" horiz-adv-x="1110" d="M821 0V139Q643 -14 440 -14Q329 -14 263 51T197 225V877H27V969H303V252Q303 82 461 82Q644 82 821 258V877H651V969H928V92H1094V0H821ZM254 1106L496 1403H598L858 1106H782L547 1313L326 1106H254Z"/><glyph unicode="ü" horiz-adv-x="1110" d="M821 0V139Q643 -14 440 -14Q329 -14 263 51T197 225V877H27V969H303V252Q303 82 461 82Q644 82 821 258V877H651V969H928V92H1094V0H821ZM664 1253Q664 1282 684 1302T733 1323Q762 1323 782 1303T803 1253Q803 1224 783 1204T733 1184Q704 1184 684 1204T664 1253ZM309 1253Q309 1282 329 1302T379 1323Q408 1323 428 1303T448 1253Q448 1224 428 1204T379 1184Q350 1184 330 1204T309 1253Z"/><glyph unicode="ý" horiz-adv-x="1087" d="M377 -342L512 27L164 877H4V969H426V877H268L563 156L836 877H682V969H1085V877H938L442 -434H172V-342H377ZM471 1098H393L598 1415H715L471 1098Z"/><glyph unicode="þ" horiz-adv-x="1217" d="M172 -342V1298H4V1391H279V764H283Q408 983 659 983Q859 983 994 839T1130 479Q1130 257 996 114T653 -29Q396 -29 283 193H279V-342H455V-434H-4V-342H172ZM645 891Q483 891 379 776T274 481Q274 300 381 184T655 68Q821 68 925 183T1030 481Q1030 661 922 776T645 891Z"/><glyph unicode="ÿ" horiz-adv-x="1087" d="M377 -342L512 27L164 877H4V969H426V877H268L563 156L836 877H682V969H1085V877H938L442 -434H172V-342H377ZM652 1253Q652 1282 672 1302T721 1323Q750 1323 770 1303T791 1253Q791 1224 771 1204T721 1184Q692 1184 672 1204T652 1253ZM297 1253Q297 1282 317 1302T367 1323Q396 1323 416 1303T436 1253Q436 1224 416 1204T367 1184Q338 1184 318 1204T297 1253Z"/><glyph unicode="Ā" horiz-adv-x="1343" d="M129 92L547 1298H373V1391H971V1298H797L1221 92H1393V0H932V92H1106L952 528H391L242 92H424V0H-47V92H129ZM424 621H922L680 1325H666L424 621ZM342 1533V1592H1000V1533H342Z"/><glyph unicode="ā" horiz-adv-x="1044" d="M758 0V139Q576 -14 399 -14Q277 -14 191 69T104 272Q104 402 205 486T463 571Q605 571 758 492V717Q758 920 500 920Q278 920 201 754L121 774Q224 995 508 995Q864 995 864 721V92H1024V0H758ZM758 229V406Q612 492 481 492Q362 492 288 429T213 266Q213 181 273 125T426 68Q508 68 601 112T758 229ZM225 1229V1288H883V1229H225Z"/><glyph unicode="Ă" horiz-adv-x="1343" d="M129 92L547 1298H373V1391H971V1298H797L1221 92H1393V0H932V92H1106L952 528H391L242 92H424V0H-47V92H129ZM424 621H922L680 1325H666L424 621ZM883 1708H967Q930 1598 848 1532T672 1466Q578 1466 495 1532T375 1708H461Q533 1563 672 1563Q808 1563 883 1708Z"/><glyph unicode="ă" horiz-adv-x="1044" d="M758 0V139Q576 -14 399 -14Q277 -14 191 69T104 272Q104 402 205 486T463 571Q605 571 758 492V717Q758 920 500 920Q278 920 201 754L121 774Q224 995 508 995Q864 995 864 721V92H1024V0H758ZM758 229V406Q612 492 481 492Q362 492 288 429T213 266Q213 181 273 125T426 68Q508 68 601 112T758 229ZM753 1371H837Q800 1261 718 1195T542 1129Q448 1129 365 1195T245 1371H331Q403 1226 542 1226Q678 1226 753 1371Z"/><glyph unicode="Ą" horiz-adv-x="1343" d="M128 92L546 1299H371V1391H969V1299H796L1219 92H1391V0H1221Q1146 -83 1146 -150Q1146 -201 1181 -231T1268 -262Q1337 -262 1403 -231V-315Q1340 -356 1273 -356Q1176 -356 1112 -302T1048 -168Q1048 -89 1138 0H930V92H1104L951 528H390L240 92H422V0H-48V92H128ZM422 619H920L680 1326H664L422 619Z"/><glyph unicode="ą" horiz-adv-x="1044" d="M759 0V139Q578 -15 400 -15Q277 -15 192 69T106 270Q106 405 209 488T461 571Q609 571 759 492V703Q759 811 698 865T503 919Q279 919 203 754L121 773Q225 995 506 995Q707 995 786 916T865 688V89H1023V0H886Q811 -82 811 -149Q811 -201 846 -231T933 -262Q1002 -262 1068 -231V-315Q1006 -356 938 -356Q842 -356 778 -303T713 -168Q713 -91 803 0H759ZM759 229V406Q615 491 484 491Q353 491 283 424T213 266Q213 181 272 125T428 68Q512 68 609 116T759 229Z"/><glyph unicode="Ć" horiz-adv-x="1536" d="M1378 508L1468 457Q1396 224 1228 102T819 -20Q512 -20 320 177T127 692Q127 1019 322 1216T807 1413Q1135 1413 1323 1169H1327V1391H1421V946H1325Q1294 1116 1144 1214T815 1313Q564 1313 403 1141T242 700Q242 429 406 255T823 80Q1225 80 1378 508ZM763 1468H685L890 1785H1007L763 1468Z"/><glyph unicode="ć" horiz-adv-x="1044" d="M897 299L983 262Q927 123 816 47T563 -29Q354 -29 219 112T84 473Q84 691 217 837T549 983Q751 983 856 842H860V969H948V600H860Q860 726 771 806T553 887Q394 887 294 774T193 481Q193 296 295 182T561 68Q795 68 897 299ZM516 1098H438L643 1415H760L516 1098Z"/><glyph unicode="Ĉ" horiz-adv-x="1536" d="M1378 508L1468 457Q1396 224 1228 102T819 -20Q512 -20 320 177T127 692Q127 1019 322 1216T807 1413Q1135 1413 1323 1169H1327V1391H1421V946H1325Q1294 1116 1144 1214T815 1313Q564 1313 403 1141T242 700Q242 429 406 255T823 80Q1225 80 1378 508ZM495 1478L737 1775H839L1099 1478H1023L788 1685L567 1478H495Z"/><glyph unicode="ĉ" horiz-adv-x="1044" d="M897 299L983 262Q927 123 816 47T563 -29Q354 -29 219 112T84 473Q84 691 217 837T549 983Q751 983 856 842H860V969H948V600H860Q860 726 771 806T553 887Q394 887 294 774T193 481Q193 296 295 182T561 68Q795 68 897 299ZM232 1106L474 1403H576L836 1106H760L525 1313L304 1106H232Z"/><glyph unicode="Ċ" horiz-adv-x="1536" d="M1378 508L1468 457Q1396 224 1228 102T819 -20Q512 -20 320 177T127 692Q127 1019 322 1216T807 1413Q1135 1413 1323 1169H1327V1391H1421V946H1325Q1294 1116 1144 1214T815 1313Q564 1313 403 1141T242 700Q242 429 406 255T823 80Q1225 80 1378 508ZM768 1590Q768 1619 788 1639T838 1660Q867 1660 887 1640T908 1590Q908 1561 888 1541T838 1521Q809 1521 789 1541T768 1590Z"/><glyph unicode="ċ" horiz-adv-x="1044" d="M897 299L983 262Q927 123 816 47T563 -29Q354 -29 219 112T84 473Q84 691 217 837T549 983Q751 983 856 842H860V969H948V600H860Q860 726 771 806T553 887Q394 887 294 774T193 481Q193 296 295 182T561 68Q795 68 897 299ZM494 1253Q494 1282 514 1302T564 1323Q593 1323 613 1303T634 1253Q634 1224 614 1204T564 1184Q535 1184 515 1204T494 1253Z"/><glyph unicode="Č" horiz-adv-x="1536" d="M1378 508L1468 457Q1396 224 1228 102T819 -20Q512 -20 320 177T127 692Q127 1019 322 1216T807 1413Q1135 1413 1323 1169H1327V1391H1421V946H1325Q1294 1116 1144 1214T815 1313Q564 1313 403 1141T242 700Q242 429 406 255T823 80Q1225 80 1378 508ZM519 1775H591L812 1568L1047 1775H1123L863 1478H761L519 1775Z"/><glyph unicode="č" horiz-adv-x="1044" d="M897 299L983 262Q927 123 816 47T563 -29Q354 -29 219 112T84 473Q84 691 217 837T549 983Q751 983 856 842H860V969H948V600H860Q860 726 771 806T553 887Q394 887 294 774T193 481Q193 296 295 182T561 68Q795 68 897 299ZM257 1403H329L550 1196L785 1403H861L601 1106H499L257 1403Z"/><glyph unicode="Ď" horiz-adv-x="1450" d="M18 0V92H211V1298H18V1391H571Q1020 1391 1186 1183T1352 709Q1352 496 1267 329T1034 81T584 0H18ZM326 92H588Q956 92 1096 262T1237 705Q1237 952 1093 1125T584 1298H326V92ZM345 1775H417L638 1568L873 1775H949L689 1478H587L345 1775Z"/><glyph unicode="ď" horiz-adv-x="1344" d="M1449 0H1167V188H1163Q1030 -14 790 -14Q585 -14 449 129T313 487Q313 705 448 850T784 995Q1034 995 1163 774H1167V1298H978V1391H1273V92H1449V0ZM790 74Q956 74 1062 190T1169 489Q1169 666 1058 786T786 907Q630 907 522 786T413 489Q413 312 521 193T790 74ZM1148 1200V1391H1262V1167Q1262 950 1129 942V1016Q1174 1016 1185 1059T1199 1200H1148Z"/><glyph unicode="Đ" horiz-adv-x="1450" d="M18 0V92H211V651H18V743H211V1298H18V1391H571Q1020 1391 1186 1183T1352 709Q1352 496 1267 329T1034 81T584 0H18ZM326 92H588Q956 92 1096 262T1237 705Q1237 952 1093 1125T584 1298H326V743H752V651H326V92Z"/><glyph unicode="đ" horiz-adv-x="1217" d="M929 1176V1302H740V1391H1034V1176H1183V1086H1034V89H1211V0H929V189Q788 -14 552 -14Q347 -14 211 126T74 488Q74 705 208 850T542 995Q796 995 929 773V1086H667V1176H929ZM551 73Q704 73 816 181T929 522Q929 665 821 786T548 908Q388 908 281 785T174 489Q174 319 277 196T551 73Z"/><glyph unicode="Ē" horiz-adv-x="1237" d="M31 0V92H209V1298H31V1391H1145V1053H1051V1298H324V758H901V666H324V92H1051V342H1145V0H31ZM259 1533V1592H917V1533H259Z"/><glyph unicode="ē" horiz-adv-x="1130" d="M1059 461H188Q188 294 308 176T596 57Q825 57 975 268L1059 229Q986 107 859 39T584 -29Q365 -29 224 115T82 483Q82 707 221 851T575 995Q784 995 918 853T1059 461ZM190 553H948Q919 723 819 814T567 905Q421 905 321 813T190 553ZM242 1229V1288H900V1229H242Z"/><glyph unicode="Ĕ" horiz-adv-x="1237" d="M31 0V92H209V1298H31V1391H1145V1053H1051V1298H324V758H901V666H324V92H1051V342H1145V0H31ZM800 1708H884Q847 1598 765 1532T589 1466Q495 1466 412 1532T292 1708H378Q450 1563 589 1563Q725 1563 800 1708Z"/><glyph unicode="ĕ" horiz-adv-x="1130" d="M1059 461H188Q188 294 308 176T596 57Q825 57 975 268L1059 229Q986 107 859 39T584 -29Q365 -29 224 115T82 483Q82 707 221 851T575 995Q784 995 918 853T1059 461ZM190 553H948Q919 723 819 814T567 905Q421 905 321 813T190 553ZM782 1371H866Q829 1261 747 1195T571 1129Q477 1129 394 1195T274 1371H360Q432 1226 571 1226Q707 1226 782 1371Z"/><glyph unicode="Ė" horiz-adv-x="1237" d="M31 0V92H209V1298H31V1391H1145V1053H1051V1298H324V758H901V666H324V92H1051V342H1145V0H31ZM518 1590Q518 1619 538 1639T588 1660Q617 1660 637 1640T658 1590Q658 1561 638 1541T588 1521Q559 1521 539 1541T518 1590Z"/><glyph unicode="ė" horiz-adv-x="1130" d="M1059 461H188Q188 294 308 176T596 57Q825 57 975 268L1059 229Q986 107 859 39T584 -29Q365 -29 224 115T82 483Q82 707 221 851T575 995Q784 995 918 853T1059 461ZM190 553H948Q919 723 819 814T567 905Q421 905 321 813T190 553ZM500 1253Q500 1282 520 1302T570 1323Q599 1323 619 1303T640 1253Q640 1224 620 1204T570 1184Q541 1184 521 1204T500 1253Z"/><glyph unicode="Ę" horiz-adv-x="1237" d="M31 0V92H209V1299H31V1391H1144V1052H1051V1299H326V757H901V665H326V92H1051V342H1144V0H962Q887 -83 887 -150Q887 -201 922 -231T1009 -262Q1078 -262 1144 -231V-315Q1081 -356 1014 -356Q917 -356 853 -302T789 -168Q789 -89 879 0H31Z"/><glyph unicode="ę" horiz-adv-x="1130" d="M680 -262Q749 -262 815 -231V-315Q752 -356 685 -356Q588 -356 524 -303T460 -168Q460 -97 526 -25Q333 -6 208 134T82 481Q82 705 220 850T576 995Q792 995 922 846T1058 462H189Q189 285 314 172T596 58Q702 58 804 113T974 269L1058 230Q998 121 877 51T612 -27Q558 -85 558 -147Q558 -201 593 -231T680 -262ZM949 551Q921 724 816 814T566 905Q415 905 316 808T191 551H949Z"/><glyph unicode="Ě" horiz-adv-x="1237" d="M31 0V92H209V1298H31V1391H1145V1053H1051V1298H324V758H901V666H324V92H1051V342H1145V0H31ZM309 1775H381L602 1568L837 1775H913L653 1478H551L309 1775Z"/><glyph unicode="ě" horiz-adv-x="1130" d="M1059 461H188Q188 294 308 176T596 57Q825 57 975 268L1059 229Q986 107 859 39T584 -29Q365 -29 224 115T82 483Q82 707 221 851T575 995Q784 995 918 853T1059 461ZM190 553H948Q919 723 819 814T567 905Q421 905 321 813T190 553ZM268 1403H340L561 1196L796 1403H872L612 1106H510L268 1403Z"/><glyph unicode="Ĝ" horiz-adv-x="1622" d="M1024 535V627H1511Q1510 328 1315 154T821 -20Q507 -20 305 181T102 694Q102 1003 300 1208T797 1413Q1134 1413 1333 1155H1337V1391H1430V936H1337Q1292 1105 1139 1209T801 1313Q547 1313 382 1140T217 700Q217 429 388 255T823 80Q1035 80 1201 197T1393 535H1024ZM504 1478L746 1775H848L1108 1478H1032L797 1685L576 1478H504Z"/><glyph unicode="ĝ" horiz-adv-x="1217" d="M944 -35V203H940Q818 -14 557 -14Q354 -14 217 126T80 475Q80 686 220 834T561 983Q805 983 940 762H944V969H1231V877H1051V-25Q1051 -233 908 -346T565 -459Q327 -459 188 -322L258 -252Q387 -362 575 -362Q734 -362 839 -278T944 -35ZM563 891Q405 891 297 773T188 479Q188 303 294 190T563 76Q727 76 836 193T946 485Q946 654 834 772T563 891ZM326 1106L568 1403H670L930 1106H854L619 1313L398 1106H326Z"/><glyph unicode="Ğ" horiz-adv-x="1622" d="M1024 535V627H1511Q1510 328 1315 154T821 -20Q507 -20 305 181T102 694Q102 1003 300 1208T797 1413Q1134 1413 1333 1155H1337V1391H1430V936H1337Q1292 1105 1139 1209T801 1313Q547 1313 382 1140T217 700Q217 429 388 255T823 80Q1035 80 1201 197T1393 535H1024ZM1018 1708H1102Q1065 1598 983 1532T807 1466Q713 1466 630 1532T510 1708H596Q668 1563 807 1563Q943 1563 1018 1708Z"/><glyph unicode="ğ" horiz-adv-x="1217" d="M944 -35V203H940Q818 -14 557 -14Q354 -14 217 126T80 475Q80 686 220 834T561 983Q805 983 940 762H944V969H1231V877H1051V-25Q1051 -233 908 -346T565 -459Q327 -459 188 -322L258 -252Q387 -362 575 -362Q734 -362 839 -278T944 -35ZM563 891Q405 891 297 773T188 479Q188 303 294 190T563 76Q727 76 836 193T946 485Q946 654 834 772T563 891ZM868 1371H952Q915 1261 833 1195T657 1129Q563 1129 480 1195T360 1371H446Q518 1226 657 1226Q793 1226 868 1371Z"/><glyph unicode="Ġ" horiz-adv-x="1622" d="M1024 535V627H1511Q1510 328 1315 154T821 -20Q507 -20 305 181T102 694Q102 1003 300 1208T797 1413Q1134 1413 1333 1155H1337V1391H1430V936H1337Q1292 1105 1139 1209T801 1313Q547 1313 382 1140T217 700Q217 429 388 255T823 80Q1035 80 1201 197T1393 535H1024ZM736 1590Q736 1619 756 1639T806 1660Q835 1660 855 1640T876 1590Q876 1561 856 1541T806 1521Q777 1521 757 1541T736 1590Z"/><glyph unicode="ġ" horiz-adv-x="1217" d="M944 -35V203H940Q818 -14 557 -14Q354 -14 217 126T80 475Q80 686 220 834T561 983Q805 983 940 762H944V969H1231V877H1051V-25Q1051 -233 908 -346T565 -459Q327 -459 188 -322L258 -252Q387 -362 575 -362Q734 -362 839 -278T944 -35ZM563 891Q405 891 297 773T188 479Q188 303 294 190T563 76Q727 76 836 193T946 485Q946 654 834 772T563 891ZM557 1253Q557 1282 577 1302T627 1323Q656 1323 676 1303T697 1253Q697 1224 677 1204T627 1184Q598 1184 578 1204T557 1253Z"/><glyph unicode="Ģ" horiz-adv-x="1622" d="M652 -370Q857 -370 857 -257Q857 -175 729 -164L757 -17Q463 4 283 206T102 695Q102 1002 299 1208T795 1414Q955 1414 1101 1345T1338 1155V1391H1430V936H1338Q1299 1094 1145 1203T800 1312Q543 1312 380 1138T217 701Q217 433 385 257T823 80Q1035 80 1200 196T1393 536H1023V627H1511Q1504 315 1308 148T822 -19L808 -88Q863 -88 910 -131T958 -245Q958 -320 893 -376T616 -433V-369Q640 -370 652 -370Z"/><glyph unicode="ģ" horiz-adv-x="1217" d="M944 -35V203H940Q818 -14 557 -14Q354 -14 217 126T80 475Q80 686 220 834T561 983Q805 983 940 762H944V969H1231V877H1051V-25Q1051 -233 908 -346T565 -459Q327 -459 188 -322L258 -252Q387 -362 575 -362Q734 -362 839 -278T944 -35ZM563 891Q405 891 297 773T188 479Q188 303 294 190T563 76Q727 76 836 193T946 485Q946 654 834 772T563 891ZM582 1225H634V1034H516V1225Q516 1383 554 1429T652 1485V1412Q619 1406 603 1383T582 1225Z"/><glyph unicode="Ĥ" horiz-adv-x="1409" d="M41 0V92H209V1298H41V1391H500V1298H324V774H1083V1298H905V1391H1368V1298H1198V92H1368V0H905V92H1083V682H324V92H500V0H41ZM403 1478L645 1775H747L1007 1478H931L696 1685L475 1478H403Z"/><glyph unicode="ĥ" horiz-adv-x="1110" d="M27 0V92H203V1298H27V1391H309V838Q493 995 676 995Q797 995 868 928T940 739V92H1098V0H662V92H834V717Q834 899 664 899Q495 899 309 731V92H469V0H27ZM260 1466L502 1763H604L864 1466H788L553 1673L332 1466H260Z"/><glyph unicode="Ħ" horiz-adv-x="1409" d="M41 0V92H209V999H27V1085H209V1299H41V1391H501V1299H327V1085H1081V1299H906V1391H1368V1299H1199V1085H1383V999H1199V92H1368V0H906V92H1081V682H327V92H501V0H41ZM327 999V774H1081V999H327Z"/><glyph unicode="ħ" horiz-adv-x="1110" d="M27 0V89H203V1104H27V1193H203V1302H27V1391H308V1193H635V1104H308V837Q492 995 674 995Q764 995 827 960T915 866T941 672V89H1098V0H662V89H835V685Q835 825 786 863T664 901Q495 901 308 730V89H469V0H27Z"/><glyph unicode="Ĩ" horiz-adv-x="575" d="M55 0V92H229V1298H55V1391H520V1298H344V92H520V0H55ZM12 1469H-44Q14 1650 136 1650Q192 1650 290 1601T444 1551Q521 1551 564 1647H618Q569 1469 429 1469Q372 1469 274 1518T130 1568Q48 1568 12 1469Z"/><glyph unicode="ĩ" horiz-adv-x="512" d="M49 0V92H221V877H49V969H328V92H492V0H49ZM209 1419H153Q211 1600 333 1600Q389 1600 487 1551T641 1501Q718 1501 761 1597H815Q766 1419 626 1419Q569 1419 471 1468T327 1518Q245 1518 209 1419Z"/><glyph unicode="Ī" horiz-adv-x="575" d="M55 0V92H229V1298H55V1391H520V1298H344V92H520V0H55ZM-41 1533V1592H617V1533H-41Z"/><glyph unicode="ī" horiz-adv-x="512" d="M110 0V92H282V877H110V969H389V92H553V0H110ZM234 1229V1288H892V1229H234Z"/><glyph unicode="Ĭ" horiz-adv-x="575" d="M55 0V92H229V1298H55V1391H520V1298H344V92H520V0H55ZM505 1708H589Q552 1598 470 1532T294 1466Q200 1466 117 1532T-3 1708H83Q155 1563 294 1563Q430 1563 505 1708Z"/><glyph unicode="ĭ" horiz-adv-x="512" d="M49 0V92H221V877H49V969H328V92H492V0H49ZM681 1371H765Q728 1261 646 1195T470 1129Q376 1129 293 1195T173 1371H259Q331 1226 470 1226Q606 1226 681 1371Z"/><glyph unicode="Į" horiz-adv-x="575" d="M55 0V92H228V1299H55V1391H520V1299H346V92H520V0H326Q251 -83 251 -150Q251 -201 285 -231T373 -262Q442 -262 508 -231V-315Q445 -356 377 -356Q281 -356 217 -303T152 -168Q152 -89 242 0H55Z"/><glyph unicode="į" horiz-adv-x="512" d="M49 0V89H220V878H49V968H326V89H492V0H309Q234 -82 234 -149Q234 -201 269 -231T356 -262Q425 -262 492 -231V-315Q429 -356 361 -356Q265 -356 201 -302T136 -168Q136 -91 226 0H49ZM279 1413Q313 1413 338 1390T363 1331Q363 1296 338 1273T279 1249Q245 1249 221 1273T196 1331Q196 1364 220 1388T279 1413Z"/><glyph unicode="İ" horiz-adv-x="575" d="M55 0V92H229V1298H55V1391H520V1298H344V92H520V0H55ZM218 1590Q218 1619 238 1639T288 1660Q317 1660 337 1640T358 1590Q358 1561 338 1541T288 1521Q259 1521 239 1541T218 1590Z"/><glyph unicode="ı" horiz-adv-x="512" d="M49 0V92H221V877H49V969H328V92H492V0H49Z"/><glyph unicode="Ĳ" horiz-adv-x="1130" d="M55 0V92H228V1299H55V1391H520V1299H346V92H520V0H55ZM435 -409V-310Q511 -327 578 -327Q698 -327 747 -263T797 -43V1299H591V1391H1114V1299H914V-43Q914 -286 812 -357T585 -429Q492 -429 435 -409Z"/><glyph unicode="ĳ" horiz-adv-x="1109" d="M295 1413Q329 1413 354 1390T379 1331Q379 1296 354 1273T295 1249Q261 1249 237 1273T212 1331Q212 1364 236 1388T295 1413ZM867 1413Q902 1413 926 1389T951 1331Q951 1296 926 1273T867 1249Q833 1249 809 1273T784 1331Q784 1364 808 1388T867 1413ZM65 0V89H236V878H65V968H342V89H508V0H65ZM830 878H651V968H935V-86Q935 -272 852 -346T601 -420Q559 -420 524 -414V-322Q562 -328 598 -328Q705 -328 767 -283T830 -86V878Z"/><glyph unicode="Ĵ" horiz-adv-x="555" d="M-139 -412V-311Q-38 -334 4 -334Q119 -334 172 -287T225 -111V1298H16V1391H539V1298H340V-96Q340 -434 -2 -434Q-80 -434 -139 -412ZM-53 1478L189 1775H291L551 1478H475L240 1685L19 1478H-53Z"/><glyph unicode="ĵ" horiz-adv-x="492" d="M-129 1106L114 1402H216L475 1106H401L165 1313L-57 1106H-129ZM216 878H38V968H321V-86Q321 -272 239 -346T-13 -420Q-54 -420 -90 -414V-322Q-52 -328 -16 -328Q91 -328 153 -283T216 -86V878Z"/><glyph unicode="Ķ" horiz-adv-x="1194" d="M29 0V92H211V1298H29V1391H518V1298H326V92H518V0H29ZM731 0V92H918L340 731L918 1298H758V1391H1200V1298H1051L487 741L1079 92H1227V0H731ZM480 -164L483 -86L531 -85Q641 -85 688 -133T735 -245Q735 -296 706 -339T614 -408T410 -433V-369Q522 -369 577 -343T633 -257Q633 -167 480 -164Z"/><glyph unicode="ķ" horiz-adv-x="1067" d="M27 0V92H205V1298H27V1391H311V514L821 877H674V969H1077V877H952L442 514L926 92H1096V0H885L311 500V92H489V0H27ZM420 -164L423 -86L471 -85Q581 -85 628 -133T675 -245Q675 -296 646 -339T554 -408T350 -433V-369Q462 -369 517 -343T573 -257Q573 -167 420 -164Z"/><glyph unicode="ĸ" horiz-adv-x="1054" d="M13 0V89H192V878H13V968H467V878H297V514L875 968H1062V878H889L428 514L912 89H1083V0H870L297 500V89H474V0H13Z"/><glyph unicode="Ĺ" horiz-adv-x="1044" d="M33 0V92H221V1298H33V1391H522V1298H336V92H909V553H1018V0H33ZM439 1468H361L566 1785H683L439 1468Z"/><glyph unicode="ĺ" horiz-adv-x="492" d="M18 0V92H193V1298H16V1391H299V92H473V0H18ZM208 1471H130L335 1788H452L208 1471Z"/><glyph unicode="Ļ" horiz-adv-x="1044" d="M33 0V92H221V1298H33V1391H522V1298H336V92H909V553H1018V0H33ZM404 -164L407 -86L455 -85Q565 -85 612 -133T659 -245Q659 -296 630 -339T538 -408T334 -433V-369Q446 -369 501 -343T557 -257Q557 -167 404 -164Z"/><glyph unicode="ļ" horiz-adv-x="492" d="M18 0V92H193V1298H16V1391H299V92H473V0H18ZM396 -164L399 -86L447 -85Q557 -85 604 -133T651 -245Q651 -296 622 -339T530 -408T326 -433V-369Q438 -369 493 -343T549 -257Q549 -167 396 -164Z"/><glyph unicode="Ľ" horiz-adv-x="1044" d="M284 0V92H472V1298H284V1391H773V1298H587V92H1160V553H1269V0H284ZM739 1200V1391H853V1167Q853 950 720 942V1016Q765 1016 776 1059T790 1200H739Z"/><glyph unicode="ľ" horiz-adv-x="640" d="M34 0V92H209V1298H32V1391H315V92H489V0H34ZM446 1200V1391H560V1167Q560 950 427 942V1016Q472 1016 483 1059T497 1200H446Z"/><glyph unicode="Ŀ" horiz-adv-x="1044" d="M284 0V92H472V1298H284V1391H773V1298H587V92H1160V553H1269V0H284ZM737 934Q767 934 787 913T807 865Q807 836 787 816T737 795Q709 795 689 815T668 864Q668 893 688 913T737 934Z"/><glyph unicode="ŀ" horiz-adv-x="492" d="M18 0V92H193V1298H16V1391H299V92H473V0H18ZM751 765Q781 765 801 744T821 696Q821 667 801 647T751 626Q723 626 703 646T682 695Q682 724 702 744T751 765Z"/><glyph unicode="Ł" horiz-adv-x="1044" d="M336 1298V817L616 1051V961L336 727V92H909V553H1018V0H33V92H221V641L0 457V547L221 731V1298H33V1391H522V1298H336Z"/><glyph unicode="ł" horiz-adv-x="492" d="M18 0V92H193V621L-31 436V516L193 700V1298H14V1391H299V782L524 969V889L299 702V92H473V0H18Z"/><glyph unicode="Ń" horiz-adv-x="1450" d="M20 0V92H207V1298H20V1391H348L1151 164V1298H956V1391H1430V1298H1247V-18H1141L303 1260V92H500V0H20ZM714 1468H636L841 1785H958L714 1468Z"/><glyph unicode="ń" horiz-adv-x="1087" d="M14 0V92H193V877H14V969H299V819Q497 983 664 983Q781 983 853 915T926 731V92H1081V0H647V92H819V702Q819 887 657 887Q487 887 299 713V92H457V0H14ZM529 1098H451L656 1415H773L529 1098Z"/><glyph unicode="Ņ" horiz-adv-x="1450" d="M20 0V92H207V1298H20V1391H348L1151 164V1298H956V1391H1430V1298H1247V-18H1141L303 1260V92H500V0H20ZM613 -164L616 -86L664 -85Q774 -85 821 -133T868 -245Q868 -296 839 -339T747 -408T543 -433V-369Q655 -369 710 -343T766 -257Q766 -167 613 -164Z"/><glyph unicode="ņ" horiz-adv-x="1087" d="M14 0V92H193V877H14V969H299V819Q497 983 664 983Q781 983 853 915T926 731V92H1081V0H647V92H819V702Q819 887 657 887Q487 887 299 713V92H457V0H14ZM430 -164L433 -86L481 -85Q591 -85 638 -133T685 -245Q685 -296 656 -339T564 -408T360 -433V-369Q472 -369 527 -343T583 -257Q583 -167 430 -164Z"/><glyph unicode="Ň" horiz-adv-x="1450" d="M20 0V92H207V1298H20V1391H348L1151 164V1298H956V1391H1430V1298H1247V-18H1141L303 1260V92H500V0H20ZM422 1775H494L715 1568L950 1775H1026L766 1478H664L422 1775Z"/><glyph unicode="ň" horiz-adv-x="1087" d="M14 0V92H193V877H14V969H299V819Q497 983 664 983Q781 983 853 915T926 731V92H1081V0H647V92H819V702Q819 887 657 887Q487 887 299 713V92H457V0H14ZM246 1403H318L539 1196L774 1403H850L590 1106H488L246 1403Z"/><glyph unicode="ŉ" horiz-adv-x="1247" d="M174 0V92H353V877H174V969H459V819Q657 983 824 983Q941 983 1013 915T1086 731V92H1241V0H807V92H979V702Q979 887 817 887Q647 887 459 713V92H617V0H174ZM23 1200V1391H137V1167Q137 950 4 942V1016Q49 1016 60 1059T74 1200H23Z"/><glyph unicode="Ŋ" horiz-adv-x="1409" d="M42 0V92H210V1299H42V1391H328V1193Q627 1412 874 1412Q1010 1412 1104 1359T1227 1215T1257 983V-43Q1257 -278 1160 -353T910 -429Q835 -429 778 -409V-310Q855 -327 918 -327Q1040 -327 1090 -263T1140 -43V1005Q1140 1163 1077 1238T851 1313Q607 1313 328 1082V92H502V0H42Z"/><glyph unicode="ŋ" horiz-adv-x="1072" d="M14 0V89H192V878H14V968H298V819Q495 982 663 982Q754 982 818 942T904 843T926 687V-86Q926 -261 847 -340T592 -420Q550 -420 514 -414V-322Q552 -328 588 -328Q696 -328 758 -283T820 -86V680Q820 809 771 847T659 886Q486 886 298 713V89H456V0H14Z"/><glyph unicode="Ō" horiz-adv-x="1599" d="M815 -20Q501 -20 302 180T102 696Q102 1008 299 1210T801 1413Q1103 1413 1301 1210T1499 696Q1499 389 1303 185T815 -20ZM801 1313Q549 1313 383 1138T217 696Q217 430 383 255T801 80Q1053 80 1218 255T1384 696Q1384 963 1219 1138T801 1313ZM471 1533V1592H1129V1533H471Z"/><glyph unicode="ō" horiz-adv-x="1130" d="M565 -29Q361 -29 223 118T84 483Q84 701 222 848T565 995Q770 995 909 848T1049 483Q1049 266 910 119T565 -29ZM565 899Q405 899 299 781T193 483Q193 304 299 186T565 68Q726 68 833 186T940 483Q940 662 833 780T565 899ZM236 1229V1288H894V1229H236Z"/><glyph unicode="Ŏ" horiz-adv-x="1599" d="M815 -20Q501 -20 302 180T102 696Q102 1008 299 1210T801 1413Q1103 1413 1301 1210T1499 696Q1499 389 1303 185T815 -20ZM801 1313Q549 1313 383 1138T217 696Q217 430 383 255T801 80Q1053 80 1218 255T1384 696Q1384 963 1219 1138T801 1313ZM1012 1708H1096Q1059 1598 977 1532T801 1466Q707 1466 624 1532T504 1708H590Q662 1563 801 1563Q937 1563 1012 1708Z"/><glyph unicode="ŏ" horiz-adv-x="1130" d="M565 -29Q361 -29 223 118T84 483Q84 701 222 848T565 995Q770 995 909 848T1049 483Q1049 266 910 119T565 -29ZM565 899Q405 899 299 781T193 483Q193 304 299 186T565 68Q726 68 833 186T940 483Q940 662 833 780T565 899ZM776 1371H860Q823 1261 741 1195T565 1129Q471 1129 388 1195T268 1371H354Q426 1226 565 1226Q701 1226 776 1371Z"/><glyph unicode="Ő" horiz-adv-x="1599" d="M815 -20Q501 -20 302 180T102 696Q102 1008 299 1210T801 1413Q1103 1413 1301 1210T1499 696Q1499 389 1303 185T815 -20ZM801 1313Q549 1313 383 1138T217 696Q217 430 383 255T801 80Q1053 80 1218 255T1384 696Q1384 963 1219 1138T801 1313ZM918 1468H840L1045 1785H1162L918 1468ZM685 1468H607L812 1785H928L685 1468Z"/><glyph unicode="ő" horiz-adv-x="1130" d="M565 -29Q361 -29 223 118T84 483Q84 701 222 848T565 995Q770 995 909 848T1049 483Q1049 266 910 119T565 -29ZM565 899Q405 899 299 781T193 483Q193 304 299 186T565 68Q726 68 833 186T940 483Q940 662 833 780T565 899ZM691 1098H613L818 1415H935L691 1098ZM458 1098H380L585 1415H701L458 1098Z"/><glyph unicode="Œ" horiz-adv-x="2154" d="M2030 340V0H842Q492 0 297 192T102 688Q102 994 288 1192T827 1391H2030V1057H1937V1298H1212V764H1788V672H1212V92H1937V340H2030ZM1098 92V1298H862Q544 1298 381 1137T217 688Q217 409 387 251T848 92H1098Z"/><glyph unicode="œ" horiz-adv-x="1898" d="M1833 463H1001Q1010 277 1117 169T1389 61Q1622 61 1749 268L1833 229Q1683 -29 1382 -29Q1084 -29 948 229Q900 108 789 40T537 -29Q330 -29 205 111T80 485Q80 712 207 853T539 995Q677 995 789 922T948 721Q1009 852 1120 923T1370 995Q1566 995 1699 856T1833 463ZM1001 555H1722Q1710 712 1610 809T1372 907Q1230 907 1121 808T1001 555ZM543 899Q388 899 287 791T186 498Q186 295 280 179T539 63Q702 63 798 169T895 479Q895 673 800 786T543 899Z"/><glyph unicode="Ŕ" horiz-adv-x="1174" d="M6 0V92H211V1298H6V1391H688Q864 1391 965 1296T1067 1049Q1067 765 748 705L1026 92H1204V0H946L633 694H326V92H520V0H6ZM326 786H614Q952 786 952 1047Q952 1162 873 1230T657 1298H326V786ZM571 1468H493L698 1785H815L571 1468Z"/><glyph unicode="ŕ" horiz-adv-x="811" d="M45 0V92H229V877H45V969H336V731H340Q451 1003 784 983V881Q560 885 448 805T336 494V92H535V0H45ZM421 1098H343L548 1415H665L421 1098Z"/><glyph unicode="Ŗ" horiz-adv-x="1174" d="M6 0V92H211V1298H6V1391H688Q864 1391 965 1296T1067 1049Q1067 765 748 705L1026 92H1204V0H946L633 694H326V92H520V0H6ZM326 786H614Q952 786 952 1047Q952 1162 873 1230T657 1298H326V786ZM473 -164L476 -86L524 -85Q634 -85 681 -133T728 -245Q728 -296 699 -339T607 -408T403 -433V-369Q515 -369 570 -343T626 -257Q626 -167 473 -164Z"/><glyph unicode="ŗ" horiz-adv-x="811" d="M45 0V92H229V877H45V969H336V731H340Q451 1003 784 983V881Q560 885 448 805T336 494V92H535V0H45ZM292 -164L295 -86L343 -85Q453 -85 500 -133T547 -245Q547 -296 518 -339T426 -408T222 -433V-369Q334 -369 389 -343T445 -257Q445 -167 292 -164Z"/><glyph unicode="Ř" horiz-adv-x="1174" d="M6 0V92H211V1298H6V1391H688Q864 1391 965 1296T1067 1049Q1067 765 748 705L1026 92H1204V0H946L633 694H326V92H520V0H6ZM326 786H614Q952 786 952 1047Q952 1162 873 1230T657 1298H326V786ZM278 1775H350L571 1568L806 1775H882L622 1478H520L278 1775Z"/><glyph unicode="ř" horiz-adv-x="811" d="M45 0V92H229V877H45V969H336V731H340Q451 1003 784 983V881Q560 885 448 805T336 494V92H535V0H45ZM113 1659H185L406 1452L641 1659H717L457 1362H355L113 1659Z"/><glyph unicode="Ś" horiz-adv-x="1110" d="M88 0V477H182V430Q182 289 299 185T575 80Q717 80 811 163T905 375Q905 468 842 538T583 662T300 753T153 867T92 1069Q92 1215 206 1314T498 1413Q725 1413 856 1251H860V1391H952V1016H860V1044Q860 1149 750 1231T494 1313Q366 1313 283 1243T199 1069Q199 980 260 914T517 795T803 704T956 585T1020 369Q1020 204 893 92T578 -20Q456 -20 350 33T186 182H182V0H88ZM519 1468H441L646 1785H763L519 1468Z"/><glyph unicode="ś" horiz-adv-x="918" d="M78 0V336H172Q172 216 255 142T473 68Q592 68 667 122T743 260Q743 324 697 368T450 452T190 557T131 719Q131 831 218 907T434 983Q607 983 700 856H705V969H795V651H705Q700 761 624 828T438 895Q339 895 283 843T227 717Q227 659 271 619T516 541T778 434T840 268Q840 140 740 63T471 -14Q265 -14 176 121H172V0H78ZM441 1098H363L568 1415H685L441 1098Z"/><glyph unicode="Ŝ" horiz-adv-x="1110" d="M88 0V477H182V430Q182 289 299 185T575 80Q717 80 811 163T905 375Q905 468 842 538T583 662T300 753T153 867T92 1069Q92 1215 206 1314T498 1413Q725 1413 856 1251H860V1391H952V1016H860V1044Q860 1149 750 1231T494 1313Q366 1313 283 1243T199 1069Q199 980 260 914T517 795T803 704T956 585T1020 369Q1020 204 893 92T578 -20Q456 -20 350 33T186 182H182V0H88ZM251 1478L493 1775H595L855 1478H779L544 1685L323 1478H251Z"/><glyph unicode="ŝ" horiz-adv-x="918" d="M78 0V336H172Q172 216 255 142T473 68Q592 68 667 122T743 260Q743 324 697 368T450 452T190 557T131 719Q131 831 218 907T434 983Q607 983 700 856H705V969H795V651H705Q700 761 624 828T438 895Q339 895 283 843T227 717Q227 659 271 619T516 541T778 434T840 268Q840 140 740 63T471 -14Q265 -14 176 121H172V0H78ZM157 1106L399 1403H501L761 1106H685L450 1313L229 1106H157Z"/><glyph unicode="Ş" horiz-adv-x="1110" d="M87 0V477H180V430Q180 286 299 183T572 79Q716 79 811 163T907 370Q907 443 874 497T773 590T515 679Q255 749 172 845T88 1060Q88 1215 206 1314T501 1413Q605 1413 704 1368T859 1250V1391H952V1016H859V1045Q859 1150 749 1233T492 1316Q357 1316 277 1244T196 1071Q196 984 263 914T541 789Q740 737 826 693T967 563T1021 371Q1021 211 897 96T561 -19L547 -88Q602 -88 649 -131T697 -245Q697 -320 632 -376T356 -433V-369Q379 -370 391 -370Q596 -370 596 -257Q596 -175 468 -164L497 -14Q396 2 309 58T180 183V0H87Z"/><glyph unicode="ş" horiz-adv-x="918" d="M78 0V335H173Q173 216 256 143T473 69Q600 69 671 126T743 262Q743 339 688 379T472 449Q348 472 283 497T174 579T130 712Q130 825 218 903T436 982Q605 982 705 857V968H795V652H705Q702 763 625 829T440 896Q343 896 287 843T230 717Q230 667 274 623T497 546Q644 518 707 487T805 396T841 268Q841 144 746 67T487 -14L472 -88Q527 -88 574 -131T622 -245Q622 -320 557 -376T280 -433V-369Q304 -370 316 -370Q521 -370 521 -257Q521 -175 393 -164L422 -12Q255 2 173 121V0H78Z"/><glyph unicode="Š" horiz-adv-x="1110" d="M88 0V477H182V430Q182 289 299 185T575 80Q717 80 811 163T905 375Q905 468 842 538T583 662T300 753T153 867T92 1069Q92 1215 206 1314T498 1413Q725 1413 856 1251H860V1391H952V1016H860V1044Q860 1149 750 1231T494 1313Q366 1313 283 1243T199 1069Q199 980 260 914T517 795T803 704T956 585T1020 369Q1020 204 893 92T578 -20Q456 -20 350 33T186 182H182V0H88ZM254 1821H326L547 1614L782 1821H858L598 1524H496L254 1821Z"/><glyph unicode="š" horiz-adv-x="918" d="M78 0V336H172Q172 216 255 142T473 68Q592 68 667 122T743 260Q743 324 697 368T450 452T190 557T131 719Q131 831 218 907T434 983Q607 983 700 856H705V969H795V651H705Q700 761 624 828T438 895Q339 895 283 843T227 717Q227 659 271 619T516 541T778 434T840 268Q840 140 740 63T471 -14Q265 -14 176 121H172V0H78ZM158 1405H230L451 1198L686 1405H762L502 1108H400L158 1405Z"/><glyph unicode="Ţ" horiz-adv-x="1174" d="M595 0V92H785V1298H384V952H290V1391H1396V952H1302V1298H900V92H1091V0H595ZM481 -164L484 -86L532 -85Q642 -85 689 -133T736 -245Q736 -296 707 -339T615 -408T411 -433V-369Q523 -369 578 -343T634 -257Q634 -167 481 -164Z"/><glyph unicode="ţ" horiz-adv-x="532" d="M178 877H6V969H178V1186L285 1270V969H487V877H285V201Q285 119 306 97T372 74Q414 74 487 92V0Q410 -22 350 -22Q178 -22 178 156V877ZM444 -164L447 -86L495 -85Q605 -85 652 -133T699 -245Q699 -296 670 -339T578 -408T374 -433V-369Q486 -369 541 -343T597 -257Q597 -167 444 -164Z"/><glyph unicode="Ť" horiz-adv-x="1174" d="M340 0V92H530V1298H129V952H35V1391H1141V952H1047V1298H645V92H836V0H340ZM293 1775H365L586 1568L821 1775H897L637 1478H535L293 1775Z"/><glyph unicode="ť" horiz-adv-x="789" d="M431 877H259V969H431V1186L538 1270V969H740V877H538V201Q538 119 559 97T625 74Q667 74 740 92V0Q663 -22 603 -22Q431 -22 431 156V877ZM629 1200H577V1391H695V1200Q695 1042 657 996T559 940V1013Q592 1019 608 1042T629 1200Z"/><glyph unicode="Ŧ" horiz-adv-x="1174" d="M345 0V92H529V574H205V661H529V1299H127V953H34V1391H1141V953H1048V1299H646V661H971V574H646V92H836V0H345Z"/><glyph unicode="ŧ" horiz-adv-x="532" d="M284 578H509V488H284V254Q284 142 299 107T373 72Q422 72 487 89V0Q410 -22 349 -22Q283 -22 243 5T191 75T178 215V488H1V578H178V878H6V968H178V1186L284 1270V968H487V878H284V578Z"/><glyph unicode="Ũ" horiz-adv-x="1323" d="M184 1298H6V1391H475V1298H299V406Q299 248 391 164T655 80Q1022 80 1022 401V1298H846V1391H1315V1298H1137V406Q1137 195 1008 88T672 -20Q440 -20 312 88T184 406V1298ZM386 1469H330Q388 1650 510 1650Q566 1650 664 1601T818 1551Q895 1551 938 1647H992Q943 1469 803 1469Q746 1469 648 1518T504 1568Q422 1568 386 1469Z"/><glyph unicode="ũ" horiz-adv-x="1110" d="M821 0V139Q643 -14 440 -14Q329 -14 263 51T197 225V877H27V969H303V252Q303 82 461 82Q644 82 821 258V877H651V969H928V92H1094V0H821ZM287 1163H231Q289 1344 411 1344Q467 1344 565 1295T719 1245Q796 1245 839 1341H893Q844 1163 704 1163Q647 1163 549 1212T405 1262Q323 1262 287 1163Z"/><glyph unicode="Ū" horiz-adv-x="1323" d="M184 1298H6V1391H475V1298H299V406Q299 248 391 164T655 80Q1022 80 1022 401V1298H846V1391H1315V1298H1137V406Q1137 195 1008 88T672 -20Q440 -20 312 88T184 406V1298ZM332 1533V1592H990V1533H332Z"/><glyph unicode="ū" horiz-adv-x="1110" d="M821 0V139Q643 -14 440 -14Q329 -14 263 51T197 225V877H27V969H303V252Q303 82 461 82Q644 82 821 258V877H651V969H928V92H1094V0H821ZM232 1229V1288H890V1229H232Z"/><glyph unicode="Ŭ" horiz-adv-x="1323" d="M184 1298H6V1391H475V1298H299V406Q299 248 391 164T655 80Q1022 80 1022 401V1298H846V1391H1315V1298H1137V406Q1137 195 1008 88T672 -20Q440 -20 312 88T184 406V1298ZM873 1708H957Q920 1598 838 1532T662 1466Q568 1466 485 1532T365 1708H451Q523 1563 662 1563Q798 1563 873 1708Z"/><glyph unicode="ŭ" horiz-adv-x="1110" d="M821 0V139Q643 -14 440 -14Q329 -14 263 51T197 225V877H27V969H303V252Q303 82 461 82Q644 82 821 258V877H651V969H928V92H1094V0H821ZM773 1371H857Q820 1261 738 1195T562 1129Q468 1129 385 1195T265 1371H351Q423 1226 562 1226Q698 1226 773 1371Z"/><glyph unicode="Ů" horiz-adv-x="1323" d="M184 1298H6V1391H475V1298H299V406Q299 248 391 164T655 80Q1022 80 1022 401V1298H846V1391H1315V1298H1137V406Q1137 195 1008 88T672 -20Q440 -20 312 88T184 406V1298ZM475 1708Q475 1786 529 1840T661 1895Q739 1895 794 1841T849 1708Q849 1630 794 1575T661 1520Q583 1520 529 1575T475 1708ZM788 1708Q788 1760 751 1796T661 1833Q609 1833 573 1797T536 1708Q536 1656 572 1619T661 1581Q713 1581 750 1618T788 1708Z"/><glyph unicode="ů" horiz-adv-x="1110" d="M821 0V139Q643 -14 440 -14Q329 -14 263 51T197 225V877H27V969H303V252Q303 82 461 82Q644 82 821 258V877H651V969H928V92H1094V0H821ZM374 1253Q374 1331 428 1385T560 1440Q638 1440 693 1386T748 1253Q748 1175 693 1120T560 1065Q482 1065 428 1120T374 1253ZM687 1253Q687 1305 650 1341T560 1378Q508 1378 472 1342T435 1253Q435 1201 471 1164T560 1126Q612 1126 649 1163T687 1253Z"/><glyph unicode="Ű" horiz-adv-x="1323" d="M184 1298H6V1391H475V1298H299V406Q299 248 391 164T655 80Q1022 80 1022 401V1298H846V1391H1315V1298H1137V406Q1137 195 1008 88T672 -20Q440 -20 312 88T184 406V1298ZM780 1468H702L907 1785H1024L780 1468ZM547 1468H469L674 1785H790L547 1468Z"/><glyph unicode="ű" horiz-adv-x="1110" d="M821 0V139Q643 -14 440 -14Q329 -14 263 51T197 225V877H27V969H303V252Q303 82 461 82Q644 82 821 258V877H651V969H928V92H1094V0H821ZM687 1098H609L814 1415H931L687 1098ZM454 1098H376L581 1415H697L454 1098Z"/><glyph unicode="Ų" horiz-adv-x="1323" d="M186 1299H7V1391H477V1299H304V515Q304 350 325 272T433 135T649 75Q778 75 867 122T987 240T1019 506V1299H847V1391H1316V1299H1137V506Q1137 324 1110 244T1003 80Q903 -22 877 -61T850 -145Q850 -202 885 -232T972 -262Q1041 -262 1107 -231V-315Q1044 -356 977 -356Q880 -356 816 -302T752 -166Q752 -91 850 9Q761 -19 652 -19Q485 -19 370 50T220 222T186 523V1299Z"/><glyph unicode="ų" horiz-adv-x="1110" d="M823 0V139Q642 -15 440 -15Q332 -15 264 48T196 223L197 293V878H28V968H303V300Q303 213 313 174T364 108T457 81Q539 81 640 127T823 257V878H652V968H928V89H1094V0H931Q855 -84 855 -149Q855 -201 890 -231T978 -262Q1047 -262 1113 -231V-315Q1050 -356 983 -356Q886 -356 822 -302T757 -168Q757 -92 847 0H823Z"/><glyph unicode="Ŵ" horiz-adv-x="1942" d="M526 -14L133 1298H-41V1391H422V1298H250L584 147L879 1298H715V1391H1239V1298H1071L1389 147L1708 1298H1530V1391H1980V1298H1804L1425 -14H1335L965 1321L621 -14H526ZM669 1478L911 1775H1013L1273 1478H1197L962 1685L741 1478H669Z"/><glyph unicode="ŵ" horiz-adv-x="1536" d="M410 -14L133 877H6V969H346V877H233L387 375Q446 182 461 109Q483 231 528 375L688 877H575V969H942V877H834L971 440Q1029 249 1059 100Q1058 168 1139 410L1294 877H1167V969H1530V877H1397L1108 -14H1010L760 827L514 -14H410ZM466 1106L708 1403H810L1070 1106H994L759 1313L538 1106H466Z"/><glyph unicode="Ŷ" horiz-adv-x="1237" d="M375 0V92H567V627L141 1298H-39V1391H457V1298H274L635 727L997 1298H817V1391H1276V1298H1108L682 627V92H881V0H375ZM316 1478L558 1775H660L920 1478H844L609 1685L388 1478H316Z"/><glyph unicode="ŷ" horiz-adv-x="1087" d="M377 -342L512 27L164 877H4V969H426V877H268L563 156L836 877H682V969H1085V877H938L442 -434H172V-342H377ZM242 1106L484 1403H586L846 1106H770L535 1313L314 1106H242Z"/><glyph unicode="Ÿ" horiz-adv-x="1237" d="M375 0V92H567V627L141 1298H-39V1391H457V1298H274L635 727L997 1298H817V1391H1276V1298H1108L682 627V92H881V0H375ZM728 1668Q728 1697 748 1717T797 1738Q826 1738 846 1718T867 1668Q867 1639 847 1619T797 1599Q768 1599 748 1619T728 1668ZM373 1668Q373 1697 393 1717T443 1738Q472 1738 492 1718T512 1668Q512 1639 492 1619T443 1599Q414 1599 394 1619T373 1668Z"/><glyph unicode="Ź" horiz-adv-x="1130" d="M55 0V92L907 1298H193V1053H100V1391H1044V1298L193 92H973V358H1067V0H55ZM576 1468H498L703 1785H820L576 1468Z"/><glyph unicode="ź" horiz-adv-x="981" d="M92 0V92L774 877H225V625H141V969H891V877L209 92H805V354H891V0H92ZM522 1098H444L649 1415H766L522 1098Z"/><glyph unicode="Ż" horiz-adv-x="1130" d="M55 0V92L907 1298H193V1053H100V1391H1044V1298L193 92H973V358H1067V0H55ZM491 1590Q491 1619 511 1639T561 1660Q590 1660 610 1640T631 1590Q631 1561 611 1541T561 1521Q532 1521 512 1541T491 1590Z"/><glyph unicode="ż" horiz-adv-x="981" d="M92 0V92L774 877H225V625H141V969H891V877L209 92H805V354H891V0H92ZM446 1253Q446 1282 466 1302T516 1323Q545 1323 565 1303T586 1253Q586 1224 566 1204T516 1184Q487 1184 467 1204T446 1253Z"/><glyph unicode="Ž" horiz-adv-x="1130" d="M55 0V92L907 1298H193V1053H100V1391H1044V1298L193 92H973V358H1067V0H55ZM264 1821H336L557 1614L792 1821H868L608 1524H506L264 1821Z"/><glyph unicode="ž" horiz-adv-x="981" d="M92 0V92L774 877H225V625H141V969H891V877L209 92H805V354H891V0H92ZM188 1405H260L481 1198L716 1405H792L532 1108H430L188 1405Z"/><glyph unicode="ſ" horiz-adv-x="501" d="M40 0V89H189V1091Q189 1220 213 1278T295 1374T427 1413Q511 1413 574 1362T656 1219L560 1205Q529 1321 424 1321Q376 1321 343 1295T302 1228T294 1084V89H487V0H40Z"/><glyph unicode="ƒ" horiz-adv-x="1130" d="M731 1063H954L934 971H713L465 -170Q434 -313 371 -373T190 -434Q114 -434 10 -403L33 -303Q119 -326 178 -326Q305 -326 334 -195L586 971H418L436 1063H604L653 1270Q707 1491 918 1491Q978 1491 1100 1458L1079 1360Q998 1380 926 1380Q818 1380 786 1276L756 1174L731 1063Z"/><glyph unicode="Ǻ" horiz-adv-x="1343" d="M766 1391H969V1299H796L1219 92H1391V0H930V92H1104L951 528H390L240 92H422V0H-48V92H128L546 1299H371V1391H579Q455 1453 455 1587Q455 1676 519 1740T672 1804Q762 1804 825 1740T889 1587Q889 1453 766 1391ZM672 1726Q615 1726 575 1685T534 1587Q534 1529 574 1489T672 1448Q728 1448 769 1489T810 1587Q810 1644 770 1685T672 1726ZM422 619H920L680 1326H664L422 619ZM613 1868H535L740 2185H857L613 1868Z"/><glyph unicode="ǻ" horiz-adv-x="1044" d="M758 0V139Q576 -14 399 -14Q277 -14 191 69T104 272Q104 402 205 486T463 571Q605 571 758 492V717Q758 920 500 920Q278 920 201 754L121 774Q224 995 508 995Q864 995 864 721V92H1024V0H758ZM758 229V406Q612 492 481 492Q362 492 288 429T213 266Q213 181 273 125T426 68Q508 68 601 112T758 229ZM366 1253Q366 1331 420 1385T552 1440Q630 1440 685 1386T740 1253Q740 1175 685 1120T552 1065Q474 1065 420 1120T366 1253ZM679 1253Q679 1305 642 1341T552 1378Q500 1378 464 1342T427 1253Q427 1201 463 1164T552 1126Q604 1126 641 1163T679 1253ZM531 1498H453L658 1815H775L531 1498Z"/><glyph unicode="Ǽ" horiz-adv-x="1921" d="M-125 0V92H23L686 1298H457V1391H1829V1053H1735V1298H1004V760H1587V668H1004V92H1735V342H1829V0H657V92H889V668H457L137 92H299V0H-125ZM504 760H889V1298H801L504 760ZM945 1468H867L1072 1785H1189L945 1468Z"/><glyph unicode="ǽ" horiz-adv-x="1772" d="M1698 461H846Q863 274 973 169T1249 63Q1478 63 1630 268L1712 225Q1543 -29 1251 -29Q982 -29 838 193Q638 -29 426 -29Q290 -29 201 56T111 270Q111 403 206 485T459 567Q611 567 752 481V713Q752 915 492 915Q284 915 209 752L125 774Q220 995 506 995Q794 995 846 774Q987 995 1235 995Q1433 995 1565 852T1698 461ZM856 553H1593Q1583 711 1476 808T1229 905Q1091 905 983 811T856 553ZM752 399Q583 489 469 489Q357 489 285 427T213 268Q213 175 276 113T432 51Q597 51 752 213V399ZM893 1098H815L1020 1415H1137L893 1098Z"/><glyph unicode="Ǿ" horiz-adv-x="1599" d="M1251 1257L1378 1403L1432 1356L1300 1208Q1499 1015 1499 700Q1499 398 1311 189T801 -20Q644 -20 547 14T356 131L229 -10L176 35L303 180Q102 385 102 692Q102 993 292 1203T801 1413Q945 1413 1044 1377T1251 1257ZM375 262L1180 1178Q1089 1249 1008 1281T807 1313Q546 1313 382 1139T217 688Q217 440 375 262ZM1233 1128L428 213Q572 80 793 80Q1070 80 1227 266T1384 700Q1384 962 1233 1128ZM766 1468H688L893 1785H1010L766 1468Z"/><glyph unicode="ǿ" horiz-adv-x="1130" d="M1063 1001L922 838Q1051 684 1051 483Q1051 266 912 119T569 -29Q400 -29 266 78L131 -80L74 -33L213 129Q86 278 86 487Q86 702 225 848T567 995Q739 995 870 889L1010 1049L1063 1001ZM281 207L805 811Q703 899 567 899Q407 899 301 781T195 485Q195 326 281 207ZM854 758L332 154Q435 68 569 68Q728 68 835 186T942 481Q942 640 854 758ZM549 1098H471L676 1415H793L549 1098Z"/><glyph unicode="ˆ" horiz-adv-x="682" d="M39 1106L281 1403H383L643 1106H567L332 1313L111 1106H39Z"/><glyph unicode="ˇ" horiz-adv-x="682" d="M39 1405H111L332 1198L567 1405H643L383 1108H281L39 1405Z"/><glyph unicode="ˉ" horiz-adv-x="682" d="M12 1229V1288H670V1229H12Z"/><glyph unicode="˘" horiz-adv-x="682" d="M553 1370H637Q600 1260 518 1194T342 1128Q248 1128 165 1194T45 1370H131Q203 1225 342 1225Q478 1225 553 1370Z"/><glyph unicode="˙" horiz-adv-x="682" d="M272 1253Q272 1282 292 1302T342 1323Q371 1323 391 1303T412 1253Q412 1224 392 1204T342 1184Q313 1184 293 1204T272 1253Z"/><glyph unicode="˚" horiz-adv-x="682" d="M154 1253Q154 1331 208 1385T340 1440Q418 1440 473 1386T528 1253Q528 1175 473 1120T340 1065Q262 1065 208 1120T154 1253ZM467 1253Q467 1305 430 1341T340 1378Q288 1378 252 1342T215 1253Q215 1201 251 1164T340 1126Q392 1126 429 1163T467 1253Z"/><glyph unicode="˛" horiz-adv-x="682" d="M254 0H338Q262 -73 262 -147Q262 -198 296 -229T385 -260Q450 -260 520 -231V-315Q454 -356 387 -356Q292 -356 228 -302T164 -168Q164 -88 254 0Z"/><glyph unicode="˜" horiz-adv-x="682" d="M66 1165H10Q68 1346 190 1346Q246 1346 344 1297T498 1247Q575 1247 618 1343H672Q623 1165 483 1165Q426 1165 328 1214T184 1264Q102 1264 66 1165Z"/><glyph unicode="˝" horiz-adv-x="682" d="M434 1098H356L561 1415H678L434 1098ZM201 1098H123L328 1415H444L201 1098Z"/><glyph unicode="΄" horiz-adv-x="682" d="M304 1097H227L407 1391H525L304 1097Z"/><glyph unicode="΅" horiz-adv-x="682" d="M293 1097H216L348 1391H465L293 1097ZM518 1323Q547 1323 567 1303T588 1254Q588 1226 568 1206T518 1185Q490 1185 470 1205T449 1254Q449 1283 469 1303T518 1323ZM164 1323Q193 1323 213 1303T234 1254Q234 1225 214 1205T164 1185Q136 1185 116 1205T95 1254Q95 1282 115 1302T164 1323Z"/><glyph unicode="Ά" horiz-adv-x="1343" d="M129 92L547 1298H373V1391H971V1298H797L1221 92H1393V0H932V92H1106L952 528H391L242 92H424V0H-47V92H129ZM424 621H922L680 1325H666L424 621ZM75 1097H-2L178 1391H296L75 1097Z"/><glyph unicode="·" horiz-adv-x="682" d="M340 995Q374 995 399 972T424 913Q424 879 399 855T340 831Q306 831 282 855T257 913Q257 947 281 971T340 995Z"/><glyph unicode="Έ" horiz-adv-x="1237" d="M31 0V92H209V1298H31V1391H1145V1053H1051V1298H324V758H901V666H324V92H1051V342H1145V0H31ZM-257 1097H-334L-154 1391H-36L-257 1097Z"/><glyph unicode="Ή" horiz-adv-x="1409" d="M41 0V92H209V1298H41V1391H500V1298H324V774H1083V1298H905V1391H1368V1298H1198V92H1368V0H905V92H1083V682H324V92H500V0H41ZM-257 1097H-334L-154 1391H-36L-257 1097Z"/><glyph unicode="Ί" horiz-adv-x="575" d="M55 0V92H229V1298H55V1391H520V1298H344V92H520V0H55ZM-257 1097H-334L-154 1391H-36L-257 1097Z"/><glyph unicode="Ό" horiz-adv-x="1599" d="M815 -20Q501 -20 302 180T102 696Q102 1008 299 1210T801 1413Q1103 1413 1301 1210T1499 696Q1499 389 1303 185T815 -20ZM801 1313Q549 1313 383 1138T217 696Q217 430 383 255T801 80Q1053 80 1218 255T1384 696Q1384 963 1219 1138T801 1313ZM50 1097H-27L153 1391H271L50 1097Z"/><glyph unicode="Ύ" horiz-adv-x="1237" d="M375 0V92H567V627L141 1298H-39V1391H457V1298H274L635 727L997 1298H817V1391H1276V1298H1108L682 627V92H881V0H375ZM-342 1097H-419L-239 1391H-121L-342 1097Z"/><glyph unicode="Ώ" horiz-adv-x="1460" d="M841 334Q1009 334 1126 478T1244 809Q1244 1018 1103 1165T729 1313Q484 1313 350 1160T215 809Q215 635 325 488T618 334V0H89V276H181V92H527V256Q318 307 210 451T101 797Q101 1054 281 1233T729 1413Q995 1413 1176 1236T1358 797Q1358 596 1250 452T932 256V92H1278V276H1370V0H841V334ZM16 1097H-61L119 1391H237L16 1097Z"/><glyph unicode="ΐ" horiz-adv-x="512" d="M220 878H49V968H326V233Q326 73 413 73Q442 73 492 89V0Q428 -16 383 -16Q287 -16 254 48T220 233V878ZM464 1097H387L519 1391H636L464 1097ZM689 1323Q718 1323 738 1303T759 1254Q759 1226 739 1206T689 1185Q661 1185 641 1205T620 1254Q620 1283 640 1303T689 1323ZM335 1323Q364 1323 384 1303T405 1254Q405 1225 385 1205T335 1185Q307 1185 287 1205T266 1254Q266 1282 286 1302T335 1323Z"/><glyph unicode="Α" horiz-adv-x="1343" d="M128 92L546 1299H371V1391H969V1299H796L1219 92H1391V0H930V92H1104L951 528H390L240 92H422V0H-48V92H128ZM422 619H920L680 1326H664L422 619Z"/><glyph unicode="Β" horiz-adv-x="1153" d="M33 0V92H212V1299H33V1391H533Q723 1391 810 1354T952 1232T1006 1039Q1006 819 801 737Q936 701 1006 611T1077 402Q1077 248 970 124T533 0H33ZM330 772H533Q735 772 815 850T896 1040Q896 1125 847 1191T728 1278T533 1299H330V772ZM330 92H545Q801 92 882 184T963 392Q963 542 857 611T533 681H330V92Z"/><glyph unicode="Γ" horiz-adv-x="1044" d="M28 0V92H217V1299H28V1391H1024V953H915V1299H334V92H528V0H28Z"/><glyph unicode="Δ" horiz-adv-x="1343" d="M-48 0V92H128L546 1299H371V1391H969V1299H796L1219 92H1391V0H-48ZM1104 92L680 1326H664L240 92H1104Z"/><glyph unicode="Ε" horiz-adv-x="1237" d="M31 0V92H209V1299H31V1391H1144V1052H1051V1299H326V757H901V665H326V92H1051V342H1144V0H31Z"/><glyph unicode="Ζ" horiz-adv-x="1130" d="M56 0V92L907 1299H194V1053H101V1391H1045V1299L194 92H974V359H1067V0H56Z"/><glyph unicode="Η" horiz-adv-x="1409" d="M42 0V92H210V1299H42V1391H501V1299H327V774H1082V1299H907V1391H1369V1299H1200V92H1369V0H907V92H1082V682H327V92H501V0H42Z"/><glyph unicode="Θ" horiz-adv-x="1599" d="M802 1413Q1100 1413 1299 1214T1498 700Q1498 383 1299 182T798 -19Q502 -19 302 180T102 698Q102 1019 303 1216T802 1413ZM801 1313Q549 1313 383 1141T216 698Q216 427 384 255T800 83Q1053 83 1218 258T1384 700Q1384 965 1218 1139T801 1313ZM1177 774V683H423V774H1177Z"/><glyph unicode="Ι" horiz-adv-x="575" d="M55 0V92H228V1299H55V1391H520V1299H346V92H520V0H55Z"/><glyph unicode="Κ" horiz-adv-x="1194" d="M29 0V92H211V1298H29V1391H518V1298H326V92H518V0H29ZM731 0V92H918L340 731L918 1298H758V1391H1200V1298H1051L487 741L1079 92H1227V0H731Z"/><glyph unicode="Λ" horiz-adv-x="1343" d="M-48 0V92H128L546 1299H371V1391H969V1299H796L1219 92H1391V0H930V92H1104L680 1326H664L240 92H422V0H-48Z"/><glyph unicode="Μ" horiz-adv-x="1749" d="M39 0V92H219V1298H39V1391H395L825 350Q851 292 877 203H881Q894 266 922 334L1354 1391H1712V1298H1540V92H1712V0H1249V92H1425V1327H1421L879 0H856L319 1327H315V92H481V0H39Z"/><glyph unicode="Ν" horiz-adv-x="1450" d="M19 0V92H205V1299H19V1391H346L1151 165V1299H954V1391H1427V1299H1245V-19H1138L299 1259V92H499V0H19Z"/><glyph unicode="Ξ" horiz-adv-x="1096" d="M92 1391H1004V1049H912V1299H184V1049H92V1391ZM261 757H835V665H261V757ZM92 0V342H184V92H912V342H1004V0H92Z"/><glyph unicode="Ο" horiz-adv-x="1599" d="M802 1413Q1100 1413 1299 1214T1498 700Q1498 383 1299 182T798 -19Q502 -19 302 180T102 698Q102 1019 303 1216T802 1413ZM801 1313Q549 1313 383 1141T216 698Q216 427 384 255T800 83Q1053 83 1218 258T1384 700Q1384 965 1218 1139T801 1313Z"/><glyph unicode="Π" horiz-adv-x="1409" d="M42 0V92H210V1299H42V1391H1369V1299H1200V92H1369V0H907V92H1082V1299H327V92H501V0H42Z"/><glyph unicode="Ρ" horiz-adv-x="1130" d="M33 0V92H217V1298H33V1391H635Q853 1391 972 1280T1092 983Q1092 802 974 688T643 573H332V92H520V0H33ZM332 1298V666H594Q977 666 977 973Q977 1146 887 1222T606 1298H332Z"/><glyph unicode="Σ" horiz-adv-x="1130" d="M56 1299V1391H1067V1032H975V1299H194L649 739L194 92H975V359H1067V0H56V92L513 739L56 1299Z"/><glyph unicode="Τ" horiz-adv-x="1174" d="M345 0V92H529V1299H127V953H34V1391H1141V953H1048V1299H646V92H836V0H345Z"/><glyph unicode="Υ" horiz-adv-x="1237" d="M374 0V92H568V628L141 1299H-39V1391H456V1299H275L638 726L997 1299H816V1391H1277V1299H1109L686 628V92H881V0H374Z"/><glyph unicode="Φ" horiz-adv-x="1771" d="M641 0V92H827V226H652Q356 226 229 360T102 695Q102 897 228 1031T652 1165H827V1299H641V1391H1131V1299H945V1165H1120Q1426 1165 1548 1028T1670 695Q1670 494 1544 360T1120 226H945V92H1131V0H641ZM945 318H1148Q1345 318 1450 418T1556 697Q1556 870 1451 971T1148 1073H945V318ZM827 318V1073H624Q450 1073 333 987T216 688Q216 498 329 408T624 318H827Z"/><glyph unicode="Χ" horiz-adv-x="1343" d="M27 0V92H219L600 701L219 1299H27V1391H516V1299H349L658 806L971 1299H801V1391H1267V1299H1082L718 718L1117 92H1315V0H801V92H985L658 613L334 92H516V0H27Z"/><glyph unicode="Ψ" horiz-adv-x="1670" d="M603 0V92H776V355Q463 361 325 471T187 814V1299H8V1391H305V826Q305 682 354 602T509 486T776 447V1299H603V1391H1067V1299H894V447Q1125 447 1245 528T1365 826V1391H1661V1299H1482V814Q1482 572 1336 465T894 355V92H1068V0H603Z"/><glyph unicode="Ω" horiz-adv-x="1460" d="M841 334Q1009 334 1126 478T1244 809Q1244 1018 1103 1165T729 1313Q484 1313 350 1160T215 809Q215 635 325 488T618 334V0H89V276H181V92H527V256Q318 307 210 451T101 797Q101 1054 281 1233T729 1413Q995 1413 1176 1236T1358 797Q1358 596 1250 452T932 256V92H1278V276H1370V0H841V334Z"/><glyph unicode="Ϊ" horiz-adv-x="575" d="M55 0V92H229V1298H55V1391H520V1298H344V92H520V0H55ZM396 1668Q396 1697 416 1717T465 1738Q494 1738 514 1718T535 1668Q535 1639 515 1619T465 1599Q436 1599 416 1619T396 1668ZM41 1668Q41 1697 61 1717T111 1738Q140 1738 160 1718T180 1668Q180 1639 160 1619T111 1599Q82 1599 62 1619T41 1668Z"/><glyph unicode="Ϋ" horiz-adv-x="1237" d="M375 0V92H567V627L141 1298H-39V1391H457V1298H274L635 727L997 1298H817V1391H1276V1298H1108L682 627V92H881V0H375ZM728 1668Q728 1697 748 1717T797 1738Q826 1738 846 1718T867 1668Q867 1639 847 1619T797 1599Q768 1599 748 1619T728 1668ZM373 1668Q373 1697 393 1717T443 1738Q472 1738 492 1718T512 1668Q512 1639 492 1619T443 1599Q414 1599 394 1619T373 1668Z"/><glyph unicode="ά" horiz-adv-x="1217" d="M929 0V189Q788 -14 552 -14Q341 -14 208 129T74 488Q74 707 209 851T542 995Q796 995 929 773V968H1034V89H1211V0H929ZM551 82Q714 82 821 194T929 484Q929 672 816 785T548 899Q392 899 288 779T183 489Q183 320 286 201T551 82ZM572 1097H495L675 1391H793L572 1097Z"/><glyph unicode="έ" horiz-adv-x="886" d="M708 854V968H796V613H708Q703 737 626 818T430 899Q337 899 281 846T225 721Q225 646 277 597T424 547H551V470H424Q317 470 255 408T193 259Q193 173 258 121T435 68Q648 68 707 284L796 259Q712 -28 434 -28Q284 -28 184 51T83 260Q83 350 139 421T287 515Q220 529 168 590T116 730Q116 837 207 916T420 995Q601 995 708 854ZM407 1097H330L510 1391H628L407 1097Z"/><glyph unicode="ή" horiz-adv-x="1087" d="M14 0V89H192V878H14V968H298V819Q495 982 663 982Q754 982 818 942T904 843T926 687V89H1081V0H648V89H820V680Q820 809 771 847T659 886Q486 886 298 713V89H456V0H14ZM507 1097H430L610 1391H728L507 1097Z"/><glyph unicode="ί" horiz-adv-x="512" d="M220 878H49V968H326V233Q326 73 413 73Q442 73 492 89V0Q428 -16 383 -16Q287 -16 254 48T220 233V878ZM475 1097H398L578 1391H696L475 1097Z"/><glyph unicode="ΰ" horiz-adv-x="1096" d="M637 968H1082V878H913V329Q913 155 814 64T555 -28Q395 -28 289 55T182 329V878H13V968H288V337Q288 68 548 68Q808 68 808 337V878H637V968ZM492 1097H415L547 1391H664L492 1097ZM717 1323Q746 1323 766 1303T787 1254Q787 1226 767 1206T717 1185Q689 1185 669 1205T648 1254Q648 1283 668 1303T717 1323ZM363 1323Q392 1323 412 1303T433 1254Q433 1225 413 1205T363 1185Q335 1185 315 1205T294 1254Q294 1282 314 1302T363 1323Z"/><glyph unicode="α" horiz-adv-x="1217" d="M929 0V189Q788 -14 552 -14Q341 -14 208 129T74 488Q74 707 209 851T542 995Q796 995 929 773V968H1034V89H1211V0H929ZM551 82Q714 82 821 194T929 484Q929 672 816 785T548 899Q392 899 288 779T183 489Q183 320 286 201T551 82Z"/><glyph unicode="β" horiz-adv-x="1215" d="M-3 -433V-344H171V974Q171 1203 299 1308T604 1413Q771 1413 886 1321T1002 1077Q1002 981 952 909T813 810Q965 784 1048 670T1132 407Q1132 229 1015 107T682 -15Q459 -15 277 87V-344H432V-433H-3ZM277 185Q521 72 674 72Q836 72 929 163T1022 399Q1022 521 970 609T821 729T557 762V844Q689 844 748 860T854 938T900 1081Q900 1197 810 1261T598 1326Q466 1326 372 1246T277 968V185Z"/><glyph unicode="γ" horiz-adv-x="977" d="M269 -433V-344H446V-48L139 878H-4V968H365V878H246L420 354Q480 174 498 89Q524 195 575 349L750 878H627V968H982V878H849L552 -46V-344H729V-433H269Z"/><glyph unicode="δ" horiz-adv-x="1130" d="M830 1083Q820 1211 740 1269T564 1327Q472 1327 415 1277T358 1153Q358 1107 386 1071T511 1002Q708 936 814 879T983 721T1047 487Q1047 278 911 125T565 -28Q355 -28 220 122T84 469Q84 623 178 746T416 929Q258 996 258 1148Q258 1261 345 1337T561 1413Q729 1413 830 1287V1391H919V1083H830ZM521 894Q193 757 193 460Q193 290 310 179T575 68Q731 68 834 194T938 478Q938 620 851 720T521 894Z"/><glyph unicode="ε" horiz-adv-x="886" d="M708 854V968H796V613H708Q703 737 626 818T430 899Q337 899 281 846T225 721Q225 646 277 597T424 547H551V470H424Q317 470 255 408T193 259Q193 173 258 121T435 68Q648 68 707 284L796 259Q712 -28 434 -28Q284 -28 184 51T83 260Q83 350 139 421T287 515Q220 529 168 590T116 730Q116 837 207 916T420 995Q601 995 708 854Z"/><glyph unicode="ζ" horiz-adv-x="724" d="M135 1072H46V1391H724V1259Q364 812 278 605T191 264Q191 165 242 121T450 30Q566 -5 620 -29T709 -103T743 -217Q743 -320 663 -389T453 -458Q389 -458 320 -442V-343Q381 -362 446 -362Q545 -362 594 -322T643 -226Q643 -176 606 -142T429 -65Q264 -14 208 16T117 107T82 249Q82 431 202 668T650 1302H135V1072Z"/><glyph unicode="η" horiz-adv-x="1087" d="M14 0V89H192V878H14V968H298V819Q495 982 663 982Q754 982 818 942T904 843T926 687V89H1081V0H648V89H820V680Q820 809 771 847T659 886Q486 886 298 713V89H456V0H14Z"/><glyph unicode="θ" horiz-adv-x="1087" d="M993 692Q993 325 875 149T545 -28Q341 -28 218 141T95 692Q95 1058 212 1235T544 1413Q758 1413 875 1236T993 692ZM883 748Q863 1316 546 1316Q223 1316 204 748H883ZM883 659H204Q219 69 546 69Q868 69 883 659Z"/><glyph unicode="ι" horiz-adv-x="512" d="M220 878H49V968H326V233Q326 73 413 73Q442 73 492 89V0Q428 -16 383 -16Q287 -16 254 48T220 233V878Z"/><glyph unicode="κ" horiz-adv-x="1067" d="M26 0V89H205V878H26V968H310V514L819 878H673V968H1075V878H951L441 514L925 89H1096V0H883L310 500V89H487V0H26Z"/><glyph unicode="λ" horiz-adv-x="1087" d="M3 0V89H163L512 942L374 1302H169V1391H442L938 89H1085V0H677V89H833L559 813L265 89H421V0H3Z"/><glyph unicode="μ" horiz-adv-x="1110" d="M22 -433V-344H196V878H27V968H302V318Q302 230 312 188T366 113T483 80Q653 80 822 257V878H651V968H1094V878H928V89H1094V0H822V139Q641 -16 459 -16Q362 -16 302 50V-344H481V-433H22Z"/><glyph unicode="ν" horiz-adv-x="1067" d="M497 -14L155 878H-4V968H396V878H264L458 354Q522 179 544 89Q575 202 610 296L824 878H688V968H1072V878H925L594 -14H497Z"/><glyph unicode="ξ" horiz-adv-x="888" d="M391 -442V-343Q452 -364 522 -364Q614 -364 664 -323T714 -221Q714 -163 668 -125T468 -53Q323 -21 253 9T133 116T82 300Q82 430 165 544T454 728Q324 756 260 835T196 1009Q196 1196 393 1302H153V1391H833V1302H678Q486 1302 396 1215T305 1026Q305 927 387 850T618 772H743V683H667Q460 683 326 579T191 310Q191 223 230 164T323 82T538 24Q707 -13 760 -70T814 -211Q814 -322 731 -390T523 -458Q462 -458 391 -442Z"/><glyph unicode="ο" horiz-adv-x="1130" d="M565 995Q773 995 910 846T1047 484Q1047 270 910 121T565 -28Q357 -28 220 121T82 484Q82 700 220 847T565 995ZM565 899Q399 899 295 779T191 484Q191 306 296 187T565 68Q727 68 832 187T938 484Q938 661 833 780T565 899Z"/><glyph unicode="π" horiz-adv-x="1118" d="M14 0V89H192V878H14V968H1104V878H926V89H1104V0H648V89H820V878H298V89H470V0H14Z"/><glyph unicode="ρ" horiz-adv-x="1203" d="M-20 -433V-344H157V447Q157 710 297 852T638 995Q846 995 983 847T1121 484Q1121 269 983 121T638 -28Q406 -28 262 157V-344H439V-433H-20ZM638 899Q477 899 371 781T265 484Q265 304 371 186T639 68Q799 68 905 186T1011 484Q1011 662 905 780T638 899Z"/><glyph unicode="ς" horiz-adv-x="1023" d="M434 -445V-346Q496 -367 559 -367Q657 -367 707 -327T757 -227Q757 -178 724 -145T565 -71Q398 -16 304 37T144 202T77 461Q77 687 205 841T531 995Q725 995 838 840V978H927V609H838Q821 759 733 829T530 899Q378 899 282 779T186 464Q186 337 244 242T390 100T628 8Q773 -36 815 -94T857 -220Q857 -326 773 -393T556 -460Q500 -460 434 -445Z"/><glyph unicode="σ" horiz-adv-x="1130" d="M1130 968V878H837Q936 815 991 700T1047 470Q1047 273 911 123T565 -28Q355 -28 219 122T82 470Q82 669 219 818T560 968H1130ZM563 871Q396 871 294 750T191 470Q191 308 296 188T564 68Q727 68 832 188T938 470Q938 630 834 750T563 871Z"/><glyph unicode="τ" horiz-adv-x="648" d="M220 878H49V968H623V878H326V233Q326 127 350 100T405 73Q436 73 492 89V0Q429 -16 380 -16Q290 -16 255 43T220 233V878Z"/><glyph unicode="υ" horiz-adv-x="1096" d="M637 968H1082V878H913V329Q913 155 814 64T555 -28Q395 -28 289 55T182 329V878H13V968H288V337Q288 68 548 68Q808 68 808 337V878H637V968Z"/><glyph unicode="φ" horiz-adv-x="1212" d="M377 -433V-344H554V-25Q346 -7 215 139T83 484Q83 677 210 824T553 993V1302H377V1391H659V993Q877 965 1003 824T1130 484Q1130 285 998 139T659 -25V-344H836V-433H377ZM554 72V896Q372 875 282 753T192 484Q192 337 282 215T554 72ZM659 896V72Q839 92 930 213T1021 484Q1021 627 933 750T659 896Z"/><glyph unicode="χ" horiz-adv-x="1087" d="M36 0V89H168L480 500L179 878H52V968H414V878H300L540 576L776 878H669V968H1025V878H896L601 500L930 89H1052V0H692V89H811L540 426L288 89H414V0H36Z"/><glyph unicode="ψ" horiz-adv-x="1498" d="M520 -433V-344H696V-13Q439 -1 312 103T184 426V878H15V968H290V458Q290 274 377 185T696 81V878H532V968H966V878H802V81Q964 88 1086 158T1209 458V968H1483V878H1314V426Q1314 193 1174 95T802 -13V-344H979V-433H520Z"/><glyph unicode="ω" horiz-adv-x="1490" d="M789 577V380Q789 213 863 141T1035 68Q1142 68 1220 184T1298 469Q1298 652 1185 762T898 878V968H1387V878H1173Q1407 730 1407 462Q1407 243 1295 108T1035 -28Q947 -28 866 25T745 176Q636 -28 456 -28Q304 -28 193 109T82 449Q82 599 138 698T316 878H102V968H591V878Q435 878 313 768T191 457Q191 303 268 186T454 68Q556 68 628 142T700 380V577H789Z"/><glyph unicode="ϊ" horiz-adv-x="512" d="M220 878H49V968H326V233Q326 73 413 73Q442 73 492 89V0Q428 -16 383 -16Q287 -16 254 48T220 233V878ZM621 1254Q621 1283 641 1303T690 1324Q719 1324 739 1304T760 1254Q760 1225 740 1205T690 1185Q661 1185 641 1205T621 1254ZM266 1254Q266 1283 286 1303T336 1324Q365 1324 385 1304T405 1254Q405 1225 385 1205T336 1185Q307 1185 287 1205T266 1254Z"/><glyph unicode="ϋ" horiz-adv-x="1096" d="M637 968H1082V878H913V329Q913 155 814 64T555 -28Q395 -28 289 55T182 329V878H13V968H288V337Q288 68 548 68Q808 68 808 337V878H637V968ZM649 1254Q649 1283 669 1303T718 1324Q747 1324 767 1304T788 1254Q788 1225 768 1205T718 1185Q689 1185 669 1205T649 1254ZM294 1254Q294 1283 314 1303T364 1324Q393 1324 413 1304T433 1254Q433 1225 413 1205T364 1185Q335 1185 315 1205T294 1254Z"/><glyph unicode="ό" horiz-adv-x="1130" d="M565 -29Q361 -29 223 118T84 483Q84 701 222 848T565 995Q770 995 909 848T1049 483Q1049 266 910 119T565 -29ZM565 899Q405 899 299 781T193 483Q193 304 299 186T565 68Q726 68 833 186T940 483Q940 662 833 780T565 899ZM528 1097H451L631 1391H749L528 1097Z"/><glyph unicode="ύ" horiz-adv-x="1096" d="M637 968H1082V878H913V329Q913 155 814 64T555 -28Q395 -28 289 55T182 329V878H13V968H288V337Q288 68 548 68Q808 68 808 337V878H637V968ZM504 1097H427L607 1391H725L504 1097Z"/><glyph unicode="ώ" horiz-adv-x="1490" d="M789 577V380Q789 213 863 141T1035 68Q1142 68 1220 184T1298 469Q1298 652 1185 762T898 878V968H1387V878H1173Q1407 730 1407 462Q1407 243 1295 108T1035 -28Q947 -28 866 25T745 176Q636 -28 456 -28Q304 -28 193 109T82 449Q82 599 138 698T316 878H102V968H591V878Q435 878 313 768T191 457Q191 303 268 186T454 68Q556 68 628 142T700 380V577H789ZM708 1097H631L811 1391H929L708 1097Z"/><glyph unicode="Ё" horiz-adv-x="1237" d="M31 0V92H209V1298H31V1391H1145V1053H1051V1298H324V758H901V666H324V92H1051V342H1145V0H31ZM728 1668Q728 1697 748 1717T797 1738Q826 1738 846 1718T867 1668Q867 1639 847 1619T797 1599Q768 1599 748 1619T728 1668ZM373 1668Q373 1697 393 1717T443 1738Q472 1738 492 1718T512 1668Q512 1639 492 1619T443 1599Q414 1599 394 1619T373 1668Z"/><glyph unicode="Ђ" horiz-adv-x="1520" d="M350 0V92H531V1299H127V1069H34V1391H1141V1069H1048V1299H649V722Q815 885 1018 885Q1213 885 1315 755T1418 419Q1418 224 1326 107T1076 -11Q1014 -11 938 18V116Q1019 92 1071 92Q1182 92 1243 175T1304 406Q1304 557 1229 674T1003 792Q830 792 649 613V92H819V0H350Z"/><glyph unicode="Ѓ" horiz-adv-x="1121" d="M30 0V92H211V1299H30V1391H1087V966H996V1299H329V92H510V0H30ZM591 1468H513L718 1785H835L591 1468Z"/><glyph unicode="Є" horiz-adv-x="1536" d="M242 757H1050V665H241Q258 400 417 240T821 80Q1231 80 1378 509L1468 457Q1398 227 1227 104T817 -19Q513 -19 320 175T127 703Q127 1022 323 1217T806 1413Q965 1413 1105 1346T1328 1169V1391H1422V947H1328Q1288 1123 1139 1217T815 1312Q583 1312 423 1163T242 757Z"/><glyph unicode="Ѕ" horiz-adv-x="1110" d="M88 0V477H182V430Q182 289 299 185T575 80Q717 80 811 163T905 375Q905 468 842 538T583 662T300 753T153 867T92 1069Q92 1215 206 1314T498 1413Q725 1413 856 1251H860V1391H952V1016H860V1044Q860 1149 750 1231T494 1313Q366 1313 283 1243T199 1069Q199 980 260 914T517 795T803 704T956 585T1020 369Q1020 204 893 92T578 -20Q456 -20 350 33T186 182H182V0H88Z"/><glyph unicode="І" horiz-adv-x="575" d="M55 0V92H228V1299H55V1391H520V1299H346V92H520V0H55Z"/><glyph unicode="Ї" horiz-adv-x="575" d="M55 0V92H229V1298H55V1391H520V1298H344V92H520V0H55ZM396 1668Q396 1697 416 1717T465 1738Q494 1738 514 1718T535 1668Q535 1639 515 1619T465 1599Q436 1599 416 1619T396 1668ZM41 1668Q41 1697 61 1717T111 1738Q140 1738 160 1718T180 1668Q180 1639 160 1619T111 1599Q82 1599 62 1619T41 1668Z"/><glyph unicode="Ј" horiz-adv-x="555" d="M-139 -409V-310Q-64 -327 4 -327Q123 -327 172 -263T222 -43V1299H17V1391H540V1299H340V-43Q340 -286 237 -357T10 -429Q-82 -429 -139 -409Z"/><glyph unicode="Љ" horiz-adv-x="1957" d="M-48 0V92H128L546 1299H371V1391H969V1299H796L965 817H1209Q1491 817 1605 775T1787 634T1855 401Q1855 259 1747 130T1391 0H930V92H1104L680 1326H664L240 92H422V0H-48ZM997 725L1219 92H1334Q1487 92 1569 121T1696 231T1741 409Q1741 512 1689 586T1544 693T1209 725H997Z"/><glyph unicode="Њ" horiz-adv-x="2058" d="M42 0V92H210V1299H42V1391H501V1299H327V817H1082V1299H907V1391H1369V1299H1200V817H1407Q1600 817 1704 787T1882 653T1957 409Q1957 283 1896 184T1737 43T1427 0H907V92H1082V725H327V92H501V0H42ZM1200 725V92H1435Q1587 92 1670 121T1798 233T1843 413Q1843 536 1767 630T1435 725H1200Z"/><glyph unicode="Ћ" horiz-adv-x="1545" d="M350 0V92H531V1299H127V1069H34V1391H1141V1069H1048V1299H649V722Q805 887 1025 887Q1189 887 1274 796T1360 496V92H1539V0H1069V92H1242V432Q1242 590 1222 658T1147 761T1011 796Q814 796 649 613V92H819V0H350Z"/><glyph unicode="Ќ" horiz-adv-x="1194" d="M29 0V92H211V1298H29V1391H518V1298H326V92H518V0H29ZM731 0V92H918L340 731L918 1298H758V1391H1200V1298H1051L487 741L1079 92H1227V0H731ZM630 1468H552L757 1785H874L630 1468Z"/><glyph unicode="Ў" horiz-adv-x="1237" d="M102 0V92H305L589 590L141 1299H-39V1391H456V1299H275L654 701L997 1299H816V1391H1277V1299H1109L414 92H609V0H102ZM831 1708H915Q878 1598 796 1532T620 1466Q526 1466 443 1532T323 1708H409Q481 1563 620 1563Q756 1563 831 1708Z"/><glyph unicode="Џ" horiz-adv-x="1409" d="M42 0V92H210V1299H42V1391H501V1299H327V92H1082V1299H907V1391H1369V1299H1200V92H1369V0H751V-241H659V0H42Z"/><glyph unicode="А" horiz-adv-x="1343" d="M128 92L546 1299H371V1391H969V1299H796L1219 92H1391V0H930V92H1104L951 528H390L240 92H422V0H-48V92H128ZM422 619H920L680 1326H664L422 619Z"/><glyph unicode="Б" horiz-adv-x="1194" d="M33 0V92H218V1299H33V1391H964V1069H870V1299H336V817H542Q736 817 839 787T1017 653T1092 409Q1092 283 1031 184T872 43T562 0H33ZM336 92H570Q722 92 805 121T933 233T978 413Q978 536 902 630T570 725H336V92Z"/><glyph unicode="В" horiz-adv-x="1153" d="M33 0V92H212V1299H33V1391H533Q723 1391 810 1354T952 1232T1006 1039Q1006 819 801 737Q936 701 1006 611T1077 402Q1077 248 970 124T533 0H33ZM330 772H533Q735 772 815 850T896 1040Q896 1125 847 1191T728 1278T533 1299H330V772ZM330 92H545Q801 92 882 184T963 392Q963 542 857 611T533 681H330V92Z"/><glyph unicode="Г" horiz-adv-x="1121" d="M30 0V92H211V1299H30V1391H1087V966H996V1299H329V92H510V0H30Z"/><glyph unicode="Д" horiz-adv-x="1343" d="M-48 -241V92H128L546 1299H371V1391H969V1299H796L1219 92H1391V-241H1299V0H44V-241H-48ZM1104 92L680 1326H664L240 92H1104Z"/><glyph unicode="Е" horiz-adv-x="1237" d="M31 0V92H209V1299H31V1391H1144V1052H1051V1299H326V757H901V665H326V92H1051V342H1144V0H31Z"/><glyph unicode="Ж" horiz-adv-x="1738" d="M629 0V92H811V1299H629V1391H1118V1299H928V92H1118V0H629ZM1279 0V92H1478L939 731L1458 1299H1300V1391H1747V1299H1597L1085 735L1626 92H1775V0H1279ZM460 0H-36V92H125L654 731L142 1299H-8V1391H439V1299H281L800 731L268 92H460V0Z"/><glyph unicode="З" horiz-adv-x="1144" d="M787 730Q910 713 980 617T1050 397Q1050 226 916 104T558 -19Q170 -19 14 399L104 445Q197 227 317 151T573 75Q736 75 836 169T936 395Q936 492 879 562T747 656T503 680H442V772H514Q663 772 716 787T819 872T870 1034Q870 1163 773 1244T535 1326Q408 1326 307 1262T175 1078V975H84V1397H175L176 1270Q338 1413 559 1413Q768 1413 876 1295T984 1037Q984 837 787 730Z"/><glyph unicode="И" horiz-adv-x="1409" d="M42 0V92H210V1299H42V1391H501V1299H327V364L1082 1179V1299H907V1391H1369V1299H1200V92H1369V0H907V92H1082V1027L327 212V92H501V0H42Z"/><glyph unicode="Й" horiz-adv-x="1409" d="M42 0V92H210V1299H42V1391H501V1299H327V364L1082 1179V1299H907V1391H1369V1299H1200V92H1369V0H907V92H1082V1027L327 212V92H501V0H42ZM916 1708H1000Q963 1598 881 1532T705 1466Q611 1466 528 1532T408 1708H494Q566 1563 705 1563Q841 1563 916 1708Z"/><glyph unicode="К" horiz-adv-x="1194" d="M25 0V92H207V1299H25V1391H515V1299H325V92H515V0H25ZM727 0V92H913L335 731L913 1299H755V1391H1202V1299H1052L489 742L1081 92H1230V0H727Z"/><glyph unicode="Л" horiz-adv-x="1343" d="M-48 0V92H128L546 1299H371V1391H969V1299H796L1219 92H1391V0H930V92H1104L680 1326H664L240 92H422V0H-48Z"/><glyph unicode="М" horiz-adv-x="1749" d="M39 0V92H220V1299H39V1391H393L826 351Q841 313 878 203Q887 228 895 259Q903 288 922 334L1355 1391H1712V1299H1545V92H1712V0H1248V92H1427V1058Q1427 1193 1430 1324H1412Q1375 1204 1337 1110L878 0H857L393 1117Q362 1191 315 1324H298Q315 1110 315 1029V92H481V0H39Z"/><glyph unicode="Н" horiz-adv-x="1409" d="M42 0V92H210V1299H42V1391H501V1299H327V774H1082V1299H907V1391H1369V1299H1200V92H1369V0H907V92H1082V682H327V92H501V0H42Z"/><glyph unicode="О" horiz-adv-x="1599" d="M802 1413Q1100 1413 1299 1214T1498 700Q1498 383 1299 182T798 -19Q502 -19 302 180T102 698Q102 1019 303 1216T802 1413ZM801 1313Q549 1313 383 1141T216 698Q216 427 384 255T800 83Q1053 83 1218 258T1384 700Q1384 965 1218 1139T801 1313Z"/><glyph unicode="П" horiz-adv-x="1409" d="M42 0V92H210V1299H42V1391H1369V1299H1200V92H1369V0H907V92H1082V1299H327V92H501V0H42Z"/><glyph unicode="Р" horiz-adv-x="1130" d="M33 0V92H218V1299H33V1391H562Q697 1391 776 1379T928 1317T1047 1178T1092 982Q1092 856 1030 756T867 615T542 574H336V92H520V0H33ZM336 1299V666H570Q821 666 898 758T976 982Q976 1079 933 1156T814 1266T570 1299H336Z"/><glyph unicode="С" horiz-adv-x="1536" d="M1378 509L1468 457Q1399 227 1228 104T819 -19Q503 -19 315 181T127 703Q127 1018 321 1215T807 1413Q965 1413 1105 1346T1328 1169V1391H1422V947H1328Q1288 1122 1139 1217T815 1312Q560 1312 400 1139T240 701Q240 441 398 261T823 80Q1226 80 1378 509Z"/><glyph unicode="Т" horiz-adv-x="1174" d="M345 0V92H529V1299H127V953H34V1391H1141V953H1048V1299H646V92H836V0H345Z"/><glyph unicode="У" horiz-adv-x="1237" d="M102 0V92H305L589 590L141 1299H-39V1391H456V1299H275L654 701L997 1299H816V1391H1277V1299H1109L414 92H609V0H102Z"/><glyph unicode="Ф" horiz-adv-x="1771" d="M641 0V92H827V226H652Q356 226 229 360T102 695Q102 897 228 1031T652 1165H827V1299H641V1391H1131V1299H945V1165H1120Q1426 1165 1548 1028T1670 695Q1670 494 1544 360T1120 226H945V92H1131V0H641ZM945 318H1148Q1345 318 1450 418T1556 697Q1556 870 1451 971T1148 1073H945V318ZM827 318V1073H624Q450 1073 333 987T216 688Q216 498 329 408T624 318H827Z"/><glyph unicode="Х" horiz-adv-x="1343" d="M27 0V92H219L600 701L219 1299H27V1391H516V1299H349L658 806L971 1299H801V1391H1267V1299H1082L718 718L1117 92H1315V0H801V92H985L658 613L334 92H516V0H27Z"/><glyph unicode="Ц" horiz-adv-x="1409" d="M42 0V92H210V1299H42V1391H501V1299H327V92H1082V1299H907V1391H1369V1299H1200V92H1369V-241H1277V0H42Z"/><glyph unicode="Ч" horiz-adv-x="1323" d="M186 1299H7V1391H477V1299H304V1027Q304 859 332 780T451 651T664 601Q865 601 1018 761V1299H847V1391H1316V1299H1135V92H1310V0H844V92H1018V645Q972 595 868 551T648 506Q499 506 389 565T232 718T186 1010V1299Z"/><glyph unicode="Ш" horiz-adv-x="1749" d="M42 0V92H210V1299H42V1391H501V1299H327V92H819V1299H652V1391H1111V1299H937V92H1421V1299H1246V1391H1708V1299H1539V92H1708V0H42Z"/><glyph unicode="Щ" horiz-adv-x="1749" d="M42 0V92H210V1299H42V1391H501V1299H327V92H819V1299H652V1391H1111V1299H937V92H1421V1299H1246V1391H1708V1299H1539V92H1708V-241H1616V0H42Z"/><glyph unicode="Ъ" horiz-adv-x="1502" d="M341 0V92H527V1299H124V1069H32V1391H829V1299H644V817H851Q1044 817 1148 787T1326 653T1400 409Q1400 283 1339 184T1180 43T870 0H341ZM644 92H879Q1030 92 1113 121T1241 233T1286 413Q1286 554 1201 639T879 725H644V92Z"/><glyph unicode="Ы" horiz-adv-x="1705" d="M33 0V92H218V1299H33V1391H521V1299H336V817H542Q736 817 839 787T1017 653T1092 409Q1092 283 1031 184T872 43T562 0H33ZM336 92H570Q722 92 805 121T933 233T978 413Q978 536 902 630T570 725H336V92ZM1185 0V92H1358V1299H1185V1391H1650V1299H1476V92H1650V0H1185Z"/><glyph unicode="Ь" horiz-adv-x="1194" d="M33 0V92H218V1299H33V1391H520V1299H336V817H542Q736 817 839 787T1017 653T1092 409Q1092 283 1031 184T872 43T562 0H33ZM336 92H570Q722 92 805 121T933 233T978 413Q978 536 902 630T570 725H336V92Z"/><glyph unicode="Э" horiz-adv-x="1536" d="M1294 757Q1272 1013 1113 1162T721 1312Q547 1312 397 1217T208 947H114V1391H208V1169Q290 1279 430 1346T730 1413Q1016 1413 1212 1218T1409 703Q1409 373 1216 177T722 -19Q481 -19 310 102T68 457L158 509Q304 80 715 80Q960 80 1119 240T1295 665H486V757H1294Z"/><glyph unicode="Ю" horiz-adv-x="2174" d="M55 0V92H228V1299H55V1391H520V1299H346V774H680Q711 1076 909 1244T1376 1413Q1677 1413 1874 1213T2072 704Q2072 381 1872 181T1374 -19Q1085 -19 885 172T676 682H346V92H520V0H55ZM1375 1313Q1122 1313 956 1139T790 698Q790 427 958 255T1374 83Q1627 83 1792 258T1958 700Q1958 965 1792 1139T1375 1313Z"/><glyph unicode="Я" horiz-adv-x="1174" d="M1167 0H653V92H846V694H542L228 0H-30V92H149L427 704Q269 729 188 824T107 1046Q107 1153 160 1236T301 1355T586 1391H1167V1299H963V92H1167V0ZM846 786V1299H586Q440 1299 370 1272T261 1186T222 1046Q222 945 289 866T598 786H846Z"/><glyph unicode="а" horiz-adv-x="1044" d="M759 0V139Q578 -15 400 -15Q277 -15 192 69T106 270Q106 405 209 488T461 571Q609 571 759 492V703Q759 811 698 865T503 919Q279 919 203 754L121 773Q225 995 506 995Q707 995 786 916T865 688V89H1023V0H759ZM759 229V406Q615 491 484 491Q353 491 283 424T213 266Q213 181 272 125T428 68Q512 68 609 116T759 229Z"/><glyph unicode="б" horiz-adv-x="1130" d="M898 1444H1000Q981 1375 941 1330T846 1264T650 1222Q485 1196 414 1162T292 1044T208 800Q262 878 362 936T577 995Q779 995 913 847T1048 484Q1048 269 910 121T565 -28Q373 -28 231 107T88 526Q88 707 130 868T245 1121T403 1247T660 1304Q807 1323 849 1359T898 1444ZM567 899Q404 899 301 781T197 484Q197 305 301 187T566 68Q726 68 832 187T938 484Q938 663 832 781T567 899Z"/><glyph unicode="в" horiz-adv-x="1048" d="M14 0V89H194V878H14V968H460Q750 968 824 894T899 727Q899 571 735 517Q838 494 901 430T965 274Q965 205 926 145T794 43T460 0H14ZM299 549H493Q614 549 668 560T761 613T801 715Q801 772 767 811T675 864T493 878H299V549ZM299 89H483Q729 89 792 149T856 279Q856 344 814 389T706 447T483 460H299V89Z"/><glyph unicode="г" horiz-adv-x="902" d="M16 0V89H194V878H16V968H854V620H749V878H299V89H465V0H16Z"/><glyph unicode="д" horiz-adv-x="1107" d="M14 -221V89H165L478 878H278V968H903V878H708L933 89H1093V-221H987V0H120V-221H14ZM269 89H818L592 887L269 89Z"/><glyph unicode="е" horiz-adv-x="1130" d="M1059 461H188Q188 294 308 176T596 57Q825 57 975 268L1059 229Q986 107 859 39T584 -29Q365 -29 224 115T82 483Q82 707 221 851T575 995Q784 995 918 853T1059 461ZM190 553H948Q919 723 819 814T567 905Q421 905 321 813T190 553Z"/><glyph unicode="ж" horiz-adv-x="1547" d="M721 89V500L184 0H-29V89H142L590 514L116 878H-8V968H129L721 514V878H543V968H1005V878H827V514L1419 968H1556V878H1432L958 514L1406 89H1577V0H1364L827 500V89H1005V0H543V89H721Z"/><glyph unicode="з" horiz-adv-x="886" d="M178 854Q285 995 466 995Q588 995 679 916T770 730Q770 651 718 590T599 515Q690 493 746 422T803 260Q803 130 703 51T452 -28Q174 -28 90 259L179 284Q238 68 450 68Q563 68 628 121T694 260Q694 347 631 408T463 470H335V547H463Q556 547 608 596T661 720Q661 794 605 846T456 899Q337 899 261 818T178 613H90V968H178V854Z"/><glyph unicode="и" horiz-adv-x="1116" d="M13 0V89H191V878H13V968H474V878H297V289L819 798V878H641V968H1103V878H925V89H1103V0H641V89H819V677L297 169V89H474V0H13Z"/><glyph unicode="й" horiz-adv-x="1116" d="M13 0V89H191V878H13V968H474V878H297V289L819 798V878H641V968H1103V878H925V89H1103V0H641V89H819V677L297 169V89H474V0H13ZM769 1371H853Q816 1261 734 1195T558 1129Q464 1129 381 1195T261 1371H347Q419 1226 558 1226Q694 1226 769 1371Z"/><glyph unicode="к" horiz-adv-x="1067" d="M26 0V89H205V878H26V968H489V878H310V514L935 968H1075V878H960L450 508L925 89H1096V0H883L310 500V89H487V0H26Z"/><glyph unicode="л" horiz-adv-x="1107" d="M14 0V89H169L472 876H283V968H903V876H714L937 89H1093V0H668V89H817L593 878L289 89H439V0H14Z"/><glyph unicode="м" horiz-adv-x="1366" d="M14 0V89H192V878H14V968H392L624 362Q658 273 686 164Q691 181 705 234Q717 276 731 315L974 968H1351V878H1173V89H1351V0H895V89H1068V878H1048L697 -14H675L318 878H298V89H470V0H14Z"/><glyph unicode="н" horiz-adv-x="1116" d="M13 0V89H191V878H13V968H469V878H297V539H819V878H647V968H1103V878H925V89H1103V0H647V89H819V446H297V89H469V0H13Z"/><glyph unicode="о" horiz-adv-x="1130" d="M565 995Q773 995 910 846T1047 484Q1047 270 910 121T565 -28Q357 -28 220 121T82 484Q82 700 220 847T565 995ZM565 899Q399 899 295 779T191 484Q191 306 296 187T565 68Q727 68 832 187T938 484Q938 661 833 780T565 899Z"/><glyph unicode="п" horiz-adv-x="1118" d="M14 0V89H192V878H14V968H1104V878H926V89H1104V0H648V89H820V878H298V89H470V0H14Z"/><glyph unicode="р" horiz-adv-x="1217" d="M172 -342V877H8V969H279V764H283Q406 983 659 983Q860 983 995 839T1130 481Q1130 257 997 114T653 -29Q396 -29 283 193H279V-342H455V-434H-4V-342H172ZM645 891Q483 891 379 776T274 481Q274 300 381 184T655 68Q821 68 925 183T1030 481Q1030 661 922 776T645 891Z"/><glyph unicode="с" horiz-adv-x="1044" d="M897 299L983 262Q927 123 816 47T563 -29Q354 -29 219 112T84 473Q84 691 217 837T549 983Q751 983 856 842H860V969H948V600H860Q860 726 771 806T553 887Q394 887 294 774T193 481Q193 296 295 182T561 68Q795 68 897 299Z"/><glyph unicode="т" horiz-adv-x="938" d="M240 0V89H416V878H153V620H48V968H890V620H784V878H522V89H697V0H240Z"/><glyph unicode="у" horiz-adv-x="1087" d="M375 -344L512 26L163 878H3V968H424V878H268L562 155L836 878H680V968H1085V878H938L441 -433H171V-344H375Z"/><glyph unicode="ф" horiz-adv-x="1830" d="M694 -433V-344H862V191Q822 99 732 36T519 -28Q323 -28 203 116T82 481Q82 700 213 841T517 982Q624 982 719 921T862 768V1302H695V1391H968V768Q1013 859 1108 920T1312 982Q1502 982 1624 836T1747 473Q1747 256 1623 114T1308 -28Q1188 -28 1098 36T968 192V-344H1135V-433H694ZM1301 891Q1154 891 1061 775T968 484Q968 293 1067 179T1310 64Q1455 64 1546 178T1637 479Q1637 671 1539 781T1301 891ZM519 64Q670 64 766 182T862 484Q862 667 765 779T527 891Q384 891 288 778T191 472Q191 296 281 180T519 64Z"/><glyph unicode="х" horiz-adv-x="1087" d="M36 0V89H168L480 500L179 878H52V968H414V878H300L540 576L776 878H669V968H1025V878H896L601 500L930 89H1052V0H692V89H811L540 426L288 89H414V0H36Z"/><glyph unicode="ц" horiz-adv-x="1118" d="M14 0V89H192V878H14V968H470V878H298V89H820V878H648V968H1104V878H926V89H1104V-221H998V0H14Z"/><glyph unicode="ч" horiz-adv-x="1110" d="M169 878H12V968H448V878H275V634Q275 495 324 457T436 418Q519 418 633 469T801 588V878H641V968H1083V878H907V89H1083V0H613V88H801V482Q617 324 436 324Q344 324 279 362T192 462T169 647V878Z"/><glyph unicode="ш" horiz-adv-x="1726" d="M14 0V89H192V878H14V968H470V878H298V89H810V878H632V968H1088V878H916V89H1428V878H1256V968H1712V878H1534V89H1712V0H14Z"/><glyph unicode="щ" horiz-adv-x="1726" d="M14 0V89H192V878H14V968H470V878H298V89H810V878H632V968H1088V878H916V89H1428V878H1256V968H1712V878H1534V89H1712V-221H1606V0H14Z"/><glyph unicode="ъ" horiz-adv-x="1352" d="M318 0V89H497V878H154V620H48V968H795V878H603V549H758Q952 549 1050 533T1211 449T1274 287Q1274 212 1231 148T1094 42T764 0H318ZM603 89H787Q1033 89 1098 148T1163 279Q1163 344 1121 389T1012 447T787 460H603V89Z"/><glyph unicode="ы" horiz-adv-x="1517" d="M14 0V89H194V878H14V968H492V878H299V549H557Q969 549 969 288Q969 186 899 114T723 21T460 0H14ZM1221 878H1055V968H1497V878H1326V89H1497V0H1055V89H1221V878ZM299 89H483Q730 89 794 148T859 279Q859 344 816 390T707 448T483 460H299V89Z"/><glyph unicode="ь" horiz-adv-x="1051" d="M14 0V89H194V878H14V968H492V878H299V549H557Q969 549 969 288Q969 186 899 114T723 21T460 0H14ZM299 89H483Q730 89 794 148T859 279Q859 344 816 390T707 448T483 460H299V89Z"/><glyph unicode="э" horiz-adv-x="1035" d="M840 551Q815 717 717 802T486 888Q362 888 271 813T175 600H87V968H175V841Q286 982 489 982Q683 982 816 837T950 474Q950 261 819 117T474 -28Q314 -28 206 58T53 261L138 299Q242 66 476 66Q634 66 734 173T844 462H351V551H840Z"/><glyph unicode="ю" horiz-adv-x="1618" d="M13 0V89H191V878H13V968H469V878H297V539H573Q593 741 728 868T1053 995Q1260 995 1397 847T1535 484Q1535 270 1398 121T1053 -28Q876 -28 739 88T571 446H297V89H469V0H13ZM1052 899Q894 899 787 783T679 484Q679 308 783 188T1052 68Q1213 68 1319 186T1426 484Q1426 668 1319 783T1052 899Z"/><glyph unicode="я" horiz-adv-x="993" d="M974 0H543V89H689V424H485L266 0H25V89H196L381 426Q227 443 156 519T84 695Q84 784 134 851T266 943T528 968H974V878H794V89H974V0ZM689 513V878H495Q350 878 297 861T216 799T188 705Q188 647 221 601T308 534T495 513H689Z"/><glyph unicode="ё" horiz-adv-x="1130" d="M1059 461H188Q188 294 308 176T596 57Q825 57 975 268L1059 229Q986 107 859 39T584 -29Q365 -29 224 115T82 483Q82 707 221 851T575 995Q784 995 918 853T1059 461ZM190 553H948Q919 723 819 814T567 905Q421 905 321 813T190 553ZM674 1253Q674 1282 694 1302T743 1323Q772 1323 792 1303T813 1253Q813 1224 793 1204T743 1184Q714 1184 694 1204T674 1253ZM319 1253Q319 1282 339 1302T389 1323Q418 1323 438 1303T458 1253Q458 1224 438 1204T389 1184Q360 1184 340 1204T319 1253Z"/><glyph unicode="ђ" horiz-adv-x="1110" d="M27 0V89H203V1104H27V1193H203V1302H27V1391H308V1193H635V1104H308V837Q492 995 670 995Q764 995 826 961T915 867T941 672L940 -86Q940 -263 862 -341T600 -419Q560 -419 529 -414V-322Q567 -328 602 -328Q709 -328 772 -283T835 -86V685Q835 825 786 863T664 901Q495 901 308 730V89H469V0H27Z"/><glyph unicode="ѓ" horiz-adv-x="902" d="M16 0V89H194V878H16V968H854V620H749V878H299V89H465V0H16ZM433 1098H355L560 1415H677L433 1098Z"/><glyph unicode="є" horiz-adv-x="1044" d="M195 551H684V462H191Q200 280 300 173T559 66Q793 66 897 299L982 261Q938 144 830 58T561 -28Q338 -28 212 120T85 474Q85 692 218 837T546 982Q749 982 860 841V968H948V600H860Q855 738 764 813T549 888Q417 888 319 803T195 551Z"/><glyph unicode="ѕ" horiz-adv-x="918" d="M78 0V336H172Q172 216 255 142T473 68Q592 68 667 122T743 260Q743 324 697 368T450 452T190 557T131 719Q131 831 218 907T434 983Q607 983 700 856H705V969H795V651H705Q700 761 624 828T438 895Q339 895 283 843T227 717Q227 659 271 619T516 541T778 434T840 268Q840 140 740 63T471 -14Q265 -14 176 121H172V0H78Z"/><glyph unicode="і" horiz-adv-x="512" d="M242 1247Q208 1247 184 1272T160 1331Q160 1365 184 1389T242 1413Q276 1413 301 1389T326 1331Q326 1298 301 1273T242 1247ZM49 0V92H219V877H49V969H326V92H492V0H49Z"/><glyph unicode="ї" horiz-adv-x="512" d="M49 0V92H221V877H49V969H328V92H492V0H49ZM621 1253Q621 1282 641 1302T690 1323Q719 1323 739 1303T760 1253Q760 1224 740 1204T690 1184Q661 1184 641 1204T621 1253ZM266 1253Q266 1282 286 1302T336 1323Q365 1323 385 1303T405 1253Q405 1224 385 1204T336 1184Q307 1184 287 1204T266 1253Z"/><glyph unicode="ј" horiz-adv-x="492" d="M164 1331Q164 1365 188 1389T246 1413Q280 1413 305 1389T330 1331Q330 1298 305 1273T246 1247Q212 1247 188 1272T164 1331ZM223 877H45V969H330V-117Q330 -420 9 -420Q-34 -420 -82 -414V-322Q-33 -328 6 -328Q123 -328 173 -270T223 -86V877Z"/><glyph unicode="љ" horiz-adv-x="1553" d="M14 0V89H169L481 876H283V968H903V876H714L807 549H1062Q1471 549 1471 285Q1471 204 1421 138T1275 36T987 0H668V89H823L596 887L273 89H439V0H14ZM832 460L937 89H1001Q1227 89 1294 146T1361 280Q1361 342 1321 387T1217 446T997 460H832Z"/><glyph unicode="њ" horiz-adv-x="1679" d="M13 0V89H191V878H13V968H469V878H297V539H819V878H647V968H1103V878H925V549H1173Q1424 549 1510 473T1597 290Q1597 0 1119 0H647V89H819V446H297V89H469V0H13ZM925 460V89H1111Q1358 89 1422 148T1487 280Q1487 344 1444 390T1334 448T1111 460H925Z"/><glyph unicode="ћ" horiz-adv-x="1110" d="M27 0V89H203V1104H27V1193H203V1302H27V1391H308V1193H635V1104H308V837Q492 995 670 995Q764 995 826 961T915 867T941 672V89H1098V0H662V89H835V685Q835 825 786 863T664 901Q495 901 308 730V89H469V0H27Z"/><glyph unicode="ќ" horiz-adv-x="1067" d="M26 0V89H205V878H26V968H489V878H310V514L935 968H1075V878H960L450 508L925 89H1096V0H883L310 500V89H487V0H26ZM599 1098H521L726 1415H843L599 1098Z"/><glyph unicode="ў" horiz-adv-x="1087" d="M377 -342L512 27L164 877H4V969H426V877H268L563 156L836 877H682V969H1085V877H938L442 -434H172V-342H377ZM755 1371H839Q802 1261 720 1195T544 1129Q450 1129 367 1195T247 1371H333Q405 1226 544 1226Q680 1226 755 1371Z"/><glyph unicode="џ" horiz-adv-x="1118" d="M14 0V89H192V878H14V968H470V878H298V89H820V878H648V968H1104V878H926V89H1104L1103 0H612V-221H506V0H14Z"/><glyph unicode="Ґ" horiz-adv-x="1121" d="M30 0V92H211V1299H30V1391H996V1640H1087V1299H329V92H510V0H30Z"/><glyph unicode="ґ" horiz-adv-x="703" d="M14 0V89H192V878H14V968H549V1189H654V878H298V89H470V0H14Z"/><glyph unicode="Ẁ" horiz-adv-x="1942" d="M528 -14L135 1298H-39V1391H424V1298H252L586 147L881 1298H717V1391H1241V1298H1073L1391 147L1710 1298H1532V1391H1982V1298H1806L1427 -14H1337L967 1321L623 -14H528ZM1006 1468L762 1785H879L1084 1468H1006Z"/><glyph unicode="ẁ" horiz-adv-x="1536" d="M410 -14L133 877H6V969H346V877H233L387 375Q446 182 461 109Q483 231 528 375L688 877H575V969H942V877H834L971 440Q1029 249 1059 100Q1058 168 1139 410L1294 877H1167V969H1530V877H1397L1108 -14H1010L760 827L514 -14H410ZM787 1098L543 1415H660L865 1098H787Z"/><glyph unicode="Ẃ" horiz-adv-x="1942" d="M526 -14L133 1298H-41V1391H422V1298H250L584 147L879 1298H715V1391H1239V1298H1071L1389 147L1708 1298H1530V1391H1980V1298H1804L1425 -14H1335L965 1321L621 -14H526ZM937 1468H859L1064 1785H1181L937 1468Z"/><glyph unicode="ẃ" horiz-adv-x="1536" d="M410 -14L133 877H6V969H346V877H233L387 375Q446 182 461 109Q483 231 528 375L688 877H575V969H942V877H834L971 440Q1029 249 1059 100Q1058 168 1139 410L1294 877H1167V969H1530V877H1397L1108 -14H1010L760 827L514 -14H410ZM750 1098H672L877 1415H994L750 1098Z"/><glyph unicode="Ẅ" horiz-adv-x="1942" d="M526 -14L133 1298H-41V1391H422V1298H250L584 147L879 1298H715V1391H1239V1298H1071L1389 147L1708 1298H1530V1391H1980V1298H1804L1425 -14H1335L965 1321L621 -14H526ZM1073 1623Q1073 1652 1093 1672T1142 1693Q1171 1693 1191 1673T1212 1623Q1212 1594 1192 1574T1142 1554Q1113 1554 1093 1574T1073 1623ZM718 1623Q718 1652 738 1672T788 1693Q817 1693 837 1673T857 1623Q857 1594 837 1574T788 1554Q759 1554 739 1574T718 1623Z"/><glyph unicode="ẅ" horiz-adv-x="1536" d="M410 -14L133 877H6V969H346V877H233L387 375Q446 182 461 109Q483 231 528 375L688 877H575V969H942V877H834L971 440Q1029 249 1059 100Q1058 168 1139 410L1294 877H1167V969H1530V877H1397L1108 -14H1010L760 827L514 -14H410ZM877 1254Q877 1283 897 1303T946 1324Q975 1324 995 1304T1016 1254Q1016 1225 996 1205T946 1185Q917 1185 897 1205T877 1254ZM522 1254Q522 1283 542 1303T592 1324Q621 1324 641 1304T661 1254Q661 1225 641 1205T592 1185Q563 1185 543 1205T522 1254Z"/><glyph unicode="Ỳ" horiz-adv-x="1237" d="M375 0V92H567V627L141 1298H-39V1391H457V1298H274L635 727L997 1298H817V1391H1276V1298H1108L682 627V92H881V0H375ZM654 1468L410 1785H527L732 1468H654Z"/><glyph unicode="ỳ" horiz-adv-x="1087" d="M377 -342L512 27L164 877H4V969H426V877H268L563 156L836 877H682V969H1085V877H938L442 -434H172V-342H377ZM563 1098L319 1415H436L641 1098H563Z"/><glyph unicode="–" horiz-adv-x="1024" d="M-12 567H1036V459H-12V567Z"/><glyph unicode="—" horiz-adv-x="2048" d="M-12 567H2060V459H-12V567Z"/><glyph unicode="―" horiz-adv-x="1536" d="M-12 566H1548V458H-12V566Z"/><glyph unicode="‗" horiz-adv-x="1024" d="M-12 -154H1036V-256H-12V-154ZM-12 -331H1036V-433H-12V-331Z"/><glyph unicode="‘" horiz-adv-x="512" d="M313 1133V942H199V1165Q199 1383 332 1391V1317Q287 1317 276 1273T262 1133H313Z"/><glyph unicode="’" horiz-adv-x="512" d="M199 1200V1391H313V1167Q313 950 180 942V1016Q225 1016 236 1059T250 1200H199Z"/><glyph unicode="‚" horiz-adv-x="512" d="M199 0V190H313V-33Q313 -250 180 -258V-184Q225 -184 236 -141T250 0H199Z"/><glyph unicode="‛" horiz-adv-x="512" d="M264 1200Q270 1076 281 1048T334 1013V940Q257 955 228 1009T198 1200V1391H316V1200H264Z"/><glyph unicode="“" horiz-adv-x="981" d="M727 1133H778V942H664V1165Q664 1383 797 1391V1317Q752 1317 741 1273T727 1133ZM248 1133H299V942H184V1165Q184 1383 317 1391V1317Q273 1317 262 1273T248 1133Z"/><glyph unicode="”" horiz-adv-x="981" d="M733 1200H682V1391H797V1167Q797 950 664 942V1016Q708 1016 719 1059T733 1200ZM254 1200H203V1391H317V1167Q317 950 184 942V1016Q229 1016 240 1059T254 1200Z"/><glyph unicode="„" horiz-adv-x="981" d="M686 0V190H801V-33Q801 -250 668 -258V-184Q713 -184 724 -141T737 0H686ZM199 0V190H313V-33Q313 -250 180 -258V-184Q225 -184 236 -141T250 0H199Z"/><glyph unicode="†" horiz-adv-x="961" d="M506 852Q506 790 507 751T519 673L541 594V412L506 -410H457L422 412V594Q457 671 457 852Q389 852 347 850T274 842L213 827H27V930H213Q282 905 457 905Q457 1063 439 1130L422 1190V1391H539V1190Q506 1113 506 905Q574 905 616 907T689 916L750 930H936V827H750Q681 852 506 852Z"/><glyph unicode="‡" horiz-adv-x="1004" d="M584 487Q526 368 526 98Q618 98 697 117L770 135H956V8H770Q667 45 526 45Q526 -56 543 -132L559 -201V-416H442V-201Q477 -83 477 45Q371 45 298 27L233 8H47V135H233Q337 98 477 98Q477 363 416 487Q477 612 477 877Q371 877 298 858L233 840H47V967H233Q337 930 477 930Q477 1027 460 1104L442 1176V1391H559V1176Q526 1062 526 930Q618 930 697 948L770 967H956V840H770Q667 877 526 877Q526 607 584 487Z"/><glyph unicode="•" horiz-adv-x="1024" d="M262 698Q262 801 336 874T512 948Q614 948 688 875T762 698Q762 596 688 523T512 449Q410 449 336 522T262 698Z"/><glyph unicode="…" horiz-adv-x="2048" d="M1649 190H1763V0H1649V190ZM967 190H1081V0H967V190ZM285 190H399V0H285V190Z"/><glyph unicode="‰" horiz-adv-x="2048" d="M330 1413Q604 1413 604 1040Q604 670 328 670Q51 670 51 1042Q51 1413 330 1413ZM330 727Q522 727 522 1040Q522 1356 332 1356Q137 1356 137 1040Q137 727 330 727ZM156 0L1135 1391H1204L225 0H156ZM1724 715Q1999 715 1999 342Q1999 -29 1722 -29Q1446 -29 1446 344Q1446 715 1724 715ZM1724 29Q1917 29 1917 342Q1917 657 1726 657Q1532 657 1532 342Q1532 29 1724 29ZM1034 715Q1309 715 1309 342Q1309 -29 1032 -29Q756 -29 756 344Q756 715 1034 715ZM1034 29Q1227 29 1227 342Q1227 657 1036 657Q842 657 842 342Q842 29 1034 29Z"/><glyph unicode="′" horiz-adv-x="448" d="M150 1413H298V1173L272 906H181L150 1173V1413Z"/><glyph unicode="″" horiz-adv-x="576" d="M348 1413H495V1173L470 906H379L348 1173V1413ZM80 1413H228V1173L202 906H111L80 1173V1413Z"/><glyph unicode="‹" horiz-adv-x="469" d="M147 489L459 0H346L33 489L346 979H459L147 489Z"/><glyph unicode="›" horiz-adv-x="469" d="M322 489L10 979H123L436 489L123 0H10L322 489Z"/><glyph unicode="‼" horiz-adv-x="725" d="M233 369L210 958V1391H312V958L288 369H233ZM437 369L413 958V1391H515V958L492 369H437ZM202 0V191H320V0H202ZM405 0V191H523V0H405Z"/><glyph unicode="‾" horiz-adv-x="1280" d="M-53 1869H1312V1795H-53V1869Z"/><glyph unicode="⁄" horiz-adv-x="705" d="M-172 0L807 1391H877L-102 0H-172Z"/><glyph unicode="ⁿ" horiz-adv-x="704" d="M-5 543V611H111V1070H-5V1137H203V1061Q330 1146 435 1146Q520 1146 566 1101T612 962V611H713V543H407V611H519V958Q519 1075 425 1075Q342 1075 203 982V611H306V543H-5Z"/><glyph unicode="₣" horiz-adv-x="1087" d="M211 343H17V430H211V1299H30V1391H1087V1051H994V1299H329V761H837V670H329V430H621V343H329V92H510V0H30V92H211V343Z"/><glyph unicode="₤" horiz-adv-x="1067" d="M423 830H741V740H458Q474 700 497 633H741V543H524Q539 481 539 401Q539 308 519 234Q655 111 701 88T792 65Q937 65 944 307H1028Q1028 150 964 66T796 -19Q663 -19 492 149Q415 -19 269 -19Q195 -19 142 31T89 161Q89 245 148 294T284 344Q366 344 448 287Q455 317 455 355Q455 449 423 543H123V633H392Q386 651 351 740H123V830H315Q251 986 251 1099Q251 1230 345 1321T595 1413Q749 1413 844 1328T944 1078H844Q838 1204 769 1265T592 1327Q477 1327 414 1262T350 1112Q350 1011 423 830ZM429 205Q365 271 291 271Q235 271 200 238T164 159Q164 117 193 86T269 55Q367 55 429 205Z"/><glyph unicode="₧" horiz-adv-x="2261" d="M34 0V92H219V1299H34V1391H563Q707 1391 791 1375T946 1305T1052 1167T1093 968V1186L1199 1270V968H1402V878H1199V254Q1199 141 1214 106T1290 71Q1336 71 1402 90V335H1496Q1496 216 1579 143T1797 69Q1914 69 1990 122T2067 262Q2067 339 2012 379T1796 449Q1671 472 1606 497T1497 579T1453 712Q1453 825 1541 903T1759 982Q1928 982 2029 857V968H2118V652H2029Q2026 763 1949 829T1763 896Q1667 896 1611 843T1554 717Q1554 667 1597 623T1821 546Q1968 518 2031 487T2129 396T2164 268Q2164 138 2063 62T1800 -15Q1590 -15 1496 121V0H1402Q1324 -22 1263 -22Q1197 -22 1157 6T1105 76T1093 215V878H1080Q1051 764 983 694T820 599T543 574H337V92H521V0H34ZM337 1299V666H571Q823 666 900 759T977 980Q977 1074 935 1153T816 1265T571 1299H337Z"/><glyph unicode="€" horiz-adv-x="1087" d="M1012 299Q891 -18 633 -18Q439 -18 318 129T166 541H25V627H160L158 692Q158 745 160 768H25V854H166Q198 1114 313 1262T608 1411Q810 1411 920 1233V1389H1012V1049H920Q893 1170 806 1249T614 1329Q477 1329 387 1202T268 854H686V768H262L260 700Q260 650 262 627H686V541H270Q298 320 388 194T618 68Q717 68 789 129T924 338L1012 299Z"/><glyph unicode="℅" horiz-adv-x="1818" d="M275 -19L1395 1413H1508L388 -19H275ZM624 1346L623 1403H700V1221H627Q568 1335 433 1335Q336 1335 267 1271T197 1106Q197 999 266 932T433 864Q564 864 645 991L711 938Q608 786 433 786Q294 786 198 875T102 1106Q102 1234 195 1323T427 1413Q538 1413 624 1346ZM1391 608Q1532 608 1624 516T1717 294Q1717 164 1624 73T1391 -19Q1251 -19 1158 72T1065 294Q1065 425 1157 516T1391 608ZM1392 530Q1289 530 1225 463T1160 294Q1160 191 1225 125T1392 59Q1491 59 1556 126T1621 294Q1621 396 1556 463T1392 530Z"/><glyph unicode="ℓ" horiz-adv-x="742" d="M42 332L221 571V1034Q221 1279 289 1349T455 1419Q562 1419 620 1348T679 1180Q679 978 391 580V255Q391 172 403 146T452 120Q476 120 505 133T648 229V65Q542 -24 422 -24Q328 -24 275 34T221 221V353L141 253L42 332ZM391 818Q484 977 511 1046T538 1176Q538 1233 516 1265T461 1298Q419 1298 405 1247T391 1048V818Z"/><glyph unicode="№" horiz-adv-x="2064" d="M19 0V92H205V1299H19V1391H346L1067 177V1299H870V1391H1343V1299H1161V-19H1053L299 1247V92H499V0H19ZM1691 369Q1547 369 1452 464T1357 703Q1357 847 1450 939T1689 1032Q1835 1032 1928 939T2021 700Q2021 555 1929 462T1691 369ZM1689 458Q1791 458 1858 528T1926 700Q1926 803 1858 873T1689 943Q1588 943 1520 873T1452 700Q1452 598 1519 528T1689 458ZM2013 166H1366V250H2013V166Z"/><glyph unicode="™" horiz-adv-x="1921" d="M231 1391H868V1303H604V573H498V1303H231V1391ZM961 1391H1116L1319 737H1323L1532 1391H1688V573H1595V1303H1591L1354 573H1284L1059 1303H1055V573H961V1391Z"/><glyph unicode="Ω" horiz-adv-x="1573" d="M481 160Q135 361 135 811Q135 1108 312 1305T793 1503Q1091 1503 1265 1303T1440 803Q1440 387 1096 160L1460 167V0H885V179Q1050 254 1141 419T1232 777Q1232 1009 1120 1174T791 1340Q579 1340 463 1182T347 785Q347 562 440 404T689 179V0H112V167L481 160Z"/><glyph unicode="℮" horiz-adv-x="1229" d="M321 531V160Q441 39 619 39Q873 39 1014 285L1086 242Q969 73 855 20T619 -34Q389 -34 240 122T90 531Q90 779 238 937T619 1096Q833 1096 985 954T1148 531H321ZM917 605V902Q793 1023 617 1023Q442 1023 321 901V605H917Z"/><glyph unicode="⅛" horiz-adv-x="1729" d="M1483 384Q1624 330 1624 206Q1624 115 1546 53T1342 -10Q1212 -10 1136 53T1060 206Q1060 330 1201 384Q1086 434 1086 540Q1086 622 1158 677T1342 733Q1450 733 1524 680T1598 539Q1598 435 1483 384ZM1337 353Q1147 353 1147 197Q1147 140 1195 95T1342 49Q1435 49 1486 92T1537 206Q1537 353 1337 353ZM1342 674Q1262 674 1215 638T1168 540Q1168 481 1212 445T1342 408Q1425 408 1470 444T1516 540Q1516 601 1471 637T1342 674ZM340 0L1318 1391H1389L410 0H340ZM179 679V739H295V1342H179V1402H381V739H499V679H179Z"/><glyph unicode="⅜" horiz-adv-x="1729" d="M1484 384Q1625 330 1625 206Q1625 115 1547 53T1343 -10Q1212 -10 1136 53T1060 206Q1060 330 1201 384Q1087 434 1087 540Q1087 622 1159 677T1343 733Q1454 733 1526 678T1598 539Q1598 435 1484 384ZM1337 353Q1147 353 1147 197Q1147 140 1196 95T1343 49Q1435 49 1486 92T1538 206Q1538 353 1337 353ZM1343 674Q1262 674 1216 638T1169 540Q1169 481 1213 445T1343 408Q1426 408 1471 444T1516 540Q1516 601 1471 637T1343 674ZM340 0L1319 1391H1389L411 0H340ZM58 911H138Q164 731 338 731Q427 731 475 775T524 883Q524 949 473 989T333 1029Q312 1029 274 1027V1086Q294 1084 303 1084Q382 1084 429 1122T476 1225Q476 1284 435 1319T330 1355Q188 1355 188 1208H106Q106 1298 167 1355T331 1413Q423 1413 492 1362T561 1221Q561 1111 453 1062Q609 1014 609 879Q609 788 531 729T337 669Q218 669 140 737T58 911Z"/><glyph unicode="⅝" horiz-adv-x="1729" d="M1484 384Q1625 330 1625 206Q1625 115 1547 53T1343 -10Q1215 -10 1138 53T1061 206Q1061 330 1202 384Q1087 434 1087 540Q1087 622 1159 677T1343 733Q1455 733 1527 678T1599 539Q1599 435 1484 384ZM1337 353Q1147 353 1147 197Q1147 140 1196 95T1343 49Q1435 49 1486 92T1538 206Q1538 353 1337 353ZM1343 674Q1263 674 1216 638T1169 540Q1169 481 1213 445T1343 408Q1426 408 1471 444T1517 540Q1517 600 1473 637T1343 674ZM340 0L1319 1391H1390L411 0H340ZM60 892H144Q166 729 328 729Q412 729 467 778T523 914Q523 995 472 1041T341 1087Q230 1087 160 995Q132 1019 96 1029L135 1402H556V1238H477V1336H207L182 1097Q185 1098 211 1110Q288 1146 356 1146Q460 1146 533 1080T606 913Q606 800 524 735T326 669Q224 669 146 728T60 892Z"/><glyph unicode="⅞" horiz-adv-x="1729" d="M1484 384Q1625 330 1625 206Q1625 115 1547 53T1343 -10Q1215 -10 1138 53T1061 206Q1061 330 1201 384Q1087 434 1087 540Q1087 622 1159 677T1343 733Q1451 733 1525 680T1599 539Q1599 435 1484 384ZM1337 353Q1147 353 1147 197Q1147 140 1196 95T1343 49Q1435 49 1486 92T1538 206Q1538 353 1337 353ZM1343 674Q1262 674 1216 638T1169 540Q1169 481 1213 445T1343 408Q1426 408 1471 444T1516 540Q1516 600 1472 637T1343 674ZM340 0L1319 1391H1389L414 0H340ZM227 679V739H329Q329 942 389 1082T548 1336H218V1231H139V1402H641V1347Q413 1072 413 772Q413 759 414 739H514V679H227Z"/><glyph unicode="←" horiz-adv-x="2048" d="M492 157Q371 292 283 362T79 494V540Q195 601 282 670T492 876H568Q522 780 491 729T402 604H1968V429H402Q457 360 490 307T568 157H492Z"/><glyph unicode="↑" horiz-adv-x="1024" d="M153 926Q288 1048 358 1135T490 1339H535Q596 1223 665 1137T872 926V850Q775 896 724 928T600 1016V-429H425V1016Q356 962 303 929T153 850V926Z"/><glyph unicode="→" horiz-adv-x="2048" d="M1555 876Q1677 741 1764 671T1968 539V494Q1852 433 1766 364T1555 157H1479Q1525 254 1557 305T1645 429H79V604H1645Q1591 673 1558 726T1479 876H1555Z"/><glyph unicode="↓" horiz-adv-x="1024" d="M871 -16Q736 -138 666 -225T534 -429H489Q428 -313 358 -227T152 -16V60Q249 14 300 -18T424 -106V1339H599V-106Q668 -52 721 -19T871 60V-16Z"/><glyph unicode="↔" horiz-adv-x="2048" d="M402 604H1645Q1591 672 1558 726T1479 876H1555Q1677 741 1764 671T1968 539V494Q1852 433 1766 364T1555 157H1479Q1525 254 1556 305T1645 429H402Q457 360 490 307T568 157H492Q371 292 283 362T79 494V540Q195 601 282 670T492 876H568Q522 780 491 729T402 604Z"/><glyph unicode="↕" horiz-adv-x="1024" d="M600 1139V-104Q668 -50 722 -17T872 63V-14Q737 -135 667 -222T535 -427H490Q429 -311 359 -224T153 -14V63Q249 16 300 -15T425 -104V1139Q356 1085 303 1052T153 973V1049Q288 1171 358 1258T490 1463H535Q596 1346 665 1260T872 1049V973Q775 1019 724 1051T600 1139Z"/><glyph unicode="↨" horiz-adv-x="1024" d="M599 1139V-104Q667 -50 721 -17T871 63V-14Q736 -135 666 -222T534 -427H489Q428 -311 358 -224T152 -14V63Q248 16 299 -15T424 -104V1139Q355 1085 302 1052T152 973V1049Q287 1171 357 1258T489 1463H534Q595 1346 664 1260T871 1049V973Q774 1019 723 1051T599 1139ZM152 -502H871V-677H152V-502Z"/><glyph unicode="∂" horiz-adv-x="1003" d="M422 1138L287 1198Q351 1348 450 1419T647 1491Q795 1491 882 1352T969 926Q969 491 788 233T358 -25Q223 -25 138 66T52 321Q52 579 249 748T854 924Q852 1174 797 1268T649 1363Q506 1363 422 1138ZM850 796Q604 784 488 726T302 546T232 303Q232 215 285 164T402 112Q546 112 681 281T850 796Z"/><glyph unicode="∆" horiz-adv-x="1253" d="M668 1409L1245 0H12L668 1409ZM594 1059L147 100H991L594 1059Z"/><glyph unicode="∏" horiz-adv-x="1685" d="M162 1413H1524V-458H1333V1239H353V-458H162V1413Z"/><glyph unicode="∑" horiz-adv-x="1460" d="M139 1413H1376V1249H388L995 497L346 -295H1386V-458H122V-272L742 490L139 1237V1413Z"/><glyph unicode="−" horiz-adv-x="1366" d="M145 702H1221V610H145V702Z"/><glyph unicode="∕" horiz-adv-x="705" d="M-172 0L807 1391H879L-100 0H-172Z"/><glyph unicode="∙" horiz-adv-x="598" d="M242 588V778H356V588H242Z"/><glyph unicode="√" horiz-adv-x="1124" d="M1055 1868L748 -78L250 950L53 854L20 922L319 1069L723 244L983 1878L1055 1868Z"/><glyph unicode="∞" horiz-adv-x="1195" d="M554 792Q671 942 741 983T887 1025Q995 1025 1085 947T1175 704Q1175 518 1082 443T887 368Q809 368 739 411T554 601Q418 430 266 430Q154 430 87 512T19 697Q19 798 86 881T266 964Q418 964 554 792ZM623 698Q670 623 737 552T884 480Q953 480 1008 531T1064 694Q1064 812 1006 862T881 912Q825 912 773 873T623 698ZM485 697Q363 854 265 854Q204 854 167 811T130 700Q130 630 169 587T267 543Q367 543 485 697Z"/><glyph unicode="∟" horiz-adv-x="2048" d="M123 0V1782H258V135H1925V0H123Z"/><glyph unicode="∩" horiz-adv-x="1472" d="M293 0H158V542Q158 820 171 934T252 1156T452 1339T736 1413Q889 1413 1021 1339T1218 1161T1299 942T1315 542V0H1181V549Q1181 790 1169 894T1109 1081T956 1223T736 1282Q620 1282 516 1223T364 1082T305 896T293 549V0Z"/><glyph unicode="∫" horiz-adv-x="561" d="M602 1760Q602 1721 573 1696T497 1671Q460 1671 437 1696T393 1721Q375 1721 366 1707T356 1663Q356 1629 375 1407T395 856Q395 351 365 147T286 -136Q260 -177 219 -198T133 -219Q84 -219 47 -184T10 -99Q10 -61 35 -34T100 -7Q134 -7 165 -40T210 -73Q235 -73 249 -29T264 125Q264 162 258 322T252 884Q252 1365 269 1522T310 1738Q339 1808 379 1842T463 1876Q520 1876 561 1844T602 1760Z"/><glyph unicode="≈" horiz-adv-x="1366" d="M145 836V947Q310 1068 431 1068Q517 1068 703 982Q866 907 936 907Q1038 907 1221 1041V930Q1059 808 940 808Q855 808 688 884Q501 969 433 969Q368 969 307 940T145 836ZM145 353V464Q310 586 431 586Q517 586 703 500Q866 424 936 424Q1038 424 1221 558V447Q1059 325 940 325Q855 325 688 402Q501 487 433 487Q368 487 307 458T145 353Z"/><glyph unicode="≠" horiz-adv-x="1366" d="M833 975H1221V882H796L651 512H1221V418H614L406 -111H325L533 418H145V512H570L715 882H145V975H752L959 1504H1041L833 975Z"/><glyph unicode="≡" horiz-adv-x="1366" d="M145 1207H1221V1113H145V1207ZM145 743H1221V650H145V743ZM145 280H1221V187H145V280Z"/><glyph unicode="≤" horiz-adv-x="1366" d="M1221 406L145 862V945L1221 1401V1297L268 904L1221 510V406ZM145 93H1221V-1H145V93Z"/><glyph unicode="≥" horiz-adv-x="1366" d="M145 1401L1221 945V862L145 406V510L1097 904L145 1297V1401ZM145 93H1221V-1H145V93Z"/><glyph unicode="⌂" horiz-adv-x="1229" d="M153 0V634L614 1153L1076 634V0H153ZM234 81H995V600L614 1027L234 600V81Z"/><glyph unicode="⌐" horiz-adv-x="1366" d="M1221 975V882H238V418H145V975H1221Z"/><glyph unicode="⌠" horiz-adv-x="1237" d="M691 -515H546V1296Q546 1515 635 1626T838 1737Q905 1737 940 1705T976 1628Q976 1588 951 1562T888 1536Q858 1536 831 1551Q813 1561 790 1597T743 1634Q726 1634 712 1622Q702 1614 698 1595Q691 1562 691 1456V-515Z"/><glyph unicode="⌡" horiz-adv-x="1237" d="M546 1737H691V-74Q691 -293 602 -404T399 -515Q332 -515 297 -483T261 -406Q261 -366 286 -340T348 -314Q379 -314 407 -330Q425 -340 448 -376T494 -412Q511 -412 525 -401Q535 -393 539 -372Q546 -340 546 -234V1737Z"/><glyph unicode="─" horiz-adv-x="1451" d="M1473 534H-23V709H1473V534Z"/><glyph unicode="│" horiz-adv-x="1451" d="M638 -621V1864H813V-621H638Z"/><glyph unicode="┌" horiz-adv-x="1451" d="M1474 709V534H813V-621H638V709H1474Z"/><glyph unicode="┐" horiz-adv-x="1451" d="M637 534H-23V709H812V-621H637V534Z"/><glyph unicode="└" horiz-adv-x="1451" d="M638 534V1864H813V709H1474V534H638Z"/><glyph unicode="┘" horiz-adv-x="1451" d="M812 534H-23V709H637V1864H812V534Z"/><glyph unicode="├" horiz-adv-x="1451" d="M638 -621V1864H813V709H1474V534H813V-621H638Z"/><glyph unicode="┤" horiz-adv-x="1451" d="M637 -621V534H-23V709H637V1864H812V-621H637Z"/><glyph unicode="┬" horiz-adv-x="1451" d="M637 534H-23V709H1473V534H812V-621H637V534Z"/><glyph unicode="┴" horiz-adv-x="1451" d="M1473 534H-23V709H637V1864H812V709H1473V534Z"/><glyph unicode="┼" horiz-adv-x="1451" d="M637 534H-23V709H637V1864H812V709H1473V534H812V-621H637V534Z"/><glyph unicode="═" horiz-adv-x="1451" d="M1473 724H-23V899H1473V724ZM1473 344H-23V519H1473V344Z"/><glyph unicode="║" horiz-adv-x="1451" d="M829 -621V1864H1004V-621H829ZM448 -621V1864H623V-621H448Z"/><glyph unicode="╒" horiz-adv-x="1451" d="M638 -621V899H1474V724H813V519H1474V344H813V-621H638Z"/><glyph unicode="╓" horiz-adv-x="1451" d="M448 -621V709H1475V534H1004V-621H829V534H623V-621H448Z"/><glyph unicode="╔" horiz-adv-x="1451" d="M623 -621H448V899H1474V724H623V-621ZM1004 344V-621H829V519H1474V344H1004Z"/><glyph unicode="╕" horiz-adv-x="1451" d="M637 344H-23V519H637V724H-23V899H812V-621H637V344Z"/><glyph unicode="╖" horiz-adv-x="1451" d="M448 -621V534H-23V709H1003V-621H828V534H622V-621H448Z"/><glyph unicode="╗" horiz-adv-x="1451" d="M828 -621V724H-23V899H1003V-621H828ZM447 344H-23V519H622V-621H447V344Z"/><glyph unicode="╘" horiz-adv-x="1451" d="M638 344V1864H813V899H1474V724H813V519H1474V344H638Z"/><glyph unicode="╙" horiz-adv-x="1451" d="M1475 534H448V1864H623V709H829V1864H1004V709H1475V534Z"/><glyph unicode="╚" horiz-adv-x="1451" d="M623 1864V519H1473V344H448V1864H623ZM1004 899H1474V724H829V1864H1004V899Z"/><glyph unicode="╛" horiz-adv-x="1451" d="M812 344H-23V519H637V724H-23V899H637V1864H812V344Z"/><glyph unicode="╜" horiz-adv-x="1451" d="M1003 534H-23V709H447V1864H622V709H828V1864H1003V534Z"/><glyph unicode="╝" horiz-adv-x="1451" d="M828 1864H1003V344H-23V519H828V1864ZM447 899V1864H622V724H-23V899H447Z"/><glyph unicode="╞" horiz-adv-x="1451" d="M638 -621V1864H813V899H1474V724H813V519H1474V344H813V-621H638Z"/><glyph unicode="╟" horiz-adv-x="1451" d="M829 -621V1864H1004V709H1474V534H1004V-621H829ZM448 -621V1864H623V-621H448Z"/><glyph unicode="╠" horiz-adv-x="1451" d="M448 -621V1864H623V-621H448ZM829 724V1864H1004V899H1474V724H829ZM829 -621V519H1474V344H1004V-621H829Z"/><glyph unicode="╡" horiz-adv-x="1451" d="M637 344H-23V519H637V724H-23V899H637V1864H812V-621H637V344Z"/><glyph unicode="╢" horiz-adv-x="1451" d="M447 -621L448 534H-23V709H447V1864H622V-621H447ZM828 -621V1864H1003V-621H828Z"/><glyph unicode="╣" horiz-adv-x="1451" d="M828 -621V1864H1003V-621H828ZM622 1864V724H-23V899H447V1864H622ZM447 344H-23V519H622V-621H447V344Z"/><glyph unicode="╤" horiz-adv-x="1451" d="M1473 724H-23V899H1473V724ZM637 344H-23V519H1473V344H812V-621H637V344Z"/><glyph unicode="╥" horiz-adv-x="1451" d="M447 -621V534H-23V709H1473V534H1003V-621H828V534H622V-621H447Z"/><glyph unicode="╦" horiz-adv-x="1451" d="M1473 724H-23V899H1473V724ZM447 344H-23V519H622V-621H447V344ZM828 -621V519H1473V344H1003V-621H828Z"/><glyph unicode="╧" horiz-adv-x="1451" d="M1473 724H-23V899H637V1864H812V899H1473V724ZM1473 344H-23V519H1473V344Z"/><glyph unicode="╨" horiz-adv-x="1451" d="M1473 534H-23V709H447V1864H622V709H828V1864H1003V709H1473V534Z"/><glyph unicode="╩" horiz-adv-x="1451" d="M622 724H-23V899H447V1864H622V724ZM1473 724H828V1864H1003V899H1473V724ZM1473 344H-23V519H1473V344Z"/><glyph unicode="╪" horiz-adv-x="1451" d="M637 344H-23V519H637V724H-23V899H637V1864H812V899H1473V724H812V519H1473V344H812V-621H637V344Z"/><glyph unicode="╫" horiz-adv-x="1451" d="M447 -621V534H-23V709H447V1864H622V709H828V1864H1003V709H1473V534H1003V-621H828V534H622V-621H447Z"/><glyph unicode="╬" horiz-adv-x="1451" d="M1003 899H1473V724H828V1864H1003V899ZM447 899V1864H622V724H-23V899H447ZM447 344H-23V519H622V-621H447V344ZM1003 344V-621H828V519H1473V344H1003Z"/><glyph unicode="▀" horiz-adv-x="1451" d="M1473 621H-23V1864H1473V621Z"/><glyph unicode="▄" horiz-adv-x="1451" d="M1473 -621H-23V621H1473V-621Z"/><glyph unicode="█" horiz-adv-x="1451" d="M-23 -621V1864H1473V-621H-23Z"/><glyph unicode="▌" horiz-adv-x="1451" d="M-23 -621V1864H725V-621H-23Z"/><glyph unicode="▐" horiz-adv-x="1451" d="M726 -621V1864H1474V-621H726Z"/><glyph unicode="░" horiz-adv-x="1451" d="M0 1864H121V1739H0V1864ZM482 1864H603V1739H482V1864ZM965 1864H1086V1739H965V1864ZM241 1615H362V1490H241V1615ZM723 1615H844V1490H723V1615ZM1206 1615H1327V1490H1206V1615ZM965 1366H1086V1241H965V1366ZM482 1366H603V1241H482V1366ZM0 1366H121V1241H0V1366ZM1206 1117H1327V992H1206V1117ZM723 1117H844V992H723V1117ZM241 1117H362V992H241V1117ZM0 867H121V742H0V867ZM482 867H603V742H482V867ZM965 867H1086V742H965V867ZM1206 618H1327V493H1206V618ZM723 618H844V493H723V618ZM241 618H362V493H241V618ZM0 369H121V244H0V369ZM482 369H603V244H482V369ZM965 369H1086V244H965V369ZM241 120H362V-5H241V120ZM723 120H844V-5H723V120ZM1206 120H1327V-5H1206V120ZM965 -130H1086V-255H965V-130ZM482 -130H603V-255H482V-130ZM0 -130H121V-255H0V-130ZM241 -379H362V-504H241V-379ZM723 -379H844V-504H723V-379ZM1206 -379H1327V-504H1206V-379Z"/><glyph unicode="▒" horiz-adv-x="1451" d="M121 1864H241V1739H121V1864ZM362 1864H482V1739H362V1864ZM603 1864H724V1739H603V1864ZM844 1864H965V1739H844V1864ZM1086 1864H1206V1739H1086V1864ZM1327 1864H1447V1739H1327V1864ZM0 1615H121V1490H0V1615ZM241 1615H362V1490H241V1615ZM482 1615H603V1490H482V1615ZM724 1615H844V1490H724V1615ZM965 1615H1086V1490H965V1615ZM1206 1615H1327V1490H1206V1615ZM121 1366H241V1241H121V1366ZM362 1366H482V1241H362V1366ZM603 1366H724V1241H603V1366ZM844 1366H965V1241H844V1366ZM1086 1366H1206V1241H1086V1366ZM1327 1366H1447V1241H1327V1366ZM241 1116H362V992H241V1116ZM482 1116H603V992H482V1116ZM724 1116H844V992H724V1116ZM965 1116H1086V992H965V1116ZM1206 1116H1327V992H1206V1116ZM0 1116H121V992H0V1116ZM121 867H241V742H121V867ZM362 867H482V742H362V867ZM603 867H724V742H603V867ZM844 867H965V742H844V867ZM1086 867H1206V742H1086V867ZM1327 867H1447V742H1327V867ZM0 618H121V493H0V618ZM482 618H603V493H482V618ZM724 618H844V493H724V618ZM965 618H1086V493H965V618ZM1206 618H1327V493H1206V618ZM241 618H362V493H241V618ZM1327 369H1447V244H1327V369ZM1086 369H1206V244H1086V369ZM844 369H965V244H844V369ZM603 369H724V244H603V369ZM362 369H482V244H362V369ZM121 369H241V244H121V369ZM0 119H121V-5H0V119ZM241 119H362V-5H241V119ZM482 119H603V-5H482V119ZM724 119H844V-5H724V119ZM965 119H1086V-5H965V119ZM1206 119H1327V-5H1206V119ZM1327 -130H1447V-255H1327V-130ZM1086 -130H1206V-255H1086V-130ZM844 -130H965V-255H844V-130ZM603 -130H724V-255H603V-130ZM362 -130H482V-255H362V-130ZM121 -130H241V-255H121V-130ZM0 -379H121V-504H0V-379ZM241 -379H362V-504H241V-379ZM482 -379H603V-504H482V-379ZM724 -379H844V-504H724V-379ZM965 -380L1086 -379V-504H965V-380ZM1206 -379H1327V-504H1206V-379Z"/><glyph unicode="▓" horiz-adv-x="1451" d="M1447 1490V1116H1327V992H1447V618H1327V493H1447V119H1327V-5H1447V-379H1327V-504H1447V-628H0V-255H121V-130H0V244H121V369H0V742H121V867H0V1241H121V1366H0V1739H121V1864H241V1739H362V1864H482V1739H603V1864H724V1739H844V1864H965V1739H1086V1864H1206V1739H1327V1864H1447V1615H1327V1490H1447ZM121 1615V1490H241V1615H121ZM362 1615V1490H482V1615H362ZM603 1615V1490H724V1615H603ZM844 1615V1490H965V1615H844ZM1086 1615V1490H1206V1615H1086ZM1327 1366H1206V1241H1327V1366ZM1086 1366H965V1241H1086V1366ZM844 1366H724V1241H844V1366ZM603 1366H482V1241H603V1366ZM362 1366H241V1241H362V1366ZM121 1116V992H241V1116H121ZM362 1116V992H482V1116H362ZM603 1116V992H724V1116H603ZM844 1116V992H965V1116H844ZM1086 1116V992H1206V1116H1086ZM362 867H241V742H362V867ZM482 867V742H603V867H482ZM724 867V742H844V867H724ZM965 867V742H1086V867H965ZM1206 867V742H1327V867H1206ZM121 618V493H241V618H121ZM603 618V493H724V618H603ZM482 493V618H362V493H482ZM844 618V493H965V618H844ZM1086 618V493H1206V618H1086ZM1327 244V369H1206V244H1327ZM1086 244V369H965V244H1086ZM844 244V369H724V244H844ZM603 244V369H482V244H603ZM362 244V369H241V244H362ZM121 119V-5H241V119H121ZM362 119V-5H482V119H362ZM603 119V-5H724V119H603ZM844 119V-5H965V119H844ZM1086 119V-5H1206V119H1086ZM1327 -255V-130H1206V-255H1327ZM1086 -255V-130H965V-255H1086ZM844 -255V-130H724V-255H844ZM603 -255V-130H482V-255H603ZM362 -255V-130H241V-255H362ZM121 -379V-504H241V-379H121ZM362 -379V-504H482V-379H362ZM603 -379V-504H724V-379H603ZM844 -379V-504H965V-379H844ZM1086 -379V-504H1206V-379H1086Z"/><glyph unicode="■" horiz-adv-x="1237" d="M146 944H1090V0H146V944Z"/><glyph unicode="□" horiz-adv-x="1237" d="M146 944H1090V0H146V944ZM222 868V76H1014V868H222Z"/><glyph unicode="▪" horiz-adv-x="726" d="M594 909V445H131V908L594 909Z"/><glyph unicode="▫" horiz-adv-x="726" d="M594 909V445H131V908L594 909ZM518 833L207 832V521H518V833Z"/><glyph unicode="▬" horiz-adv-x="2048" d="M340 386H1708V0H340V386Z"/><glyph unicode="▲" horiz-adv-x="2027" d="M304 0L1014 1419L1724 0H304Z"/><glyph unicode="►" horiz-adv-x="2027" d="M288 1417L1739 693L288 -31V1417Z"/><glyph unicode="▼" horiz-adv-x="2027" d="M1724 1388L1014 -31L304 1388H1724Z"/><glyph unicode="◄" horiz-adv-x="2027" d="M1739 1417V-31L288 693L1739 1417Z"/><glyph unicode="◊" horiz-adv-x="1012" d="M962 763L565 0H443L46 763L443 1526H565L962 763ZM839 763L504 1415L169 763L504 111L839 763Z"/><glyph unicode="○" horiz-adv-x="1237" d="M619 1018Q729 1018 835 961T1000 798T1059 578Q1059 395 930 266T619 137Q436 137 307 266T178 578Q178 693 237 798T402 961T619 1018ZM619 942Q526 942 439 895T303 760T254 578Q254 427 361 320T619 213Q770 213 876 320T983 578Q983 672 934 760T798 895T619 942Z"/><glyph unicode="●" horiz-adv-x="1237" d="M619 1018Q729 1018 835 961T1000 798T1059 578Q1059 395 930 266T619 137Q436 137 307 266T178 578Q178 693 237 798T402 961T619 1018Z"/><glyph unicode="◘" horiz-adv-x="1237" d="M128 0V980H1108V0H128ZM618 692Q534 692 475 633T416 490Q416 407 475 348T618 288Q702 288 761 347T820 490Q820 574 761 633T618 692Z"/><glyph unicode="◙" horiz-adv-x="1237" d="M42 0V1155H1197V0H42ZM619 1018Q508 1018 403 961T238 798T179 577Q179 395 308 266T619 137Q802 137 931 266T1060 577Q1060 692 1001 798T837 961T619 1018ZM620 942Q711 942 798 895T935 761T984 577Q984 426 878 320T620 213Q468 213 362 319T255 577Q255 673 304 760T440 895T620 942Z"/><glyph unicode="◦" horiz-adv-x="726" d="M363 928Q467 928 540 855T614 677Q614 573 541 500T363 426Q259 426 186 499T112 677Q112 781 185 854T363 928ZM363 852Q290 852 239 801T188 677Q188 604 239 553T363 502Q435 502 486 553T538 677Q538 749 487 800T363 852Z"/><glyph unicode="☺" horiz-adv-x="2048" d="M1024 1156Q1184 1156 1337 1074T1576 838T1662 518Q1662 353 1578 202T1341 -34T1024 -119Q858 -119 707 -35T471 201T386 518Q386 684 471 837T710 1073T1024 1156ZM1024 1063Q887 1063 757 993T553 791T479 518Q479 377 551 248T753 46T1024 -26Q1165 -26 1295 46T1497 247T1569 518Q1569 660 1496 791T1292 992T1024 1063ZM779 731Q813 731 836 708T860 650Q860 617 837 593T779 569Q746 569 722 593T698 650Q698 684 722 707T779 731ZM1268 731Q1302 731 1325 708T1349 650Q1349 617 1326 593T1268 569Q1235 569 1211 593T1187 650Q1187 684 1210 707T1268 731ZM730 313L792 349Q871 205 1024 205Q1177 205 1255 349L1318 313Q1268 218 1195 168T1024 118Q926 118 853 168T730 313Z"/><glyph unicode="☻" horiz-adv-x="2048" d="M1024 1156Q1184 1156 1337 1074T1576 838T1662 518Q1662 353 1578 202T1341 -34T1024 -119Q858 -119 707 -35T471 201T386 518Q386 684 471 837T710 1073T1024 1156ZM779 731Q746 731 722 708T698 650Q698 617 722 593T779 569Q813 569 836 593T860 650Q860 684 837 707T779 731ZM1268 731Q1234 731 1211 708T1187 650Q1187 617 1211 593T1268 569Q1302 569 1325 593T1349 650Q1349 684 1326 707T1268 731ZM730 313Q780 218 853 168T1024 118Q1121 118 1194 168T1318 313L1255 349Q1177 205 1024 205Q871 205 792 349L730 313Z"/><glyph unicode="☼" horiz-adv-x="1877" d="M902 1621H978V1284Q1080 1277 1159 1246T1327 1143L1617 1427L1669 1374L1383 1088Q1456 993 1486 919Q1524 823 1527 734H1862V665H1527Q1508 472 1384 314L1669 23L1612 -27L1329 255Q1231 183 1158 155T978 114V-223H902V114Q790 129 714 160T557 252L263 -26L212 25L497 311Q431 395 397 477T352 665H16V734H352Q361 840 394 919T496 1083L212 1370L260 1427L552 1145Q653 1215 731 1245T902 1284V1621ZM937 1211Q808 1211 685 1145T494 956T425 699Q425 566 492 444T682 254T937 186Q1070 186 1192 254T1382 444T1450 699Q1450 832 1381 955T1189 1145T937 1211Z"/><glyph unicode="♀" horiz-adv-x="1536" d="M796 461V59H1255V0H796V-439H737V0H277V59H737V461Q634 461 512 526T317 717T244 983Q244 1119 313 1244T507 1438T768 1507Q904 1507 1028 1438T1222 1244T1291 983Q1291 774 1148 623T796 461ZM767 1451Q649 1451 537 1391T361 1217T298 982Q298 787 435 650T767 512Q962 512 1099 649T1237 982Q1237 1104 1174 1217T999 1390T767 1451Z"/><glyph unicode="♂" horiz-adv-x="1536" d="M1216 1620L1252 1604L1415 938L1358 923L1216 1504L858 736Q1006 661 1082 534T1158 262Q1158 126 1089 2T896 -192T634 -262Q498 -262 374 -193T180 1T111 262Q111 479 264 632T637 785Q715 785 803 758L1163 1529L626 1264L602 1317L1216 1620ZM634 731Q516 731 404 671T228 497T165 262Q165 67 302 -70T634 -208Q829 -208 966 -71T1104 262Q1104 384 1041 497T866 670T634 731Z"/><glyph unicode="♠" horiz-adv-x="1344" d="M673 1231Q699 1123 753 1038T945 828T1121 635T1158 498Q1158 403 1094 339T940 275Q858 275 786 332Q732 374 685 465Q686 318 723 232T843 96T1062 37L1069 0H277L284 37Q468 37 569 144T667 465Q622 370 556 323T406 275Q316 275 251 340T186 494Q186 568 218 627Q263 710 364 793T514 930Q588 1013 621 1078T673 1231Z"/><glyph unicode="♣" horiz-adv-x="1344" d="M1098 0H250L258 34Q423 69 477 103Q558 154 609 254T661 464Q661 480 660 511Q599 387 512 330T333 273Q217 273 136 354T55 553Q55 669 129 748T294 830Q357 828 460 777Q418 846 406 882T393 959Q393 1074 472 1152T670 1231Q787 1231 867 1153T948 963Q948 875 879 777Q963 817 980 822Q1007 830 1041 830Q1141 830 1214 752T1288 557Q1288 437 1208 356T1011 273Q934 277 877 306T769 386Q734 423 682 511Q686 352 730 260T867 106Q929 65 1090 34L1098 0Z"/><glyph unicode="♥" horiz-adv-x="1344" d="M674 -24Q643 94 586 197T363 519Q242 679 214 722Q168 792 148 850T127 969Q127 1080 201 1155T381 1231Q494 1230 575 1152Q636 1094 674 979Q706 1091 766 1150Q849 1231 957 1231Q1066 1231 1141 1157T1217 981Q1217 890 1174 793T1003 536Q839 329 764 196Q705 91 674 -24Z"/><glyph unicode="♦" horiz-adv-x="1344" d="M671 1234Q759 1080 889 907Q1039 707 1131 604Q1057 526 889 302Q753 120 671 -24Q644 28 597 97Q516 217 396 376Q370 411 213 604Q314 719 473 932Q591 1090 671 1234Z"/><glyph unicode="♪" horiz-adv-x="1024" d="M486 1363H524Q696 1363 751 1349Q830 1329 890 1272Q935 1230 961 1154T987 975V872H888V915Q888 983 860 1030T775 1103Q702 1135 613 1135H585V300Q585 179 553 112T443 4T273 -37Q164 -37 101 24T37 186Q37 291 113 362T312 434Q390 434 486 388V1363Z"/><glyph unicode="♫" horiz-adv-x="1536" d="M534 1271L1330 1519V411Q1330 287 1299 224T1192 120T1021 79Q912 79 847 141T782 303Q782 403 859 475T1058 548Q1098 548 1128 541T1228 505V1229L633 1044V208Q633 87 601 20T491 -88T321 -128Q212 -128 149 -67T85 94Q85 199 161 270T360 342Q438 342 534 296V1271Z"/><glyph unicode="" horiz-adv-x="1621" d="M1156 1596Q1157 1558 1157 1536Q1157 1463 1132 1407T1053 1305T957 1238T830 1210Q828 1233 828 1243Q828 1306 873 1391T983 1523T1156 1596ZM1456 1063Q1267 939 1267 729Q1267 514 1499 398Q1385 150 1291 60T1088 -31Q1038 -31 960 -1Q885 28 842 28Q792 28 716 -1Q637 -31 593 -31Q421 -31 270 222T119 736Q119 942 236 1080T573 1218Q645 1218 717 1187Q791 1155 837 1155Q878 1155 959 1189Q1032 1219 1110 1219Q1322 1219 1456 1063Z"/><glyph unicode="" horiz-adv-x="1110" d="M809 1331Q809 1365 833 1389T891 1413Q925 1413 950 1389T975 1331Q975 1298 950 1273T891 1247Q858 1247 834 1272T809 1331ZM938 969V92H1083V0H680V92H831V877H309V92H451V0H47V92H203V877H53V969H203V1147Q203 1272 273 1342T442 1413Q623 1413 670 1219L573 1204Q537 1321 438 1321Q309 1321 309 1165V969H938Z"/><glyph unicode="" horiz-adv-x="1110" d="M543 1391H936V92H1083V0H680V92H829V1298H639Q659 1272 670 1219L573 1204Q537 1321 438 1321Q309 1321 309 1165V969H467V877H309V92H451V0H47V92H203V877H47V969H203V1147Q203 1273 272 1343T442 1413Q481 1413 513 1402L543 1391Z"/><glyph unicode="" horiz-adv-x="662" d="M288 680V735H379V889H65Q58 921 32 934L379 1407H458V942H592V889H458V735H530V680H288ZM379 942V1292H374L118 942H379Z"/><glyph unicode="" horiz-adv-x="512" d="M249 1200H197V1391H315V1200Q315 1042 277 996T179 940V1013Q212 1019 228 1042T249 1200Z"/><glyph unicode="" horiz-adv-x="682" d="M227 -164L230 -86L278 -85Q388 -85 435 -133T482 -245Q482 -296 453 -339T361 -408T157 -433V-369Q269 -369 324 -343T380 -257Q380 -167 227 -164Z"/><glyph unicode="" horiz-adv-x="1118" d="M14 0V89H192V878H14V968H1104V878H926V89H1104V0H648V89H820V878H298V89H470V0H14Z"/><glyph unicode="ﬁ" horiz-adv-x="1110" d="M809 1331Q809 1365 833 1389T891 1413Q925 1413 950 1389T975 1331Q975 1298 950 1273T891 1247Q858 1247 834 1272T809 1331ZM938 969V92H1083V0H680V92H831V877H309V92H451V0H47V92H203V877H53V969H203V1147Q203 1272 273 1342T442 1413Q623 1413 670 1219L573 1204Q537 1321 438 1321Q309 1321 309 1165V969H938Z"/><glyph unicode="ﬂ" horiz-adv-x="1110" d="M543 1391H936V92H1083V0H680V92H829V1298H639Q659 1272 670 1219L573 1204Q537 1321 438 1321Q309 1321 309 1165V969H467V877H309V92H451V0H47V92H203V877H47V969H203V1147Q203 1273 272 1343T442 1413Q481 1413 513 1402L543 1391Z"/></font>
</defs>
</svg>
