<?xml version="1.0" encoding="UTF-8"?><svg xmlns="http://www.w3.org/2000/svg" width="100%" height="100%"><defs><font id="web" horiz-adv-x="1043"><!--





NOTICE: --><font-face font-family="" units-per-em="2048" panose-1="2 11 5 3 2 2 4 2 2 4" ascent="1523" descent="-525" alphabetic="0"/><missing-glyph horiz-adv-x="948" d="M948 1338V0H0V1338H948ZM855 91V1247H93V91H855ZM363 224V349H485V224H363ZM715 896Q715 861 706 834T681 785T645 744T603 708Q579 689 555 670T512 628T481 577T469 511V500H381Q380 507 380 515T379 528Q379 578 394 613T431 675T482 723T535 764Q567 789 589 818T611 891Q611 948 567 979T449 1011Q399 1011 353 999T271 971V1055Q306 1074 355 1085T453 1097Q514 1097 562 1083T645 1042T697 978T715 896Z"/><glyph unicode="&#13;" horiz-adv-x="410"/><glyph unicode=" " horiz-adv-x="410"/><glyph unicode="!" horiz-adv-x="541" d="M175 0V195H366V0H175ZM360 1338L336 431H205L181 1338H360Z"/><glyph unicode="&quot;" horiz-adv-x="742" d="M123 1338H278V844H123V1338ZM464 1338H619V844H464V1338Z"/><glyph unicode="#" horiz-adv-x="1341" d="M428 949L508 1338H656L576 949H880L960 1338H1108L1028 949H1221V817H1001L940 521H1139V389H913L833 0H685L765 389H461L381 0H233L313 389H120V521H340L401 817H202V949H428ZM488 521H792L853 817H549L488 521Z"/><glyph unicode="$" horiz-adv-x="1050" d="M455 25Q408 25 361 29T271 40T196 56T142 75V213Q174 201 218 189T324 169T448 160H455V446Q396 456 340 471T239 515T167 590T140 707Q140 766 163 814T228 897T328 954T455 983V1087H587V986Q669 982 738 970T865 939V800Q802 819 735 833T587 851V568Q647 557 705 542T810 498T885 424T914 307Q914 250 891 204T825 123T722 66T587 33V-75H455V25ZM757 306Q757 335 745 354T711 388T657 411T587 428V169Q622 175 653 185T707 211T743 251T757 306ZM297 713Q297 660 335 632T455 588V847Q297 827 297 713Z"/><glyph unicode="%" horiz-adv-x="1648" d="M1305 852Q1368 852 1420 826T1510 745T1567 610T1588 418Q1588 308 1568 227T1510 91T1421 10T1305 -17Q1242 -17 1190 10T1100 91T1043 226T1022 418Q1022 528 1042 609T1100 745T1189 825T1305 852ZM1305 104Q1374 104 1410 181T1446 418Q1446 577 1410 654T1305 731Q1236 731 1200 654T1164 418Q1164 259 1200 182T1305 104ZM1263 1363L1364 1285L387 -25L286 53L1263 1363ZM343 1363Q406 1363 458 1337T548 1256T605 1121T626 929Q626 819 606 738T548 602T459 521T343 494Q280 494 228 521T138 602T81 737T60 929Q60 1039 80 1120T138 1256T227 1336T343 1363ZM343 615Q412 615 448 692T484 929Q484 1088 448 1165T343 1242Q274 1242 238 1165T202 929Q202 770 238 693T343 615Z"/><glyph unicode="&amp;" horiz-adv-x="1371" d="M1229 696Q1227 551 1180 433T1053 224Q1096 180 1133 141T1200 72T1247 24T1271 0H1074Q1070 4 1036 38T949 127Q852 53 740 14T513 -25Q403 -25 325 5T196 84T123 195T100 323Q100 401 122 460T183 564T272 645T376 711Q336 749 301 787T239 866T197 952T182 1052Q182 1126 208 1183T284 1281T401 1342T552 1363Q628 1363 693 1344T807 1288T884 1195T912 1068Q912 993 886 937T817 835T719 755T605 687Q638 653 679 611T766 521T860 425T955 326Q1006 393 1036 484T1069 696H1229ZM513 107Q550 107 592 113T679 134T767 170T853 223Q805 272 754 325T652 429T555 528T472 613Q428 588 390 560T324 498T279 425T262 335Q262 291 277 250T323 177T401 126T513 107ZM344 1052Q344 1015 355 982T387 917T440 852T511 780Q559 805 602 832T679 891T731 963T750 1054Q750 1101 735 1134T693 1189T629 1221T546 1231Q452 1231 398 1185T344 1052Z"/><glyph unicode="'" horiz-adv-x="401" d="M123 1338H278V844H123V1338Z"/><glyph unicode="(" horiz-adv-x="614" d="M265 519Q265 385 288 271T349 62T437 -109T542 -245L457 -325Q429 -301 392 -261T317 -164T241 -36T175 121T128 307T110 519Q110 632 128 731T175 916T241 1073T316 1201T392 1298T457 1363L542 1283Q488 1224 438 1148T349 976T288 767T265 519Z"/><glyph unicode=")" horiz-adv-x="614" d="M349 519Q349 653 326 767T265 976T177 1147T72 1283L157 1363Q185 1339 222 1299T297 1202T373 1074T439 917T486 732T504 519Q504 407 486 307T439 122T373 -35T298 -163T222 -260T157 -325L72 -245Q126 -186 176 -110T265 62T326 271T349 519Z"/><glyph unicode="*" horiz-adv-x="1101" d="M553 849H548L466 650L354 496L237 581L349 735L503 882L501 887L295 908L120 965L165 1103L340 1046L518 942L522 946L478 1148V1338H623V1148L579 946L583 942L761 1046L936 1103L981 965L806 908L600 887L598 882L752 735L864 581L747 496L635 650L553 849Z"/><glyph unicode="+" horiz-adv-x="1050" d="M115 587H455V950H595V587H935V455H595V92H455V455H115V587Z"/><glyph unicode="," horiz-adv-x="540" d="M187 218H360L171 -390H20L187 218Z"/><glyph unicode="-" horiz-adv-x="681" d="M120 571H561V426H120V571Z"/><glyph unicode="." horiz-adv-x="541" d="M175 0V195H366V0H175Z"/><glyph unicode="/" horiz-adv-x="563" d="M18 -249L398 1338H546L166 -249H18Z"/><glyph unicode="0" horiz-adv-x="1052" d="M800 474Q800 560 781 628T726 744T640 817T526 843Q463 843 413 818T326 745T271 629T252 474Q252 389 271 321T326 205T413 133T527 107Q590 107 640 132T726 205T781 320T800 474ZM962 474Q962 368 933 277T847 118T711 13T527 -25Q421 -25 340 13T203 118T119 276T90 474Q90 581 119 672T205 831T342 937T526 975Q631 975 712 937T849 832T933 673T962 474Z"/><glyph unicode="1" horiz-adv-x="918" d="M451 143V785L90 672V816L472 950H606V143H868V0H132V143H451Z"/><glyph unicode="2" horiz-adv-x="1046" d="M408 137Q523 143 615 143H927V0H155V103Q270 188 367 261T534 402T645 534T685 663Q685 750 629 796T468 842Q390 841 317 819T165 761V893Q222 926 305 950T489 975Q568 975 633 955T746 897T820 802T846 671Q846 592 812 524T719 392T580 268T408 141V137Z"/><glyph unicode="3" horiz-adv-x="928" d="M558 308Q611 303 659 282T745 222T805 126T828 -8Q828 -100 797 -175T706 -303T558 -384T353 -413Q272 -413 199 -398T68 -354V-222Q140 -253 210 -266T342 -280Q434 -280 496 -258T595 -198T649 -113T666 -11Q666 119 583 176T343 234H237V367H299Q385 367 446 386T548 440T606 521T625 622Q625 679 605 720T549 789T465 829T362 842Q294 842 225 826T89 783V915Q171 949 245 962T377 975Q474 975 550 949T678 876T759 765T787 624Q787 573 775 525T736 436T665 363T558 312V308Z"/><glyph unicode="4" horiz-adv-x="1058" d="M269 133V129L417 133H636V437H791V133H988V0H791V-387H636V0H92V114L486 950H653L269 133Z"/><glyph unicode="5" horiz-adv-x="983" d="M878 13Q878 -79 845 -157T748 -292T593 -381T386 -413Q310 -413 241 -399T117 -354V-222Q191 -255 257 -266T379 -278Q464 -278 527 -256T632 -194T695 -104T716 5Q716 74 695 124T627 208T509 258T335 275Q263 275 161 265L256 950H877V807H393L337 410Q372 412 393 412Q510 412 600 385T752 307T846 182T878 13Z"/><glyph unicode="6" horiz-adv-x="1074" d="M564 806Q653 806 728 781T858 705T943 582T974 412Q974 316 946 236T863 98T731 8T554 -25Q449 -25 367 17T227 137T140 326T110 575Q110 681 126 780T175 967T255 1127T366 1252T507 1334T677 1363Q753 1362 808 1348T900 1316V1186Q860 1202 804 1215T688 1228Q616 1228 549 1199T426 1108T333 952T279 727H283Q346 763 420 784T564 806ZM560 107Q613 107 659 126T739 182T792 273T812 398Q812 473 792 524T736 608T653 654T551 668Q480 668 406 643T272 582Q271 462 292 373T352 224T443 136T560 107Z"/><glyph unicode="7" horiz-adv-x="876" d="M39 807V950H823V846L272 -387H110L644 807H39Z"/><glyph unicode="8" horiz-adv-x="1054" d="M527 -25Q430 -25 351 3T214 82T126 200T95 349Q95 423 116 480T172 579T255 648T356 689V693Q306 710 264 739T190 808T141 900T123 1014Q123 1099 157 1164T247 1273T376 1340T527 1363Q605 1363 677 1341T806 1274T897 1164T931 1014Q931 952 912 901T859 809T782 739T688 693V689Q741 676 790 649T876 579T936 480T959 349Q959 269 928 201T840 82T704 4T527 -25ZM527 1231Q475 1231 431 1217T354 1174T303 1104T285 1009Q285 907 348 843T527 756Q642 779 705 843T769 1009Q769 1063 751 1104T701 1173T624 1216T527 1231ZM527 619Q471 613 422 595T336 544T278 464T257 354Q257 297 277 251T334 173T419 124T527 107Q586 107 635 124T721 173T777 251T797 354Q797 417 776 464T718 543T632 594T527 619Z"/><glyph unicode="9" horiz-adv-x="1074" d="M384 -413Q308 -413 243 -398T127 -355V-222Q177 -248 240 -263T371 -278Q463 -278 537 -250T667 -162T755 -6T799 223H795Q767 206 732 192T657 167T576 150T494 144Q412 144 341 169T216 244T131 368T100 539Q100 631 127 711T207 849T337 941T514 975Q623 975 707 934T848 812T934 613T964 342Q964 239 950 144T907 -36T832 -189T721 -308T573 -385T384 -413ZM516 282Q592 282 667 305T802 365Q801 491 780 581T720 730T629 815T510 843Q456 843 411 824T332 768T281 677T262 554Q262 480 280 429T331 345T411 297T516 282Z"/><glyph unicode=":" horiz-adv-x="541" d="M175 0V195H366V0H175ZM366 807V612H175V807H366Z"/><glyph unicode=";" horiz-adv-x="546" d="M187 218H360L171 -390H20L187 218ZM366 807V612H175V807H366Z"/><glyph unicode="&lt;" horiz-adv-x="1050" d="M935 207V55L115 468V594L935 1007V855L283 533V529L935 207Z"/><glyph unicode="=" horiz-adv-x="1050" d="M115 639V771H935V639H115ZM115 273V405H935V273H115Z"/><glyph unicode="&gt;" horiz-adv-x="1050" d="M777 529V533L115 857V1007L935 599V463L115 55V205L777 529Z"/><glyph unicode="?" horiz-adv-x="873" d="M223 0V195H414V0H223ZM772 1049Q772 989 754 942T705 857T637 789T561 728Q528 702 497 674T441 613T403 539T388 447V431H251Q249 460 249 475Q249 543 269 598T323 695T398 769T478 831Q505 852 529 874T571 921T600 975T611 1042Q611 1086 593 1121T541 1180T461 1217T357 1230Q282 1230 210 1211T80 1166V1298Q134 1327 210 1345T364 1363Q459 1363 534 1341T662 1277T743 1178T772 1049Z"/><glyph unicode="@" horiz-adv-x="2070" d="M1260 417Q1239 423 1217 429T1169 440T1114 448T1048 452Q949 452 893 410T837 281Q837 242 850 214T885 166T938 137T1004 127Q1042 127 1078 137T1147 163T1208 202T1260 247V417ZM1268 125Q1247 101 1219 78T1155 36T1075 6T979 -5Q913 -5 858 15T762 72T700 162T677 281Q677 352 702 408T774 503T884 563T1027 584Q1103 584 1156 571T1256 541H1260V597Q1260 650 1248 693T1208 766T1135 813T1021 830Q949 830 886 817T759 779V909Q784 921 816 931T884 949T960 961T1040 965Q1136 965 1206 940T1323 870T1392 761T1415 619V228Q1415 176 1431 152T1492 127Q1547 127 1593 162T1672 257T1723 397T1742 567Q1742 729 1688 852T1540 1059T1321 1185T1053 1228Q926 1228 824 1199T641 1119T504 995T409 838T354 656T336 459Q336 297 382 162T522 -72T754 -226T1078 -281Q1165 -281 1244 -273T1392 -250T1518 -219T1620 -182V-317Q1575 -335 1515 -352T1382 -383T1230 -405T1065 -413Q944 -413 832 -389T621 -316T441 -195T302 -27T212 188T180 450Q180 657 242 826T418 1114T693 1298T1054 1363Q1237 1363 1390 1307T1655 1147T1828 899T1890 578Q1890 443 1858 335T1768 152T1633 36T1464 -5Q1421 -5 1389 5T1333 32T1295 73T1272 125H1268Z"/><glyph unicode="A" horiz-adv-x="1301" d="M35 0L580 1338H721L1266 0H1089L929 403H370L210 0H35ZM649 1130Q560 880 478 676L428 550H871L821 676Q739 884 653 1130H649Z"/><glyph unicode="B" horiz-adv-x="1215" d="M830 692Q892 683 941 659T1026 598T1081 509T1100 391Q1100 344 1086 293T1040 193T955 103T824 36Q764 16 691 8T516 0H170V1338H504Q550 1338 587 1337T656 1332T715 1325T766 1314Q829 1297 880 1268T968 1197T1023 1104T1043 991Q1043 942 1032 897T995 814T929 746T830 696V692ZM581 759Q629 759 664 763T727 777Q802 802 836 855T871 980Q871 1054 835 1101T722 1171Q684 1182 634 1186T516 1191H333V759H581ZM333 612V147H530Q600 147 660 153T762 174Q808 189 840 212T891 264T919 325T928 390Q928 428 919 461T890 521T836 568T752 599Q722 606 684 609T588 612H333Z"/><glyph unicode="C" horiz-adv-x="1207" d="M820 1218Q709 1218 613 1183T445 1077T333 902T292 658Q292 520 330 419T438 251T606 152T826 120Q859 120 896 123T970 133T1043 148T1107 167V23Q1048 0 970 -12T810 -25Q643 -25 514 21T298 155T165 367T120 652Q120 808 167 939T304 1164T521 1310T808 1363Q850 1363 891 1360T969 1350T1039 1334T1094 1315V1171Q1034 1191 963 1204T820 1218Z"/><glyph unicode="D" horiz-adv-x="1374" d="M1254 675Q1254 558 1225 455T1138 270T992 127T787 34Q720 15 642 8T473 0H170V1338H476Q567 1338 645 1331T790 1304Q907 1271 994 1212T1139 1073T1225 892T1254 675ZM1082 675Q1082 868 998 988T757 1158Q697 1177 623 1184T456 1191H333V147H456Q549 147 623 154T757 180Q914 230 998 355T1082 675Z"/><glyph unicode="E" horiz-adv-x="1129" d="M333 147H1019V0H170V1338H982V1191H333V759H910V612H333V147Z"/><glyph unicode="F" horiz-adv-x="1033" d="M333 0H170V1338H968V1191H333V759H896V612H333V0Z"/><glyph unicode="G" horiz-adv-x="1368" d="M1045 541H740V688H1208V41Q1187 30 1147 19T1054 -3T943 -19T825 -25Q653 -25 522 22T301 155T166 364T120 638Q120 802 173 936T324 1165T557 1311T856 1363Q900 1363 944 1360T1028 1350T1102 1334T1159 1315V1171Q1099 1191 1021 1204T865 1218Q751 1218 648 1184T465 1079T339 904T292 656Q292 517 330 416T439 249T610 152T834 120Q891 120 946 126T1045 143V541Z"/><glyph unicode="H" horiz-adv-x="1367" d="M333 759H1034V1338H1197V0H1034V612H333V0H170V1338H333V759Z"/><glyph unicode="I" horiz-adv-x="503" d="M170 0V1338H333V0H170Z"/><glyph unicode="J" horiz-adv-x="767" d="M439 1338H602V307Q602 224 577 162T506 59T394 -4T248 -25Q179 -24 132 -14T60 8V152Q97 137 140 129T234 120Q279 120 317 130T382 164T424 228T439 327V1338Z"/><glyph unicode="K" horiz-adv-x="1239" d="M170 0V1338H333V677H335L950 1338H1151L527 672L1199 0H987L335 655H333V0H170Z"/><glyph unicode="L" horiz-adv-x="1066" d="M333 1338V147H986V0H170V1338H333Z"/><glyph unicode="M" horiz-adv-x="1683" d="M879 0H804L467 799Q397 964 327 1158H319Q333 879 333 647V0H170V1338H405L720 581Q774 451 839 268H844Q916 471 963 581L1278 1338H1513V0H1350V647Q1350 874 1364 1158H1356Q1282 953 1216 799L879 0Z"/><glyph unicode="N" horiz-adv-x="1426" d="M857 592Q980 415 1100 228H1106Q1093 423 1093 626V1338H1256V0H1094L569 746Q433 941 326 1110H320Q333 927 333 683V0H170V1338H332L857 592Z"/><glyph unicode="O" horiz-adv-x="1496" d="M1204 668Q1204 803 1169 906T1073 1078T928 1182T748 1218Q652 1218 569 1183T424 1078T327 906T292 668Q292 533 327 431T424 259T569 155T750 120Q846 120 928 155T1072 259T1169 430T1204 668ZM1376 668Q1376 516 1332 389T1206 170T1009 27T750 -25Q602 -25 485 26T287 170T163 389T120 668Q120 821 164 948T290 1168T488 1311T748 1363Q895 1363 1011 1312T1209 1168T1333 949T1376 668Z"/><glyph unicode="P" horiz-adv-x="1168" d="M333 0H170V1338H541Q624 1338 694 1328T824 1297Q944 1254 1006 1169T1068 958Q1068 856 1028 779T910 649T723 571T472 544Q405 544 333 550V0ZM333 699Q366 695 402 693T470 691Q585 691 666 709T798 761T872 845T895 958Q895 1036 858 1086T751 1162Q708 1178 652 1184T522 1191H333V699Z"/><glyph unicode="Q" horiz-adv-x="1514" d="M1204 668Q1204 803 1169 906T1073 1078T928 1182T748 1218Q652 1218 569 1183T424 1078T327 906T292 668Q292 533 327 431T424 259T569 155T750 120Q846 120 928 155T1072 259T1169 430T1204 668ZM1376 682Q1376 586 1356 500T1299 342T1211 212T1097 116V112Q1180 125 1254 132T1404 137V-10Q1357 -7 1302 -4T1175 0Q1121 0 1066 -3T957 -10T851 -17T752 -20Q603 -20 486 30T287 170T163 388T120 668Q120 821 164 948T290 1168T488 1311T748 1363Q895 1363 1011 1312T1209 1169T1333 953T1376 682Z"/><glyph unicode="R" horiz-adv-x="1212" d="M333 554V0H170V1338H517Q605 1338 666 1332T779 1311Q919 1273 993 1182T1067 953Q1067 872 1041 808T968 697T856 620T710 576V572L1147 0H942L530 554H333ZM333 1191V701H494Q569 701 622 706T717 724Q802 750 848 807T894 956Q893 1042 850 1094T731 1170Q695 1181 645 1186T518 1191H333Z"/><glyph unicode="S" horiz-adv-x="1130" d="M294 984Q294 925 318 887T382 823T476 782T588 752Q666 733 741 710T876 647T971 541T1008 374Q1008 270 970 195T863 71T699 -1T491 -25Q439 -25 385 -19T281 -1T191 24T128 52V201Q164 183 209 168T302 143T399 126T491 120Q561 120 624 132T736 172T812 248T840 370Q840 430 816 469T750 533T656 575T543 605Q465 623 391 645T258 708T164 811T128 972Q128 1074 164 1147T262 1269T407 1340T584 1363Q691 1363 783 1343T953 1289V1138Q870 1173 782 1195T592 1218Q516 1218 460 1202T367 1155T312 1081T294 984Z"/><glyph unicode="T" horiz-adv-x="1137" d="M650 0H487V1191H40V1338H1097V1191H650V0Z"/><glyph unicode="U" horiz-adv-x="1374" d="M687 120Q760 120 816 137T915 185T985 259T1028 356Q1038 389 1042 429T1046 508V1338H1209V512Q1209 465 1204 414T1188 319Q1169 245 1131 182T1032 73T886 1T685 -25Q575 -25 492 -1T350 65T252 166T193 294Q178 344 172 401T165 512V1338H328V508Q328 463 334 416T355 329Q390 232 471 176T687 120Z"/><glyph unicode="V" horiz-adv-x="1243" d="M624 208Q696 427 779 650L1034 1338H1203L693 0H550L40 1338H209L464 650Q548 427 620 208H624Z"/><glyph unicode="W" horiz-adv-x="1806" d="M901 1117Q885 1025 826 795L618 0H452L40 1338H211L437 553Q491 364 529 213H533Q553 306 576 394T618 551L822 1338H984L1188 551Q1263 267 1273 213H1277Q1311 353 1369 553L1595 1338H1766L1354 0H1188L980 795Q923 1017 905 1117H901Z"/><glyph unicode="X" horiz-adv-x="1196" d="M604 796L974 1338H1155L701 679L1176 0H993L601 567H597L205 0H20L499 683L49 1338H228L600 796H604Z"/><glyph unicode="Y" horiz-adv-x="1217" d="M690 538V0H527V538L40 1338H218L606 688H611L999 1338H1177L690 538Z"/><glyph unicode="Z" horiz-adv-x="1199" d="M1090 1338V1236L314 147H1099V0H100V102L878 1191H118V1338H1090Z"/><glyph unicode="[" horiz-adv-x="646" d="M160 1338H586V1215H305V-177H586V-300H160V1338Z"/><glyph unicode="\" horiz-adv-x="563" d="M373 -249L-7 1338H141L521 -249H373Z"/><glyph unicode="]" horiz-adv-x="646" d="M486 -300H60V-177H341V1215H60V1338H486V-300Z"/><glyph unicode="^" horiz-adv-x="1050" d="M199 543H49L457 1363H593L1001 543H851L527 1205H523L199 543Z"/><glyph unicode="_" horiz-adv-x="1000" d="M0 -142H1000V-275H0V-142Z"/><glyph unicode="`" horiz-adv-x="700" d="M376 1473L499 1124H369L208 1473H376Z"/><glyph unicode="a" horiz-adv-x="1003" d="M706 105H702Q683 81 654 58T587 16T504 -14T408 -25Q339 -25 282 -5T183 55T118 152T95 281Q95 352 120 408T192 503T302 563T445 584Q519 583 582 571T694 541H698V607Q698 646 693 676T676 729Q650 777 593 808T439 840Q367 840 304 827T177 789V919Q201 931 233 941T302 959T378 971T458 975Q602 975 693 924T825 789Q840 757 846 719T853 634V0H723L706 105ZM698 417Q655 429 596 440T466 452Q367 452 311 410T255 281Q255 237 269 204T307 150T365 118T437 107Q487 107 530 121T606 156T663 196T698 227V417Z"/><glyph unicode="b" horiz-adv-x="1097" d="M840 479Q840 592 814 662T746 772T657 827T563 842Q491 842 428 812T315 734V237Q329 218 351 196T405 154T474 121T559 107Q628 107 680 134T768 210T822 328T840 479ZM1002 491Q1002 358 966 261T871 101T736 6T579 -25Q518 -25 472 -10T393 27T341 71T313 106H310L277 0H160V1448H315V861H318Q369 915 437 945T592 975Q632 975 678 966T770 935T858 877T932 788T983 661T1002 491Z"/><glyph unicode="c" horiz-adv-x="898" d="M558 975Q627 975 690 961T798 920V791Q735 815 682 827T574 839Q516 839 459 820T357 758T285 643T257 465Q257 388 277 323T338 211T440 137T581 110Q639 110 698 122T813 158V29Q796 19 769 9T708 -8T638 -20T564 -25Q468 -25 383 4T233 93T132 245T95 463Q95 557 114 632T168 764T247 861T344 926T451 963T558 975Z"/><glyph unicode="d" horiz-adv-x="1097" d="M257 465Q257 383 275 317T329 204T415 132T532 107Q581 107 621 120T692 153T746 195T782 237V734Q734 783 671 812T535 842Q491 842 443 826T353 766T284 651T257 465ZM95 463Q95 562 114 638T166 772T241 867T330 930T423 964T513 975Q600 975 664 946T779 861H782V1448H937V0H820L788 106H784Q766 83 742 60T686 17T611 -13T512 -25Q434 -25 359 1T226 86T131 237T95 463Z"/><glyph unicode="e" horiz-adv-x="1019" d="M522 842Q469 842 424 821T344 764T289 680T263 576H743Q743 632 729 680T686 765T617 821T522 842ZM607 110Q684 110 747 122T874 158V29Q823 4 748 -10T587 -25Q485 -25 396 1T239 85T134 236T95 462Q95 592 131 687T227 847T365 943T528 975Q608 975 677 949T798 865T878 718T908 502Q908 490 908 482T907 443H255Q255 352 282 289T357 186T469 128T607 110Z"/><glyph unicode="f" horiz-adv-x="651" d="M701 1326Q671 1332 635 1335T573 1338Q521 1338 480 1325T410 1284T367 1209T352 1096V950H635V817H352V0H197V817H30V950H197V1095Q197 1198 224 1268T300 1384T413 1451T553 1473Q601 1473 641 1468T701 1457V1326Z"/><glyph unicode="g" horiz-adv-x="1087" d="M257 469Q257 357 284 286T352 176T443 122T536 107Q608 107 671 136T782 215V712Q769 730 746 753T693 795T623 828T538 842Q469 842 417 815T329 738T275 621T257 469ZM518 975Q580 974 626 959T705 922T757 877T784 842H788L820 950H937V-56Q937 -166 901 -247T800 -383T644 -463T441 -490Q347 -490 273 -474T157 -434V-303Q191 -317 223 -326T289 -342T358 -352T437 -355Q604 -355 693 -277T782 -39V88H779Q728 32 661 4T506 -25Q466 -25 420 -16T328 14T240 71T166 160T115 287T95 456Q95 589 131 686T226 848T361 943T518 975Z"/><glyph unicode="h" horiz-adv-x="1090" d="M315 820H318Q344 853 376 881T447 930T531 963T628 975Q682 975 736 961T836 909T911 806T940 636V0H785V611Q785 726 742 784T599 842Q517 842 443 798T315 675V0H160V1448H315V820Z"/><glyph unicode="i" horiz-adv-x="475" d="M160 0V950H315V0H160ZM156 1171V1344H319V1171H156Z"/><glyph unicode="j" horiz-adv-x="494" d="M334 -212Q334 -343 259 -416T21 -490Q-22 -490 -61 -484T-120 -470V-338Q-90 -346 -60 -350T2 -355Q97 -355 138 -316T179 -194V950H334V-212ZM175 1171V1344H338V1171H175Z"/><glyph unicode="k" horiz-adv-x="997" d="M765 950H967L503 513L966 0H773L317 506H315V0H160V1448H315V526H317L765 950Z"/><glyph unicode="l" horiz-adv-x="475" d="M160 0V1448H315V0H160Z"/><glyph unicode="m" horiz-adv-x="1697" d="M926 0H771V611Q771 673 758 716T719 788T658 829T578 842Q495 842 427 798T305 675V0H150V950H270L300 818H303Q329 851 359 879T427 929T510 963T608 975Q714 975 784 924T892 785H896Q959 874 1040 924T1229 975Q1279 975 1335 961T1438 910T1516 806T1547 636V0H1393V611Q1393 673 1380 716T1341 788T1280 829T1200 842Q1117 842 1049 798T926 675V0Z"/><glyph unicode="n" horiz-adv-x="1080" d="M300 818H303Q329 851 360 879T431 929T516 963T618 975Q683 975 740 957T839 899T905 795T930 636V0H775V611Q775 734 728 788T589 842Q509 842 434 798T305 675V0H150V950H270L300 818Z"/><glyph unicode="o" horiz-adv-x="1092" d="M835 474Q835 562 814 630T754 746T662 818T546 843Q483 843 430 819T339 747T279 631T257 474Q257 387 278 319T339 203T431 132T547 107Q610 107 662 131T753 203T813 318T835 474ZM997 474Q997 362 965 270T875 113T733 11T547 -25Q441 -25 358 11T216 112T126 270T95 474Q95 587 127 679T217 837T359 939T546 975Q651 975 735 939T877 837T966 679T997 474Z"/><glyph unicode="p" horiz-adv-x="1087" d="M830 484Q830 567 813 633T760 745T674 817T556 842Q508 842 469 829T397 796T342 753T305 712V215Q354 165 416 136T551 107Q595 107 644 123T734 182T803 298T830 484ZM992 486Q992 387 973 311T921 177T846 82T757 20T664 -14T574 -25Q487 -25 423 3T308 88H305V-465H150V950H267L300 842H303Q316 862 336 881T391 921T474 959T580 975Q660 975 734 948T866 862T957 711T992 486Z"/><glyph unicode="q" horiz-adv-x="1072" d="M252 469Q252 357 279 286T347 176T438 122T531 107Q603 107 666 136T777 215V712Q764 730 741 753T688 795T618 828T533 842Q464 842 412 815T324 738T270 621T252 469ZM90 456Q90 589 126 686T221 848T356 943T513 975Q575 974 621 959T699 923T749 881T779 842H783L815 950H932V-465H777V88H774Q723 32 656 4T501 -25Q461 -25 415 -16T323 14T235 71T161 160T110 287T90 456Z"/><glyph unicode="r" horiz-adv-x="686" d="M671 824H659Q604 824 551 814T452 784T368 733T305 662V0H150V950H270L300 799H303Q326 836 359 868T435 924T527 961T632 975Q642 975 652 975T671 973V824Z"/><glyph unicode="s" horiz-adv-x="828" d="M250 697Q250 658 267 633T312 593T378 567T456 549Q511 537 560 523T650 479T717 401T743 272Q743 200 715 145T636 52T514 -5T358 -25Q306 -25 264 -20T189 -6T133 12T95 29V159Q155 135 214 121T344 107Q400 107 445 117T522 146T572 195T590 264Q590 304 574 330T531 373T469 401T394 421Q343 432 291 447T195 489T126 562T99 682Q99 757 126 812T199 903T306 957T435 975Q514 975 581 960T704 922V790Q644 813 583 827T456 843Q401 843 362 832T298 802T262 756T250 697Z"/><glyph unicode="t" horiz-adv-x="711" d="M651 -2Q631 -10 590 -17T492 -25Q417 -25 362 -7T271 46T216 130T198 239V817H15V950H198V1210H353V950H637V817H353V263Q353 230 362 202T392 154T445 122T522 110Q553 110 587 115T651 128V-2Z"/><glyph unicode="u" horiz-adv-x="1060" d="M527 -25Q453 -25 394 -9T291 36T215 105T166 194Q152 230 146 273T140 367V950H295V368Q295 289 316 236Q340 176 393 142T530 107Q618 107 671 145T748 247Q765 296 765 368V950H920V366Q920 318 915 277T897 200Q879 151 848 110T770 38T664 -8T527 -25Z"/><glyph unicode="v" horiz-adv-x="946" d="M474 157Q508 261 566 422L754 950H916L554 0H392L30 950H190L378 422Q434 266 470 157H474Z"/><glyph unicode="w" horiz-adv-x="1458" d="M726 793Q695 662 668 567L512 0H353L40 950H197L373 358Q408 241 426 171H430Q446 243 483 379L642 950H816L975 379Q1007 263 1028 171H1032Q1056 263 1085 358L1261 950H1418L1105 0H944L788 567Q760 668 730 793H726Z"/><glyph unicode="x" horiz-adv-x="932" d="M470 584L728 950H899L552 480L912 0H744L466 380H462L188 0H20L380 484L33 950H204L466 584H470Z"/><glyph unicode="y" horiz-adv-x="982" d="M30 950H189L484 205H490L789 950H952L359 -465H205L408 19L30 950Z"/><glyph unicode="z" horiz-adv-x="910" d="M608 813V817H86V950H805V852L277 137V133H840V0H70V84L608 813Z"/><glyph unicode="{" horiz-adv-x="615" d="M120 580Q150 580 181 583T236 600T277 641T293 715Q293 769 275 814T233 902Q210 943 192 986T174 1081Q174 1118 188 1163T240 1247T348 1312T526 1338H560V1215H548Q438 1215 384 1179T330 1078Q330 1035 344 999T379 925Q400 887 415 843T431 739Q431 685 415 645T377 579T332 539T294 521V517Q308 514 331 500T377 459T415 393T431 299Q431 243 418 203T386 127Q365 87 348 47T330 -40Q330 -105 384 -141T548 -177H560V-300H526Q417 -300 348 -274T241 -209T188 -126T174 -45Q174 -13 180 13T196 63T218 109T243 155Q264 192 278 233T293 323Q293 370 277 397T237 437T181 454T120 458V580Z"/><glyph unicode="|" horiz-adv-x="465" d="M305 -465H160V1448H305V-465Z"/><glyph unicode="}" horiz-adv-x="615" d="M495 458Q465 458 434 455T379 438T338 397T322 323Q322 274 336 233T372 155Q385 132 397 110T419 64T435 14T441 -45Q441 -81 427 -125T375 -209T267 -274T89 -300H55V-177H67Q176 -177 230 -141T285 -40Q285 7 268 47T229 127Q211 162 198 202T184 299Q184 353 200 393T238 459T283 499T321 517V521Q307 524 284 538T238 579T200 645T184 739Q184 798 199 842T236 925Q256 962 270 998T285 1078Q285 1143 231 1179T67 1215H55V1338H89Q198 1338 267 1312T374 1247T427 1163T441 1081Q441 1029 423 986T382 902Q358 860 340 815T322 715Q322 668 338 641T378 601T434 584T495 580V458Z"/><glyph unicode="~" horiz-adv-x="1050" d="M939 491Q924 458 900 431T846 383T778 351T699 339Q656 339 612 351T527 381Q477 401 432 419T343 437Q293 437 260 413T201 346L99 419Q114 452 138 479T192 527T260 559T339 571Q388 571 438 555T534 520Q577 502 618 488T695 473Q744 473 778 497T837 564L939 491Z"/><glyph unicode=" " horiz-adv-x="410"/><glyph unicode="¡" horiz-adv-x="541" d="M366 950V755H175V950H366ZM336 519L360 -388H181L205 519H336Z"/><glyph unicode="¢" horiz-adv-x="1050" d="M562 128Q366 150 260 265T154 597Q154 703 182 788T264 937T392 1039T562 1091V1254H694V1097Q752 1095 805 1085T891 1060V925Q847 939 797 949T694 962V261Q744 262 801 271T901 296V160Q860 145 806 135T694 123V-25H562V128ZM311 601Q311 522 328 465T377 367T456 304T562 270V951Q507 938 461 911T381 841T330 739T311 601Z"/><glyph unicode="£" horiz-adv-x="1050" d="M198 612H326L338 703Q349 794 375 860T445 973T551 1045T696 1070Q729 1070 761 1067T823 1057T878 1041T923 1022V888Q877 908 820 921T706 935Q652 935 615 920T554 873T515 791T492 669L485 612H803V475H468L427 143H956V0H119V143H268L309 475H198V612Z"/><glyph unicode="¤" horiz-adv-x="1050" d="M319 959Q363 990 415 1007T525 1025Q583 1025 635 1008T731 960L869 1098L954 1013L816 875Q847 831 864 779T881 669Q881 611 864 559T815 463L955 324L870 239L730 378Q686 347 634 331T525 314Q467 314 416 331T320 379L180 239L95 324L235 464Q204 508 187 559T170 669Q170 726 186 778T234 874L96 1013L181 1098L319 959ZM307 669Q307 622 323 581T369 510T438 463T525 445Q572 445 612 462T682 510T727 581T744 669Q744 716 728 757T682 828T613 876T525 894Q478 894 438 877T369 829T324 757T307 669Z"/><glyph unicode="¥" horiz-adv-x="1050" d="M527 546L799 1045H967L664 512H865V379H603V237H865V104H603V-26H446V104H184V237H446V379H184V512H384L82 1045H250L522 546H527Z"/><glyph unicode="¦" horiz-adv-x="465" d="M305 720H160V1448H305V720ZM305 -465H160V231H305V-465Z"/><glyph unicode="§" horiz-adv-x="873" d="M249 1101Q235 1051 229 1005T222 914Q222 844 236 779T273 652T326 532T390 416Q431 345 472 276T546 137T595 1T613 -130Q613 -138 612 -151H624Q638 -105 644 -57T651 36Q651 105 638 169T602 294T549 413T487 527Q445 599 404 669T329 810T278 947T260 1077Q260 1089 261 1101H249ZM361 1086Q361 1041 383 990T439 880T517 756T602 619Q635 562 665 500T719 372T756 233T770 82Q770 -64 734 -160T639 -312T507 -390T359 -413Q279 -413 217 -398T100 -360V-228Q159 -251 219 -266T342 -281Q425 -281 468 -246T512 -136Q512 -89 489 -36T430 76T350 203T262 346Q230 402 201 462T151 587T116 723T103 868Q103 1014 140 1110T235 1262T364 1340T504 1363Q583 1363 650 1348T773 1310V1178Q713 1201 652 1216T525 1231Q440 1231 401 1192T361 1086Z"/><glyph unicode="¨" horiz-adv-x="700" d="M80 1171V1338H239V1171H80ZM461 1171V1338H620V1171H461Z"/><glyph unicode="©" horiz-adv-x="1686" d="M150 669Q150 819 202 946T348 1165T568 1310T843 1363Q991 1363 1118 1311T1338 1166T1483 946T1536 669Q1536 519 1484 392T1338 173T1118 28T843 -25Q695 -25 568 27T348 172T203 392T150 669ZM883 938Q828 938 781 921T698 870T644 784T624 663Q624 594 642 544T694 463T777 416T887 401Q923 401 968 408T1046 428V302Q1013 290 967 283T872 276Q784 276 712 301T589 375T509 495T481 660Q481 751 510 825T592 953T716 1035T872 1064Q920 1064 966 1057T1039 1036V911Q1005 923 965 930T883 938ZM282 669Q282 552 323 448T438 267T615 145T843 100Q968 100 1071 145T1248 267T1363 448T1404 669Q1404 786 1363 890T1248 1071T1071 1193T843 1238Q718 1238 615 1193T438 1071T323 890T282 669Z"/><glyph unicode="ª" horiz-adv-x="777" d="M531 596H527Q512 577 491 559T442 527T382 503T311 494Q260 494 217 509T143 554T93 625T75 719Q75 772 94 815T149 890T232 938T338 955Q390 955 437 947T521 926H525V976Q526 1043 482 1083T342 1123Q290 1123 238 1113T137 1084V1202Q176 1220 235 1232T358 1244Q504 1244 585 1177T667 985V513H542L531 596ZM525 810Q490 820 446 827T356 834Q327 834 302 828T258 807T228 770T217 718Q217 670 249 643T332 615Q389 615 437 638T525 697V810Z"/><glyph unicode="«" horiz-adv-x="997" d="M110 474L403 850H554L295 474L554 98H403L110 474ZM507 474L772 850H917L692 474L917 98H772L507 474Z"/><glyph unicode="¬" horiz-adv-x="1050" d="M115 455V587H935V92H795V455H115Z"/><glyph unicode="­" horiz-adv-x="681" d="M120 571H561V426H120V571Z"/><glyph unicode="®" horiz-adv-x="1270" d="M150 879Q150 984 187 1072T290 1225T444 1326T635 1363Q737 1363 826 1327T980 1226T1082 1073T1120 879Q1120 774 1083 686T980 533T826 432T635 395Q533 395 444 431T290 532T188 685T150 879ZM255 879Q255 798 282 727T359 603T479 520T635 489Q721 489 791 519T911 602T988 726T1015 879Q1015 960 988 1031T911 1155T791 1238T635 1269Q549 1269 479 1239T359 1156T282 1032T255 879ZM706 835L842 634H728L607 824H556V634H457V1130H628Q667 1130 703 1123T768 1097T813 1051T830 980Q830 920 797 885T706 839V835ZM556 1045V909H611Q669 909 697 925T726 980Q726 1009 707 1027T637 1045H556Z"/><glyph unicode="¯" horiz-adv-x="700" d="M80 1300H620V1171H80V1300Z"/><glyph unicode="°" horiz-adv-x="836" d="M80 1027Q80 1099 106 1160T177 1267T284 1337T418 1363Q490 1363 551 1338T658 1267T730 1161T756 1027Q756 955 730 894T659 787T552 717T418 691Q346 691 285 716T178 787T106 893T80 1027ZM228 1027Q228 985 242 950T281 888T341 846T418 831Q460 831 495 846T555 887T595 949T609 1027Q609 1069 595 1105T556 1167T495 1209T418 1224Q376 1224 342 1209T282 1168T242 1105T228 1027Z"/><glyph unicode="±" horiz-adv-x="1050" d="M115 665H455V950H595V665H935V533H595V248H455V533H115V665ZM115 0V132H935V0H115Z"/><glyph unicode="²" horiz-adv-x="641" d="M50 602Q140 704 207 781T319 918T386 1028T408 1123Q408 1154 397 1176T367 1213T321 1235T264 1242Q213 1242 164 1228T63 1191V1312Q99 1331 156 1346T280 1363Q349 1363 399 1346T483 1299T533 1227T550 1136Q550 1081 533 1030T476 920T376 792T228 628V624Q306 630 361 630H581V513H50V602Z"/><glyph unicode="³" horiz-adv-x="606" d="M229 494Q181 494 128 503T40 531V650Q81 631 130 623T223 615Q272 615 308 625T366 655T399 700T409 756Q409 819 358 851T212 883H146V1000H197Q296 1000 342 1034T388 1132Q388 1162 376 1183T343 1217T295 1236T236 1242Q188 1242 142 1232T53 1205V1326Q88 1341 140 1352T248 1363Q314 1363 366 1347T455 1302T511 1233T530 1144Q530 1112 522 1082T498 1027T455 981T391 949V945Q422 941 451 928T502 891T537 832T551 748Q551 688 528 641T461 562T358 512T229 494Z"/><glyph unicode="´" horiz-adv-x="700" d="M506 1473L345 1124H215L338 1473H506Z"/><glyph unicode="µ" horiz-adv-x="1180" d="M846 144Q794 50 714 13T534 -25Q462 -25 404 1T314 72H310L314 -290L315 -465H160V950H315V361Q315 295 330 248T375 170T445 126T539 111Q605 111 658 132T748 195T806 302T826 454V950H981V312Q981 252 987 213T1005 152T1035 120T1079 111Q1085 111 1099 112T1125 117V-6Q1108 -10 1086 -12T1047 -15Q1001 -15 968 -4T911 28T873 78T850 144H846Z"/><glyph unicode="¶" horiz-adv-x="1184" d="M498 -387V321Q407 339 333 383T206 492T124 641T95 824Q95 938 133 1032T241 1195T407 1300T624 1338H1014V-387H859V1201H653V-387H498Z"/><glyph unicode="·" horiz-adv-x="541" d="M175 394V589H366V394H175Z"/><glyph unicode="¸" horiz-adv-x="700" d="M294 0H416L381 -126Q421 -132 454 -144T512 -177T549 -225T562 -291Q562 -343 539 -380T478 -442T389 -478T285 -490Q242 -490 208 -485T152 -471V-358Q172 -364 202 -369T271 -375Q300 -375 327 -372T376 -359T412 -333T426 -294Q426 -273 412 -259T373 -235T311 -222T229 -215L294 0Z"/><glyph unicode="¹" horiz-adv-x="631" d="M278 630V1213L55 1138V1265L291 1351H420V630H591V513H73V630H278Z"/><glyph unicode="º" horiz-adv-x="838" d="M621 869Q621 933 607 980T565 1059T501 1107T419 1123Q327 1123 272 1059T217 869Q217 805 231 758T273 679T337 631T420 615Q510 615 565 678T621 869ZM763 869Q763 786 738 717T666 599T558 522T420 494Q343 494 280 521T171 598T100 717T75 869Q75 952 100 1021T172 1139T281 1216T419 1244Q496 1244 559 1217T668 1140T738 1021T763 869Z"/><glyph unicode="»" horiz-adv-x="997" d="M594 98H443L702 474L443 850H594L887 474L594 98ZM225 98H80L305 474L80 850H225L490 474L225 98Z"/><glyph unicode="¼" horiz-adv-x="1670" d="M278 630V1213L55 1138V1265L291 1351H420V630H591V513H73V630H278ZM1185 310V306L1276 312H1382V504H1524V312H1620V195H1524V8H1382V195H1036V293L1266 833H1409L1185 310ZM1370 1363L1471 1285L494 -25L393 53L1370 1363Z"/><glyph unicode="½" horiz-adv-x="1776" d="M278 630V1213L55 1138V1265L291 1351H420V630H591V513H73V630H278ZM1370 1363L1471 1285L494 -25L393 53L1370 1363ZM1195 97Q1285 199 1352 276T1464 413T1531 523T1553 618Q1553 649 1542 671T1512 708T1466 730T1409 737Q1358 737 1309 723T1208 686V807Q1244 826 1301 841T1425 858Q1494 858 1544 841T1628 794T1678 722T1695 631Q1695 576 1678 525T1621 415T1521 287T1373 123V119Q1451 125 1506 125H1726V8H1195V97Z"/><glyph unicode="¾" horiz-adv-x="1592" d="M1107 310V306L1198 312H1304V504H1446V312H1542V195H1446V8H1304V195H958V293L1188 833H1331L1107 310ZM1275 1363L1376 1285L399 -25L298 53L1275 1363ZM229 494Q181 494 128 503T40 531V650Q81 631 130 623T223 615Q272 615 308 625T366 655T399 700T409 756Q409 819 358 851T212 883H146V1000H197Q296 1000 342 1034T388 1132Q388 1162 376 1183T343 1217T295 1236T236 1242Q188 1242 142 1232T53 1205V1326Q88 1341 140 1352T248 1363Q314 1363 366 1347T455 1302T511 1233T530 1144Q530 1112 522 1082T498 1027T455 981T391 949V945Q422 941 451 928T502 891T537 832T551 748Q551 688 528 641T461 562T358 512T229 494Z"/><glyph unicode="¿" horiz-adv-x="873" d="M650 950V755H459V950H650ZM101 -99Q101 -43 117 2T161 84T222 149T293 207Q329 235 363 264T425 328T469 406T485 503V519H622Q624 493 624 475Q624 401 603 346T546 250T470 177T387 113Q362 93 339 72T299 26T272 -27T262 -92Q262 -136 280 -171T332 -230T412 -267T516 -280Q593 -280 664 -261T793 -216V-348Q739 -377 663 -395T509 -413Q415 -413 339 -391T211 -327T130 -228T101 -99Z"/><glyph unicode="À" horiz-adv-x="1301" d="M35 0L580 1338H721L1266 0H1089L929 403H370L210 0H35ZM649 1130Q560 880 478 676L428 550H871L821 676Q739 884 653 1130H649ZM569 1656L715 1409H576L395 1656H569Z"/><glyph unicode="Á" horiz-adv-x="1301" d="M35 0L580 1338H721L1266 0H1089L929 403H370L210 0H35ZM649 1130Q560 880 478 676L428 550H871L821 676Q739 884 653 1130H649ZM911 1656L730 1409H591L737 1656H911Z"/><glyph unicode="Â" horiz-adv-x="1301" d="M35 0L580 1338H721L1266 0H1089L929 403H370L210 0H35ZM649 1130Q560 880 478 676L428 550H871L821 676Q739 884 653 1130H649ZM731 1656L947 1409H789L652 1560H648L512 1409H354L570 1656H731Z"/><glyph unicode="Ã" horiz-adv-x="1301" d="M35 0L580 1338H721L1266 0H1089L929 403H370L210 0H35ZM649 1130Q560 880 478 676L428 550H871L821 676Q739 884 653 1130H649ZM505 1641Q546 1641 585 1627T657 1595T719 1563T775 1548Q809 1548 822 1571T836 1633H961V1611Q961 1578 954 1545T927 1483T873 1438T791 1421Q750 1421 711 1435T639 1467T577 1499T521 1514Q487 1514 474 1491T460 1429H335V1443Q334 1478 341 1515T369 1580T423 1625T505 1641Z"/><glyph unicode="Ä" horiz-adv-x="1301" d="M35 0L580 1338H721L1266 0H1089L929 403H370L210 0H35ZM649 1130Q560 880 478 676L428 550H871L821 676Q739 884 653 1130H649ZM379 1448V1617H540V1448H379ZM762 1448V1617H923V1448H762Z"/><glyph unicode="Å" horiz-adv-x="1301" d="M35 0L580 1338H721L1266 0H1089L929 403H370L210 0H35ZM649 1130Q560 880 478 676L428 550H871L821 676Q739 884 653 1130H649ZM649 1376Q601 1376 559 1388T487 1425T438 1484T420 1563Q420 1607 438 1642T486 1701T559 1737T649 1750Q697 1750 739 1738T811 1701T860 1642T878 1563Q878 1519 860 1484T812 1425T739 1389T649 1376ZM649 1652Q604 1652 574 1630T543 1563Q543 1519 573 1497T649 1474Q694 1474 724 1496T755 1563Q755 1607 725 1629T649 1652Z"/><glyph unicode="Æ" horiz-adv-x="1814" d="M1120 147H1734V0H982L930 401H416L205 0H30L738 1338H1624V1191H986L1042 759H1562V612H1061L1120 147ZM493 550H911L831 1191H827L493 550Z"/><glyph unicode="Ç" horiz-adv-x="1207" d="M638 -11Q512 11 415 66T253 205T154 402T120 652Q120 808 167 939T304 1164T521 1310T808 1363Q850 1363 891 1360T969 1350T1039 1334T1094 1315V1171Q1034 1191 963 1204T820 1218Q709 1218 613 1183T445 1077T333 902T292 658Q292 520 330 419T438 251T606 152T826 120Q859 120 896 123T970 133T1043 148T1107 167V23Q1048 0 970 -12T810 -25Q796 -25 783 -25T756 -23L728 -126Q768 -132 801 -144T859 -177T896 -225T909 -291Q909 -343 886 -380T825 -442T736 -478T632 -490Q589 -490 555 -485T499 -471V-358Q511 -362 526 -365T558 -370T590 -374T618 -375Q647 -375 674 -372T724 -359T759 -334T773 -294Q773 -273 759 -259T720 -235T658 -222T576 -215L638 -11Z"/><glyph unicode="È" horiz-adv-x="1129" d="M333 147H1019V0H170V1338H982V1191H333V759H910V612H333V147ZM527 1656L673 1409H534L353 1656H527Z"/><glyph unicode="É" horiz-adv-x="1129" d="M333 147H1019V0H170V1338H982V1191H333V759H910V612H333V147ZM823 1656L642 1409H503L649 1656H823Z"/><glyph unicode="Ê" horiz-adv-x="1129" d="M333 147H1019V0H170V1338H982V1191H333V759H910V612H333V147ZM657 1656L873 1409H715L578 1560H574L438 1409H280L496 1656H657Z"/><glyph unicode="Ë" horiz-adv-x="1129" d="M333 147H1019V0H170V1338H982V1191H333V759H910V612H333V147ZM302 1448V1617H463V1448H302ZM685 1448V1617H846V1448H685Z"/><glyph unicode="Ì" horiz-adv-x="503" d="M170 0V1338H333V0H170ZM455 1656L601 1409H462L281 1656H455Z"/><glyph unicode="Í" horiz-adv-x="503" d="M170 0V1338H333V0H170ZM491 1656L310 1409H171L317 1656H491Z"/><glyph unicode="Î" horiz-adv-x="503" d="M170 0V1338H333V0H170ZM594 1656L810 1409H652L515 1560H511L375 1409H217L433 1656H594Z"/><glyph unicode="Ï" horiz-adv-x="503" d="M170 0V1338H333V0H170ZM241 1448V1617H402V1448H241ZM624 1448V1617H785V1448H624Z"/><glyph unicode="Ð" horiz-adv-x="1404" d="M60 759H200V1338H506Q597 1338 675 1331T820 1304Q937 1271 1024 1212T1169 1073T1255 892T1284 675Q1284 558 1255 455T1168 270T1022 127T817 34Q750 15 672 8T503 0H200V612H60V759ZM1112 675Q1112 868 1028 988T787 1158Q727 1177 653 1184T486 1191H363V759H707V612H363V147H486Q579 147 653 154T787 180Q944 230 1028 355T1112 675Z"/><glyph unicode="Ñ" horiz-adv-x="1426" d="M857 592Q980 415 1100 228H1106Q1093 423 1093 626V1338H1256V0H1094L569 746Q433 941 326 1110H320Q333 927 333 683V0H170V1338H332L857 592ZM580 1641Q621 1641 660 1627T732 1595T794 1563T850 1548Q884 1548 897 1571T911 1633H1036V1611Q1036 1578 1029 1545T1002 1483T948 1438T866 1421Q825 1421 786 1435T714 1467T652 1499T596 1514Q562 1514 549 1491T535 1429H410V1443Q409 1478 416 1515T444 1580T498 1625T580 1641Z"/><glyph unicode="Ò" horiz-adv-x="1496" d="M1204 668Q1204 803 1169 906T1073 1078T928 1182T748 1218Q652 1218 569 1183T424 1078T327 906T292 668Q292 533 327 431T424 259T569 155T750 120Q846 120 928 155T1072 259T1169 430T1204 668ZM1376 668Q1376 516 1332 389T1206 170T1009 27T750 -25Q602 -25 485 26T287 170T163 389T120 668Q120 821 164 948T290 1168T488 1311T748 1363Q895 1363 1011 1312T1209 1168T1333 949T1376 668ZM683 1656L829 1409H690L509 1656H683Z"/><glyph unicode="Ó" horiz-adv-x="1496" d="M1204 668Q1204 803 1169 906T1073 1078T928 1182T748 1218Q652 1218 569 1183T424 1078T327 906T292 668Q292 533 327 431T424 259T569 155T750 120Q846 120 928 155T1072 259T1169 430T1204 668ZM1376 668Q1376 516 1332 389T1206 170T1009 27T750 -25Q602 -25 485 26T287 170T163 389T120 668Q120 821 164 948T290 1168T488 1311T748 1363Q895 1363 1011 1312T1209 1168T1333 949T1376 668ZM990 1656L809 1409H670L816 1656H990Z"/><glyph unicode="Ô" horiz-adv-x="1496" d="M1204 668Q1204 803 1169 906T1073 1078T928 1182T748 1218Q652 1218 569 1183T424 1078T327 906T292 668Q292 533 327 431T424 259T569 155T750 120Q846 120 928 155T1072 259T1169 430T1204 668ZM1376 668Q1376 516 1332 389T1206 170T1009 27T750 -25Q602 -25 485 26T287 170T163 389T120 668Q120 821 164 948T290 1168T488 1311T748 1363Q895 1363 1011 1312T1209 1168T1333 949T1376 668ZM831 1656L1047 1409H889L752 1560H748L612 1409H454L670 1656H831Z"/><glyph unicode="Õ" horiz-adv-x="1496" d="M1204 668Q1204 803 1169 906T1073 1078T928 1182T748 1218Q652 1218 569 1183T424 1078T327 906T292 668Q292 533 327 431T424 259T569 155T750 120Q846 120 928 155T1072 259T1169 430T1204 668ZM1376 668Q1376 516 1332 389T1206 170T1009 27T750 -25Q602 -25 485 26T287 170T163 389T120 668Q120 821 164 948T290 1168T488 1311T748 1363Q895 1363 1011 1312T1209 1168T1333 949T1376 668ZM606 1641Q647 1641 686 1627T758 1595T820 1563T876 1548Q910 1548 923 1571T937 1633H1062V1611Q1062 1578 1055 1545T1028 1483T974 1438T892 1421Q851 1421 812 1435T740 1467T678 1499T622 1514Q588 1514 575 1491T561 1429H436V1443Q435 1478 442 1515T470 1580T524 1625T606 1641Z"/><glyph unicode="Ö" horiz-adv-x="1496" d="M1204 668Q1204 803 1169 906T1073 1078T928 1182T748 1218Q652 1218 569 1183T424 1078T327 906T292 668Q292 533 327 431T424 259T569 155T750 120Q846 120 928 155T1072 259T1169 430T1204 668ZM1376 668Q1376 516 1332 389T1206 170T1009 27T750 -25Q602 -25 485 26T287 170T163 389T120 668Q120 821 164 948T290 1168T488 1311T748 1363Q895 1363 1011 1312T1209 1168T1333 949T1376 668ZM476 1448V1617H637V1448H476ZM859 1448V1617H1020V1448H859Z"/><glyph unicode="×" horiz-adv-x="1050" d="M105 848L199 941L525 614L852 941L945 848L618 521L945 195L851 102L525 428L199 102L106 195L432 521L105 848Z"/><glyph unicode="Ø" horiz-adv-x="1496" d="M120 71L250 217Q186 306 153 420T120 668Q120 821 164 948T290 1168T488 1311T748 1363Q869 1363 969 1328T1147 1228L1267 1363L1376 1268L1246 1121Q1309 1032 1342 918T1376 668Q1376 516 1332 389T1206 170T1009 27T750 -25Q627 -25 527 10T348 110L228 -25L120 71ZM1204 668Q1204 767 1185 847T1131 992L454 229Q514 175 589 148T750 120Q846 120 928 155T1072 259T1169 430T1204 668ZM292 668Q292 569 310 489T364 345L1041 1109Q982 1163 908 1190T748 1218Q652 1218 569 1183T424 1078T327 906T292 668Z"/><glyph unicode="Ù" horiz-adv-x="1374" d="M687 120Q760 120 816 137T915 185T985 259T1028 356Q1038 389 1042 429T1046 508V1338H1209V512Q1209 465 1204 414T1188 319Q1169 245 1131 182T1032 73T886 1T685 -25Q575 -25 492 -1T350 65T252 166T193 294Q178 344 172 401T165 512V1338H328V508Q328 463 334 416T355 329Q390 232 471 176T687 120ZM618 1656L764 1409H625L444 1656H618Z"/><glyph unicode="Ú" horiz-adv-x="1374" d="M687 120Q760 120 816 137T915 185T985 259T1028 356Q1038 389 1042 429T1046 508V1338H1209V512Q1209 465 1204 414T1188 319Q1169 245 1131 182T1032 73T886 1T685 -25Q575 -25 492 -1T350 65T252 166T193 294Q178 344 172 401T165 512V1338H328V508Q328 463 334 416T355 329Q390 232 471 176T687 120ZM925 1656L744 1409H605L751 1656H925Z"/><glyph unicode="Û" horiz-adv-x="1374" d="M687 120Q760 120 816 137T915 185T985 259T1028 356Q1038 389 1042 429T1046 508V1338H1209V512Q1209 465 1204 414T1188 319Q1169 245 1131 182T1032 73T886 1T685 -25Q575 -25 492 -1T350 65T252 166T193 294Q178 344 172 401T165 512V1338H328V508Q328 463 334 416T355 329Q390 232 471 176T687 120ZM765 1656L981 1409H823L686 1560H682L546 1409H388L604 1656H765Z"/><glyph unicode="Ü" horiz-adv-x="1374" d="M687 120Q760 120 816 137T915 185T985 259T1028 356Q1038 389 1042 429T1046 508V1338H1209V512Q1209 465 1204 414T1188 319Q1169 245 1131 182T1032 73T886 1T685 -25Q575 -25 492 -1T350 65T252 166T193 294Q178 344 172 401T165 512V1338H328V508Q328 463 334 416T355 329Q390 232 471 176T687 120ZM415 1448V1617H576V1448H415ZM798 1448V1617H959V1448H798Z"/><glyph unicode="Ý" horiz-adv-x="1217" d="M690 538V0H527V538L40 1338H218L606 688H611L999 1338H1177L690 538ZM852 1656L671 1409H532L678 1656H852Z"/><glyph unicode="Þ" horiz-adv-x="1162" d="M333 450Q366 446 402 444T470 442Q585 442 665 457T794 502T866 579T889 689Q889 767 852 816T745 891Q702 907 646 913T516 920H333V450ZM526 1067Q616 1067 687 1057T818 1026Q938 983 1000 899T1062 689Q1062 587 1022 513T906 390T721 319T472 295Q405 295 333 301V0H170V1338H333V1067H526Z"/><glyph unicode="ß" horiz-adv-x="1248" d="M991 1192Q991 1136 973 1094T928 1017T869 953T810 896T764 836T746 764Q746 731 760 707T798 665T853 631T918 600Q961 581 1004 558T1083 500T1141 417T1163 295Q1163 223 1135 164T1056 63T934 -2T778 -25Q733 -25 696 -20T629 -6T577 11T540 29V159Q570 147 596 138T649 121T704 111T764 107Q820 107 865 120T942 157T992 214T1010 289Q1010 331 994 361T952 414T892 454T821 488Q780 507 739 527T666 577T613 649T593 751Q593 810 611 854T656 933T715 998T774 1056T819 1116T837 1187Q837 1219 825 1246T788 1294T721 1326T622 1338Q543 1338 486 1313T390 1241T334 1129T315 985V0H160V994Q160 1102 190 1190T280 1341T425 1438T622 1473Q717 1473 786 1450T901 1387T969 1298T991 1192Z"/><glyph unicode="à" horiz-adv-x="1003" d="M706 105H702Q683 81 654 58T587 16T504 -14T408 -25Q339 -25 282 -5T183 55T118 152T95 281Q95 352 120 408T192 503T302 563T445 584Q519 583 582 571T694 541H698V607Q698 646 693 676T676 729Q650 777 593 808T439 840Q367 840 304 827T177 789V919Q201 931 233 941T302 959T378 971T458 975Q602 975 693 924T825 789Q840 757 846 719T853 634V0H723L706 105ZM698 417Q655 429 596 440T466 452Q367 452 311 410T255 281Q255 237 269 204T307 150T365 118T437 107Q487 107 530 121T606 156T663 196T698 227V417ZM446 1473L569 1124H439L278 1473H446Z"/><glyph unicode="á" horiz-adv-x="1003" d="M706 105H702Q683 81 654 58T587 16T504 -14T408 -25Q339 -25 282 -5T183 55T118 152T95 281Q95 352 120 408T192 503T302 563T445 584Q519 583 582 571T694 541H698V607Q698 646 693 676T676 729Q650 777 593 808T439 840Q367 840 304 827T177 789V919Q201 931 233 941T302 959T378 971T458 975Q602 975 693 924T825 789Q840 757 846 719T853 634V0H723L706 105ZM698 417Q655 429 596 440T466 452Q367 452 311 410T255 281Q255 237 269 204T307 150T365 118T437 107Q487 107 530 121T606 156T663 196T698 227V417ZM705 1473L544 1124H414L537 1473H705Z"/><glyph unicode="â" horiz-adv-x="1003" d="M706 105H702Q683 81 654 58T587 16T504 -14T408 -25Q339 -25 282 -5T183 55T118 152T95 281Q95 352 120 408T192 503T302 563T445 584Q519 583 582 571T694 541H698V607Q698 646 693 676T676 729Q650 777 593 808T439 840Q367 840 304 827T177 789V919Q201 931 233 941T302 959T378 971T458 975Q602 975 693 924T825 789Q840 757 846 719T853 634V0H723L706 105ZM698 417Q655 429 596 440T466 452Q367 452 311 410T255 281Q255 237 269 204T307 150T365 118T437 107Q487 107 530 121T606 156T663 196T698 227V417ZM584 1473L794 1124H654L507 1370H503L357 1124H217L427 1473H584Z"/><glyph unicode="ã" horiz-adv-x="1003" d="M706 105H702Q683 81 654 58T587 16T504 -14T408 -25Q339 -25 282 -5T183 55T118 152T95 281Q95 352 120 408T192 503T302 563T445 584Q519 583 582 571T694 541H698V607Q698 646 693 676T676 729Q650 777 593 808T439 840Q367 840 304 827T177 789V919Q201 931 233 941T302 959T378 971T458 975Q602 975 693 924T825 789Q840 757 846 719T853 634V0H723L706 105ZM698 417Q655 429 596 440T466 452Q367 452 311 410T255 281Q255 237 269 204T307 150T365 118T437 107Q487 107 530 121T606 156T663 196T698 227V417ZM174 1178V1201Q174 1235 181 1268T208 1329T261 1373T342 1390Q383 1390 422 1376T494 1343T558 1310T614 1295Q645 1295 659 1317T674 1382H796V1359Q796 1325 789 1292T762 1231T709 1187T628 1170Q587 1170 548 1184T476 1217T412 1250T356 1265Q325 1265 311 1243T296 1178H174Z"/><glyph unicode="ä" horiz-adv-x="1003" d="M706 105H702Q683 81 654 58T587 16T504 -14T408 -25Q339 -25 282 -5T183 55T118 152T95 281Q95 352 120 408T192 503T302 563T445 584Q519 583 582 571T694 541H698V607Q698 646 693 676T676 729Q650 777 593 808T439 840Q367 840 304 827T177 789V919Q201 931 233 941T302 959T378 971T458 975Q602 975 693 924T825 789Q840 757 846 719T853 634V0H723L706 105ZM698 417Q655 429 596 440T466 452Q367 452 311 410T255 281Q255 237 269 204T307 150T365 118T437 107Q487 107 530 121T606 156T663 196T698 227V417ZM229 1171V1338H388V1171H229ZM610 1171V1338H769V1171H610Z"/><glyph unicode="å" horiz-adv-x="1003" d="M706 105H702Q683 81 654 58T587 16T504 -14T408 -25Q339 -25 282 -5T183 55T118 152T95 281Q95 352 120 408T192 503T302 563T445 584Q519 583 582 571T694 541H698V607Q698 646 693 676T676 729Q650 777 593 808T439 840Q367 840 304 827T177 789V919Q201 931 233 941T302 959T378 971T458 975Q602 975 693 924T825 789Q840 757 846 719T853 634V0H723L706 105ZM698 417Q655 429 596 440T466 452Q367 452 311 410T255 281Q255 237 269 204T307 150T365 118T437 107Q487 107 530 121T606 156T663 196T698 227V417ZM479 1100Q431 1100 389 1113T317 1152T268 1213T250 1295Q250 1341 268 1377T316 1438T389 1476T479 1490Q527 1490 569 1477T641 1438T690 1377T708 1295Q708 1249 690 1213T642 1152T569 1114T479 1100ZM479 1392Q434 1392 404 1367T373 1295Q373 1248 403 1223T479 1198Q524 1198 554 1223T585 1295Q585 1342 555 1367T479 1392Z"/><glyph unicode="æ" horiz-adv-x="1592" d="M458 975Q529 975 581 963T673 927T740 873T789 804H793Q848 888 926 931T1105 975Q1188 975 1260 945T1383 851T1458 696T1481 495Q1481 472 1480 443H848Q848 352 872 289T940 186T1045 128T1180 110Q1255 110 1319 122T1447 158V29Q1396 4 1321 -11T1160 -25Q1045 -22 953 11T798 120H794Q766 94 731 68T652 22T554 -12T435 -25Q356 -25 293 -5T186 55T119 152T95 281Q95 352 120 408T192 503T302 563T445 584Q521 584 583 572T695 541H699V599Q699 715 639 777T439 840Q367 840 304 827T177 789V919Q202 931 232 941T300 958T377 970T458 975ZM450 107Q501 107 545 118T625 146T688 185T734 228Q703 306 697 416Q657 427 593 439T466 452Q367 452 311 410T255 281Q255 237 269 204T309 150T371 118T450 107ZM1095 842Q1042 842 1000 821T926 764T877 680T853 576H1316Q1316 632 1302 680T1259 765T1190 821T1095 842Z"/><glyph unicode="ç" horiz-adv-x="898" d="M462 -16Q384 -3 317 33T200 128T123 271T95 463Q95 557 114 632T168 764T247 861T344 926T451 963T558 975Q627 975 689 961T798 920V791Q734 815 681 827T574 839Q514 839 458 820T357 758T285 642T257 465Q257 388 277 323T338 211T440 137T581 110Q638 110 697 122T813 158V29Q797 19 772 10T717 -7T652 -19T582 -25L554 -126Q594 -132 627 -144T685 -177T722 -225T735 -291Q735 -343 712 -380T651 -442T562 -478T458 -490Q415 -490 381 -485T325 -471V-358Q337 -362 352 -365T384 -370T416 -374T444 -375Q473 -375 500 -372T550 -359T585 -334T599 -294Q599 -273 585 -259T546 -235T484 -222T402 -215L462 -16Z"/><glyph unicode="è" horiz-adv-x="1019" d="M477 1473L600 1124H470L309 1473H477ZM522 842Q469 842 424 821T344 764T289 680T263 576H743Q743 632 729 680T686 765T617 821T522 842ZM607 110Q684 110 747 122T874 158V29Q823 4 748 -10T587 -25Q485 -25 396 1T239 85T134 236T95 462Q95 592 131 687T227 847T365 943T528 975Q608 975 677 949T798 865T878 718T908 502Q908 490 908 482T907 443H255Q255 352 282 289T357 186T469 128T607 110Z"/><glyph unicode="é" horiz-adv-x="1019" d="M743 1473L582 1124H452L575 1473H743ZM522 842Q469 842 424 821T344 764T289 680T263 576H743Q743 632 729 680T686 765T617 821T522 842ZM607 110Q684 110 747 122T874 158V29Q823 4 748 -10T587 -25Q485 -25 396 1T239 85T134 236T95 462Q95 592 131 687T227 847T365 943T528 975Q608 975 677 949T798 865T878 718T908 502Q908 490 908 482T907 443H255Q255 352 282 289T357 186T469 128T607 110Z"/><glyph unicode="ê" horiz-adv-x="1019" d="M598 1473L808 1124H668L521 1370H517L371 1124H231L441 1473H598ZM522 842Q469 842 424 821T344 764T289 680T263 576H743Q743 632 729 680T686 765T617 821T522 842ZM607 110Q684 110 747 122T874 158V29Q823 4 748 -10T587 -25Q485 -25 396 1T239 85T134 236T95 462Q95 592 131 687T227 847T365 943T528 975Q608 975 677 949T798 865T878 718T908 502Q908 490 908 482T907 443H255Q255 352 282 289T357 186T469 128T607 110Z"/><glyph unicode="ë" horiz-adv-x="1019" d="M253 1171V1338H412V1171H253ZM634 1171V1338H793V1171H634ZM522 842Q469 842 424 821T344 764T289 680T263 576H743Q743 632 729 680T686 765T617 821T522 842ZM607 110Q684 110 747 122T874 158V29Q823 4 748 -10T587 -25Q485 -25 396 1T239 85T134 236T95 462Q95 592 131 687T227 847T365 943T528 975Q608 975 677 949T798 865T878 718T908 502Q908 490 908 482T907 443H255Q255 352 282 289T357 186T469 128T607 110Z"/><glyph unicode="ì" horiz-adv-x="475" d="M160 0V950H315V0H160ZM195 1473L318 1124H188L27 1473H195Z"/><glyph unicode="í" horiz-adv-x="475" d="M160 0V950H315V0H160ZM724 1473L563 1124H433L556 1473H724Z"/><glyph unicode="î" horiz-adv-x="475" d="M160 0V950H315V0H160ZM580 1473L790 1124H650L503 1370H499L353 1124H213L423 1473H580Z"/><glyph unicode="ï" horiz-adv-x="475" d="M160 0V950H315V0H160ZM231 1171V1338H390V1171H231ZM612 1171V1338H771V1171H612Z"/><glyph unicode="ð" horiz-adv-x="1077" d="M891 1220L697 1167Q752 1097 801 1018T887 853T945 672T967 479Q967 370 938 278T853 119T717 13T535 -25Q431 -25 349 9T211 106T125 255T95 449Q95 556 126 644T212 795T341 893T503 928Q581 928 638 904T743 835L746 838Q708 913 659 986T552 1128L288 1056L253 1180L457 1236Q401 1295 345 1348T234 1448H428Q469 1413 514 1370T605 1276L856 1345L891 1220ZM808 468Q808 558 784 621T720 723T631 779T532 796Q471 796 421 773T334 705T277 596T257 449Q257 368 277 304T334 197T422 130T535 107Q596 107 646 132T733 205T788 318T808 468Z"/><glyph unicode="ñ" horiz-adv-x="1080" d="M300 818H303Q329 851 360 879T431 929T516 963T618 975Q683 975 740 957T839 899T905 795T930 636V0H775V611Q775 734 728 788T589 842Q509 842 434 798T305 675V0H150V950H270L300 818ZM221 1178V1201Q221 1235 228 1268T255 1329T308 1373T389 1390Q430 1390 469 1376T541 1343T605 1310T661 1295Q692 1295 706 1317T721 1382H843V1359Q843 1325 836 1292T809 1231T756 1187T675 1170Q634 1170 595 1184T523 1217T459 1250T403 1265Q372 1265 358 1243T343 1178H221Z"/><glyph unicode="ò" horiz-adv-x="1092" d="M835 474Q835 562 814 630T754 746T662 818T546 843Q483 843 430 819T339 747T279 631T257 474Q257 387 278 319T339 203T431 132T547 107Q610 107 662 131T753 203T813 318T835 474ZM997 474Q997 362 965 270T875 113T733 11T547 -25Q441 -25 358 11T216 112T126 270T95 474Q95 587 127 679T217 837T359 939T546 975Q651 975 735 939T877 837T966 679T997 474ZM492 1473L615 1124H485L324 1473H492Z"/><glyph unicode="ó" horiz-adv-x="1092" d="M835 474Q835 562 814 630T754 746T662 818T546 843Q483 843 430 819T339 747T279 631T257 474Q257 387 278 319T339 203T431 132T547 107Q610 107 662 131T753 203T813 318T835 474ZM997 474Q997 362 965 270T875 113T733 11T547 -25Q441 -25 358 11T216 112T126 270T95 474Q95 587 127 679T217 837T359 939T546 975Q651 975 735 939T877 837T966 679T997 474ZM781 1473L620 1124H490L613 1473H781Z"/><glyph unicode="ô" horiz-adv-x="1092" d="M835 474Q835 562 814 630T754 746T662 818T546 843Q483 843 430 819T339 747T279 631T257 474Q257 387 278 319T339 203T431 132T547 107Q610 107 662 131T753 203T813 318T835 474ZM997 474Q997 362 965 270T875 113T733 11T547 -25Q441 -25 358 11T216 112T126 270T95 474Q95 587 127 679T217 837T359 939T546 975Q651 975 735 939T877 837T966 679T997 474ZM620 1473L830 1124H690L543 1370H539L393 1124H253L463 1473H620Z"/><glyph unicode="õ" horiz-adv-x="1092" d="M835 474Q835 562 814 630T754 746T662 818T546 843Q483 843 430 819T339 747T279 631T257 474Q257 387 278 319T339 203T431 132T547 107Q610 107 662 131T753 203T813 318T835 474ZM997 474Q997 362 965 270T875 113T733 11T547 -25Q441 -25 358 11T216 112T126 270T95 474Q95 587 127 679T217 837T359 939T546 975Q651 975 735 939T877 837T966 679T997 474ZM228 1178V1201Q228 1235 235 1268T262 1329T315 1373T396 1390Q437 1390 476 1376T548 1343T612 1310T668 1295Q699 1295 713 1317T728 1382H850V1359Q850 1325 843 1292T816 1231T763 1187T682 1170Q641 1170 602 1184T530 1217T466 1250T410 1265Q379 1265 365 1243T350 1178H228Z"/><glyph unicode="ö" horiz-adv-x="1092" d="M835 474Q835 562 814 630T754 746T662 818T546 843Q483 843 430 819T339 747T279 631T257 474Q257 387 278 319T339 203T431 132T547 107Q610 107 662 131T753 203T813 318T835 474ZM997 474Q997 362 965 270T875 113T733 11T547 -25Q441 -25 358 11T216 112T126 270T95 474Q95 587 127 679T217 837T359 939T546 975Q651 975 735 939T877 837T966 679T997 474ZM275 1171V1338H434V1171H275ZM656 1171V1338H815V1171H656Z"/><glyph unicode="÷" horiz-adv-x="1050" d="M445 257H605V92H445V257ZM935 587V455H115V587H935ZM445 950H605V785H445V950Z"/><glyph unicode="ø" horiz-adv-x="1092" d="M95 60L180 157Q138 220 117 299T95 474Q95 587 127 679T217 837T359 939T546 975Q629 975 698 953T822 888L898 975L997 890L911 792Q953 729 975 649T997 474Q997 362 965 270T875 113T733 11T547 -25Q463 -25 394 -3T270 61L194 -25L95 60ZM257 474Q257 365 291 283L724 776Q651 843 546 843Q483 843 430 819T339 747T279 631T257 474ZM835 474Q835 530 826 578T800 666L368 173Q442 107 547 107Q610 107 662 131T753 203T813 318T835 474Z"/><glyph unicode="ù" horiz-adv-x="1060" d="M527 -25Q453 -25 394 -9T291 36T215 105T166 194Q152 230 146 273T140 367V950H295V368Q295 289 316 236Q340 176 393 142T530 107Q618 107 671 145T748 247Q765 296 765 368V950H920V366Q920 318 915 277T897 200Q879 151 848 110T770 38T664 -8T527 -25ZM478 1473L601 1124H471L310 1473H478Z"/><glyph unicode="ú" horiz-adv-x="1060" d="M527 -25Q453 -25 394 -9T291 36T215 105T166 194Q152 230 146 273T140 367V950H295V368Q295 289 316 236Q340 176 393 142T530 107Q618 107 671 145T748 247Q765 296 765 368V950H920V366Q920 318 915 277T897 200Q879 151 848 110T770 38T664 -8T527 -25ZM754 1473L593 1124H463L586 1473H754Z"/><glyph unicode="û" horiz-adv-x="1060" d="M527 -25Q453 -25 394 -9T291 36T215 105T166 194Q152 230 146 273T140 367V950H295V368Q295 289 316 236Q340 176 393 142T530 107Q618 107 671 145T748 247Q765 296 765 368V950H920V366Q920 318 915 277T897 200Q879 151 848 110T770 38T664 -8T527 -25ZM610 1473L820 1124H680L533 1370H529L383 1124H243L453 1473H610Z"/><glyph unicode="ü" horiz-adv-x="1060" d="M527 -25Q453 -25 394 -9T291 36T215 105T166 194Q152 230 146 273T140 367V950H295V368Q295 289 316 236Q340 176 393 142T530 107Q618 107 671 145T748 247Q765 296 765 368V950H920V366Q920 318 915 277T897 200Q879 151 848 110T770 38T664 -8T527 -25ZM260 1171V1338H419V1171H260ZM641 1171V1338H800V1171H641Z"/><glyph unicode="ý" horiz-adv-x="982" d="M30 950H189L484 205H490L789 950H952L359 -465H205L408 19L30 950ZM703 1473L542 1124H412L535 1473H703Z"/><glyph unicode="þ" horiz-adv-x="1087" d="M992 489Q992 389 973 313T921 179T846 82T757 20T664 -14T574 -25Q488 -25 424 3T308 88H305V-465H150V1448H305V861H308Q359 917 426 946T581 975Q622 975 668 966T759 935T847 877T921 786T973 658T992 489ZM828 481Q828 590 802 662T733 774T643 828T551 842Q479 842 417 813T305 734V215Q354 165 416 136T551 107Q595 107 643 123T733 182T801 298T828 481Z"/><glyph unicode="ÿ" horiz-adv-x="982" d="M30 950H189L484 205H490L789 950H952L359 -465H205L408 19L30 950ZM217 1171V1338H376V1171H217ZM598 1171V1338H757V1171H598Z"/><glyph unicode="Ā" horiz-adv-x="1301" d="M35 0L580 1338H721L1266 0H1089L929 403H370L210 0H35ZM649 1130Q560 880 478 676L428 550H871L821 676Q739 884 653 1130H649ZM379 1581H919V1448H379V1581Z"/><glyph unicode="ā" horiz-adv-x="1003" d="M706 105H702Q683 81 654 58T587 16T504 -14T408 -25Q339 -25 282 -5T183 55T118 152T95 281Q95 352 120 408T192 503T302 563T445 584Q519 583 582 571T694 541H698V607Q698 646 693 676T676 729Q650 777 593 808T439 840Q367 840 304 827T177 789V919Q201 931 233 941T302 959T378 971T458 975Q602 975 693 924T825 789Q840 757 846 719T853 634V0H723L706 105ZM698 417Q655 429 596 440T466 452Q367 452 311 410T255 281Q255 237 269 204T307 150T365 118T437 107Q487 107 530 121T606 156T663 196T698 227V417ZM236 1300H776V1171H236V1300Z"/><glyph unicode="Ă" horiz-adv-x="1301" d="M35 0L580 1338H721L1266 0H1089L929 403H370L210 0H35ZM649 1130Q560 880 478 676L428 550H871L821 676Q739 884 653 1130H649ZM648 1530Q676 1530 704 1537T757 1562T798 1605T821 1670H954Q947 1606 921 1558T855 1476T761 1426T648 1409Q588 1409 535 1426T442 1476T375 1557T342 1670H475Q481 1632 498 1606T539 1562T591 1538T648 1530Z"/><glyph unicode="ă" horiz-adv-x="1003" d="M706 105H702Q683 81 654 58T587 16T504 -14T408 -25Q339 -25 282 -5T183 55T118 152T95 281Q95 352 120 408T192 503T302 563T445 584Q519 583 582 571T694 541H698V607Q698 646 693 676T676 729Q650 777 593 808T439 840Q367 840 304 827T177 789V919Q201 931 233 941T302 959T378 971T458 975Q602 975 693 924T825 789Q840 757 846 719T853 634V0H723L706 105ZM698 417Q655 429 596 440T466 452Q367 452 311 410T255 281Q255 237 269 204T307 150T365 118T437 107Q487 107 530 121T606 156T663 196T698 227V417ZM496 1257Q570 1257 613 1299T671 1432H802Q798 1368 777 1314T717 1221T623 1159T496 1136Q425 1136 370 1158T276 1220T216 1314T190 1432H321Q335 1341 378 1299T496 1257Z"/><glyph unicode="Ą" horiz-adv-x="1301" d="M1266 0Q1237 -18 1199 -46T1127 -110T1069 -184T1045 -268Q1045 -303 1068 -329T1143 -355Q1169 -355 1199 -350T1266 -332V-460Q1237 -473 1197 -481T1115 -490Q1062 -490 1022 -475T956 -435T916 -377T902 -303Q902 -218 953 -141T1089 0L929 403H370L210 0H35L580 1338H721L1266 0ZM649 1130Q560 880 478 676L428 550H871L821 676Q739 884 653 1130H649Z"/><glyph unicode="ą" horiz-adv-x="1003" d="M698 417Q655 429 597 440T466 452Q367 452 311 410T255 281Q255 237 269 204T307 150T365 118T437 107Q487 107 530 121T606 156T663 196T698 227V417ZM706 105H702Q683 81 654 58T587 16T504 -14T408 -25Q339 -25 282 -5T183 55T118 152T95 281Q95 352 120 408T192 503T302 563T445 584Q523 583 586 571T694 541H698V607Q698 646 693 676T676 729Q650 778 593 808T439 840Q367 840 304 827T177 789V919Q201 931 233 941T302 959T379 971T458 975Q602 974 694 924T825 789Q840 757 846 719T853 634V0Q822 -20 782 -52T707 -121T647 -199T622 -278Q622 -315 645 -335T716 -355Q744 -355 775 -350T843 -332V-460Q814 -473 772 -481T686 -490Q589 -490 534 -446T479 -315Q479 -261 499 -216T554 -131T632 -58T723 9L706 105Z"/><glyph unicode="Ć" horiz-adv-x="1207" d="M820 1218Q709 1218 613 1183T445 1077T333 902T292 658Q292 520 330 419T438 251T606 152T826 120Q859 120 896 123T970 133T1043 148T1107 167V23Q1048 0 970 -12T810 -25Q643 -25 514 21T298 155T165 367T120 652Q120 808 167 939T304 1164T521 1310T808 1363Q850 1363 891 1360T969 1350T1039 1334T1094 1315V1171Q1034 1191 963 1204T820 1218ZM1056 1656L875 1409H736L882 1656H1056Z"/><glyph unicode="ć" horiz-adv-x="898" d="M558 975Q627 975 690 961T798 920V791Q735 815 682 827T574 839Q516 839 459 820T357 758T285 643T257 465Q257 388 277 323T338 211T440 137T581 110Q639 110 698 122T813 158V29Q796 19 769 9T708 -8T638 -20T564 -25Q468 -25 383 4T233 93T132 245T95 463Q95 557 114 632T168 764T247 861T344 926T451 963T558 975ZM737 1473L576 1124H446L569 1473H737Z"/><glyph unicode="Ĉ" horiz-adv-x="1207" d="M820 1218Q709 1218 613 1183T445 1077T333 902T292 658Q292 520 330 419T438 251T606 152T826 120Q859 120 896 123T970 133T1043 148T1107 167V23Q1048 0 970 -12T810 -25Q643 -25 514 21T298 155T165 367T120 652Q120 808 167 939T304 1164T521 1310T808 1363Q850 1363 891 1360T969 1350T1039 1334T1094 1315V1171Q1034 1191 963 1204T820 1218ZM849 1656L1065 1409H907L770 1560H766L630 1409H472L688 1656H849Z"/><glyph unicode="ĉ" horiz-adv-x="898" d="M558 975Q627 975 690 961T798 920V791Q735 815 682 827T574 839Q516 839 459 820T357 758T285 643T257 465Q257 388 277 323T338 211T440 137T581 110Q639 110 698 122T813 158V29Q796 19 769 9T708 -8T638 -20T564 -25Q468 -25 383 4T233 93T132 245T95 463Q95 557 114 632T168 764T247 861T344 926T451 963T558 975ZM613 1473L823 1124H683L536 1370H532L386 1124H246L456 1473H613Z"/><glyph unicode="Ċ" horiz-adv-x="1207" d="M820 1218Q709 1218 613 1183T445 1077T333 902T292 658Q292 520 330 419T438 251T606 152T826 120Q859 120 896 123T970 133T1043 148T1107 167V23Q1048 0 970 -12T810 -25Q643 -25 514 21T298 155T165 367T120 652Q120 808 167 939T304 1164T521 1310T808 1363Q850 1363 891 1360T969 1350T1039 1334T1094 1315V1171Q1034 1191 963 1204T820 1218ZM659 1448V1621H822V1448H659Z"/><glyph unicode="ċ" horiz-adv-x="898" d="M558 975Q627 975 690 961T798 920V791Q735 815 682 827T574 839Q516 839 459 820T357 758T285 643T257 465Q257 388 277 323T338 211T440 137T581 110Q639 110 698 122T813 158V29Q796 19 769 9T708 -8T638 -20T564 -25Q468 -25 383 4T233 93T132 245T95 463Q95 557 114 632T168 764T247 861T344 926T451 963T558 975ZM455 1171V1344H618V1171H455Z"/><glyph unicode="Č" horiz-adv-x="1207" d="M820 1218Q709 1218 613 1183T445 1077T333 902T292 658Q292 520 330 419T438 251T606 152T826 120Q859 120 896 123T970 133T1043 148T1107 167V23Q1048 0 970 -12T810 -25Q643 -25 514 21T298 155T165 367T120 652Q120 808 167 939T304 1164T521 1310T808 1363Q850 1363 891 1360T969 1350T1039 1334T1094 1315V1171Q1034 1191 963 1204T820 1218ZM698 1410L482 1657H636L774 1504H778L917 1657H1071L855 1410H698Z"/><glyph unicode="č" horiz-adv-x="898" d="M558 975Q627 975 690 961T798 920V791Q735 815 682 827T574 839Q516 839 459 820T357 758T285 643T257 465Q257 388 277 323T338 211T440 137T581 110Q639 110 698 122T813 158V29Q796 19 769 9T708 -8T638 -20T564 -25Q468 -25 383 4T233 93T132 245T95 463Q95 557 114 632T168 764T247 861T344 926T451 963T558 975ZM466 1124L256 1473H396L543 1227H547L693 1473H833L623 1124H466Z"/><glyph unicode="Ď" horiz-adv-x="1374" d="M1254 675Q1254 558 1225 455T1138 270T992 127T787 34Q720 15 642 8T473 0H170V1338H476Q567 1338 645 1331T790 1304Q907 1271 994 1212T1139 1073T1225 892T1254 675ZM1082 675Q1082 868 998 988T757 1158Q697 1177 623 1184T456 1191H333V147H456Q549 147 623 154T757 180Q914 230 998 355T1082 675ZM595 1410L379 1657H533L671 1504H675L814 1657H968L752 1410H595Z"/><glyph unicode="ď" horiz-adv-x="1097" d="M257 465Q257 383 275 317T329 204T415 132T532 107Q581 107 621 120T692 153T746 195T782 237V734Q734 783 671 812T535 842Q491 842 443 826T353 766T284 651T257 465ZM95 463Q95 562 114 638T166 772T241 867T330 930T423 964T513 975Q600 975 664 946T779 861H782V1448H937V0H820L788 106H784Q766 83 742 60T686 17T611 -13T512 -25Q434 -25 359 1T226 86T131 237T95 463ZM1116 1245Q1116 1284 1093 1301T1032 1319V1448Q1048 1449 1063 1449Q1153 1449 1207 1406T1262 1283Q1262 1232 1243 1183T1183 1080H1040Q1072 1126 1094 1167T1116 1245Z"/><glyph unicode="Đ" horiz-adv-x="1404" d="M60 759H200V1338H506Q597 1338 675 1331T820 1304Q937 1271 1024 1212T1169 1073T1255 892T1284 675Q1284 558 1255 455T1168 270T1022 127T817 34Q750 15 672 8T503 0H200V612H60V759ZM1112 675Q1112 868 1028 988T787 1158Q727 1177 653 1184T486 1191H363V759H707V612H363V147H486Q579 147 653 154T787 180Q944 230 1028 355T1112 675Z"/><glyph unicode="đ" horiz-adv-x="1097" d="M95 463Q95 562 114 638T166 772T241 867T329 930T423 964T513 975Q600 975 664 946T779 861H782V1152H493V1285H782V1448H937V1285H1097V1152H937V0H820L788 106H784Q766 82 742 59T686 17T611 -13T511 -25Q434 -25 359 1T226 86T131 237T95 463ZM257 465Q257 383 275 317T329 204T415 132T532 107Q579 107 620 120T692 153T746 196T782 237V734Q734 783 671 812T536 842Q492 842 443 825T353 766T284 651T257 465Z"/><glyph unicode="Ē" horiz-adv-x="1129" d="M333 147H1019V0H170V1338H982V1191H333V759H910V612H333V147ZM309 1581H849V1448H309V1581Z"/><glyph unicode="ē" horiz-adv-x="1019" d="M250 1300H790V1171H250V1300ZM522 842Q469 842 424 821T344 764T289 680T263 576H743Q743 632 729 680T686 765T617 821T522 842ZM607 110Q684 110 747 122T874 158V29Q823 4 748 -10T587 -25Q485 -25 396 1T239 85T134 236T95 462Q95 592 131 687T227 847T365 943T528 975Q608 975 677 949T798 865T878 718T908 502Q908 490 908 482T907 443H255Q255 352 282 289T357 186T469 128T607 110Z"/><glyph unicode="Ĕ" horiz-adv-x="1129" d="M333 147H1019V0H170V1338H982V1191H333V759H910V612H333V147ZM575 1530Q603 1530 631 1537T684 1562T725 1605T748 1670H881Q874 1606 848 1558T782 1476T688 1426T575 1409Q515 1409 462 1426T369 1476T302 1557T269 1670H402Q408 1632 425 1606T466 1562T518 1538T575 1530Z"/><glyph unicode="ĕ" horiz-adv-x="1019" d="M517 1257Q591 1257 634 1299T692 1432H823Q819 1368 798 1314T738 1221T644 1159T517 1136Q446 1136 391 1158T297 1220T237 1314T211 1432H342Q356 1341 399 1299T517 1257ZM522 842Q469 842 424 821T344 764T289 680T263 576H743Q743 632 729 680T686 765T617 821T522 842ZM607 110Q684 110 747 122T874 158V29Q823 4 748 -10T587 -25Q485 -25 396 1T239 85T134 236T95 462Q95 592 131 687T227 847T365 943T528 975Q608 975 677 949T798 865T878 718T908 502Q908 490 908 482T907 443H255Q255 352 282 289T357 186T469 128T607 110Z"/><glyph unicode="Ė" horiz-adv-x="1129" d="M333 147H1019V0H170V1338H982V1191H333V759H910V612H333V147ZM500 1448V1621H663V1448H500Z"/><glyph unicode="ė" horiz-adv-x="1019" d="M438 1171V1344H601V1171H438ZM522 842Q469 842 424 821T344 764T289 680T263 576H743Q743 632 729 680T686 765T617 821T522 842ZM607 110Q684 110 747 122T874 158V29Q823 4 748 -10T587 -25Q485 -25 396 1T239 85T134 236T95 462Q95 592 131 687T227 847T365 943T528 975Q608 975 677 949T798 865T878 718T908 502Q908 490 908 482T907 443H255Q255 352 282 289T357 186T469 128T607 110Z"/><glyph unicode="Ę" horiz-adv-x="1129" d="M654 -313Q654 -263 672 -219T720 -136T787 -64T864 -4V0H170V1338H982V1191H333V759H910V612H333V147H1019V0Q982 -27 943 -59T872 -128T818 -201T797 -273Q797 -355 888 -355Q918 -355 950 -350T1019 -332V-460Q990 -473 949 -481T859 -490Q761 -490 708 -442T654 -313Z"/><glyph unicode="ę" horiz-adv-x="1019" d="M667 -19Q647 -22 624 -23T587 -25Q485 -25 396 1T239 85T134 236T95 464Q95 592 131 687T227 847T365 943T528 975Q613 975 685 945T809 851T884 698T909 504Q909 478 907 443H255Q255 352 282 289T357 186T469 128T607 110Q684 110 747 122T874 158V35Q850 19 822 -3T765 -50T710 -104T663 -162T630 -220T618 -276Q618 -314 641 -334T712 -355Q740 -355 771 -350T839 -332V-460Q810 -473 771 -481T682 -490Q585 -490 530 -446T475 -315Q475 -270 491 -229T533 -152T594 -83T667 -23V-19ZM522 842Q469 842 424 821T344 764T289 680T263 576H743Q743 632 729 680T686 765T617 821T522 842Z"/><glyph unicode="Ě" horiz-adv-x="1129" d="M333 147H1019V0H170V1338H982V1191H333V759H910V612H333V147ZM500 1410L284 1657H438L576 1504H580L719 1657H873L657 1410H500Z"/><glyph unicode="ě" horiz-adv-x="1019" d="M448 1124L238 1473H378L525 1227H529L675 1473H815L605 1124H448ZM522 842Q469 842 424 821T344 764T289 680T263 576H743Q743 632 729 680T686 765T617 821T522 842ZM607 110Q684 110 747 122T874 158V29Q823 4 748 -10T587 -25Q485 -25 396 1T239 85T134 236T95 462Q95 592 131 687T227 847T365 943T528 975Q608 975 677 949T798 865T878 718T908 502Q908 490 908 482T907 443H255Q255 352 282 289T357 186T469 128T607 110Z"/><glyph unicode="Ĝ" horiz-adv-x="1368" d="M1045 541H740V688H1208V41Q1187 30 1147 19T1054 -3T943 -19T825 -25Q653 -25 522 22T301 155T166 364T120 638Q120 802 173 936T324 1165T557 1311T856 1363Q900 1363 944 1360T1028 1350T1102 1334T1159 1315V1171Q1099 1191 1021 1204T865 1218Q751 1218 648 1184T465 1079T339 904T292 656Q292 517 330 416T439 249T610 152T834 120Q891 120 946 126T1045 143V541ZM878 1656L1094 1409H936L799 1560H795L659 1409H501L717 1656H878Z"/><glyph unicode="ĝ" horiz-adv-x="1087" d="M621 1473L831 1124H691L544 1370H540L394 1124H254L464 1473H621ZM257 469Q257 357 284 286T352 176T443 122T536 107Q608 107 671 136T782 215V712Q769 730 746 753T693 795T623 828T538 842Q469 842 417 815T329 738T275 621T257 469ZM518 975Q580 974 626 959T705 922T757 877T784 842H788L820 950H937V-56Q937 -166 901 -247T800 -383T644 -463T441 -490Q347 -490 273 -474T157 -434V-303Q191 -317 223 -326T289 -342T358 -352T437 -355Q604 -355 693 -277T782 -39V88H779Q728 32 661 4T506 -25Q466 -25 420 -16T328 14T240 71T166 160T115 287T95 456Q95 589 131 686T226 848T361 943T518 975Z"/><glyph unicode="Ğ" horiz-adv-x="1368" d="M1045 541H740V688H1208V41Q1187 30 1147 19T1054 -3T943 -19T825 -25Q653 -25 522 22T301 155T166 364T120 638Q120 802 173 936T324 1165T557 1311T856 1363Q900 1363 944 1360T1028 1350T1102 1334T1159 1315V1171Q1099 1191 1021 1204T865 1218Q751 1218 648 1184T465 1079T339 904T292 656Q292 517 330 416T439 249T610 152T834 120Q891 120 946 126T1045 143V541ZM738 1530Q766 1530 794 1537T847 1562T888 1605T911 1670H1044Q1037 1606 1011 1558T945 1476T851 1426T738 1409Q678 1409 625 1426T532 1476T465 1557T432 1670H565Q571 1632 588 1606T629 1562T681 1538T738 1530Z"/><glyph unicode="ğ" horiz-adv-x="1087" d="M541 1257Q615 1257 658 1299T716 1432H847Q843 1368 822 1314T762 1221T668 1159T541 1136Q470 1136 415 1158T321 1220T261 1314T235 1432H366Q380 1341 423 1299T541 1257ZM257 469Q257 357 284 286T352 176T443 122T536 107Q608 107 671 136T782 215V712Q769 730 746 753T693 795T623 828T538 842Q469 842 417 815T329 738T275 621T257 469ZM518 975Q580 974 626 959T705 922T757 877T784 842H788L820 950H937V-56Q937 -166 901 -247T800 -383T644 -463T441 -490Q347 -490 273 -474T157 -434V-303Q191 -317 223 -326T289 -342T358 -352T437 -355Q604 -355 693 -277T782 -39V88H779Q728 32 661 4T506 -25Q466 -25 420 -16T328 14T240 71T166 160T115 287T95 456Q95 589 131 686T226 848T361 943T518 975Z"/><glyph unicode="Ġ" horiz-adv-x="1368" d="M1045 541H740V688H1208V41Q1187 30 1147 19T1054 -3T943 -19T825 -25Q653 -25 522 22T301 155T166 364T120 638Q120 802 173 936T324 1165T557 1311T856 1363Q900 1363 944 1360T1028 1350T1102 1334T1159 1315V1171Q1099 1191 1021 1204T865 1218Q751 1218 648 1184T465 1079T339 904T292 656Q292 517 330 416T439 249T610 152T834 120Q891 120 946 126T1045 143V541ZM693 1448V1621H856V1448H693Z"/><glyph unicode="ġ" horiz-adv-x="1087" d="M466 1171V1344H629V1171H466ZM257 469Q257 357 284 286T352 176T443 122T536 107Q608 107 671 136T782 215V712Q769 730 746 753T693 795T623 828T538 842Q469 842 417 815T329 738T275 621T257 469ZM518 975Q580 974 626 959T705 922T757 877T784 842H788L820 950H937V-56Q937 -166 901 -247T800 -383T644 -463T441 -490Q347 -490 273 -474T157 -434V-303Q191 -317 223 -326T289 -342T358 -352T437 -355Q604 -355 693 -277T782 -39V88H779Q728 32 661 4T506 -25Q466 -25 420 -16T328 14T240 71T166 160T115 287T95 456Q95 589 131 686T226 848T361 943T518 975Z"/><glyph unicode="Ģ" horiz-adv-x="1368" d="M1045 541H740V688H1208V41Q1187 30 1147 19T1054 -3T943 -19T825 -25Q653 -25 522 22T301 155T166 364T120 638Q120 802 173 936T324 1165T557 1311T856 1363Q900 1363 944 1360T1028 1350T1102 1334T1159 1315V1171Q1099 1191 1021 1204T865 1218Q751 1218 648 1184T465 1079T339 904T292 656Q292 517 330 416T439 249T610 152T834 120Q891 120 946 126T1045 143V541ZM721 -325Q721 -286 698 -269T637 -251V-122Q652 -121 665 -121Q758 -121 812 -163T867 -287Q867 -337 848 -386T788 -490H645Q679 -443 700 -401T721 -325Z"/><glyph unicode="ģ" horiz-adv-x="1087" d="M532 1308Q532 1269 555 1252T616 1234V1105Q602 1104 588 1104Q496 1104 441 1146T386 1270Q386 1321 405 1370T465 1473H608Q576 1427 554 1386T532 1308ZM257 469Q257 357 284 286T352 176T443 122T536 107Q608 107 671 136T782 215V712Q769 730 746 753T693 795T623 828T538 842Q469 842 417 815T329 738T275 621T257 469ZM518 975Q580 974 626 959T705 922T757 877T784 842H788L820 950H937V-56Q937 -166 901 -247T800 -383T644 -463T441 -490Q347 -490 273 -474T157 -434V-303Q191 -317 223 -326T289 -342T358 -352T437 -355Q604 -355 693 -277T782 -39V88H779Q728 32 661 4T506 -25Q466 -25 420 -16T328 14T240 71T166 160T115 287T95 456Q95 589 131 686T226 848T361 943T518 975Z"/><glyph unicode="Ĥ" horiz-adv-x="1367" d="M333 759H1034V1338H1197V0H1034V612H333V0H170V1338H333V759ZM766 1656L982 1409H824L687 1560H683L547 1409H389L605 1656H766Z"/><glyph unicode="ĥ" horiz-adv-x="1090" d="M315 820H318Q344 853 376 881T447 930T531 963T628 975Q682 975 736 961T836 909T911 806T940 636V0H785V611Q785 726 742 784T599 842Q517 842 443 798T315 675V0H160V1448H315V820ZM328 1767L544 1520H386L249 1671H245L109 1520H-49L167 1767H328Z"/><glyph unicode="Ħ" horiz-adv-x="1367" d="M1337 966H1197V0H1034V612H333V0H170V966H30V1113H170V1338H333V1113H1034V1338H1197V1113H1337V966ZM1034 759V966H333V759H1034Z"/><glyph unicode="ħ" horiz-adv-x="1090" d="M315 1152V820H318Q344 853 376 881T447 930T531 963T628 975Q682 975 736 961T836 909T911 806T940 636V0H785V611Q785 726 742 784T599 842Q517 842 443 798T315 675V0H160V1152H0V1285H160V1448H315V1285H604V1152H315Z"/><glyph unicode="Ĩ" horiz-adv-x="503" d="M170 0V1338H333V0H170ZM373 1641Q414 1641 453 1627T525 1595T587 1563T643 1548Q677 1548 690 1571T704 1633H829V1611Q829 1578 822 1545T795 1483T741 1438T659 1421Q618 1421 579 1435T507 1467T445 1499T389 1514Q355 1514 342 1491T328 1429H203V1443Q202 1478 209 1515T237 1580T291 1625T373 1641Z"/><glyph unicode="ĩ" horiz-adv-x="475" d="M160 0V950H315V0H160ZM190 1178V1201Q190 1235 197 1268T224 1329T277 1373T358 1390Q399 1390 438 1376T510 1343T574 1310T630 1295Q661 1295 675 1317T690 1382H812V1359Q812 1325 805 1292T778 1231T725 1187T644 1170Q603 1170 564 1184T492 1217T428 1250T372 1265Q341 1265 327 1243T312 1178H190Z"/><glyph unicode="Ī" horiz-adv-x="503" d="M170 0V1338H333V0H170ZM243 1581H783V1448H243V1581Z"/><glyph unicode="ī" horiz-adv-x="475" d="M160 0V950H315V0H160ZM230 1300H770V1171H230V1300Z"/><glyph unicode="Ĭ" horiz-adv-x="503" d="M170 0V1338H333V0H170ZM513 1530Q541 1530 569 1537T622 1562T663 1605T686 1670H819Q812 1606 786 1558T720 1476T626 1426T513 1409Q453 1409 400 1426T307 1476T240 1557T207 1670H340Q346 1632 363 1606T404 1562T456 1538T513 1530Z"/><glyph unicode="ĭ" horiz-adv-x="475" d="M160 0V950H315V0H160ZM497 1257Q571 1257 614 1299T672 1432H803Q799 1368 778 1314T718 1221T624 1159T497 1136Q426 1136 371 1158T277 1220T217 1314T191 1432H322Q336 1341 379 1299T497 1257Z"/><glyph unicode="Į" horiz-adv-x="503" d="M170 1338H333V0Q303 -27 272 -56T217 -119T176 -188T160 -263Q160 -303 183 -328T258 -355Q284 -355 314 -350T381 -332V-460Q352 -473 312 -481T230 -490Q177 -490 137 -475T71 -433T31 -370T17 -292Q17 -250 28 -212T59 -138T108 -68T170 0V1338Z"/><glyph unicode="į" horiz-adv-x="475" d="M315 0Q282 -30 251 -60T196 -122T158 -189T143 -263Q143 -303 165 -329T241 -355Q267 -355 297 -350T364 -332V-460Q335 -473 295 -481T213 -490Q160 -490 120 -475T54 -433T14 -370T0 -292Q0 -250 12 -212T45 -137T96 -66T160 3V950H315V0ZM156 1171V1342H319V1171H156Z"/><glyph unicode="İ" horiz-adv-x="503" d="M170 0V1338H333V0H170ZM434 1448V1621H597V1448H434Z"/><glyph unicode="ı" horiz-adv-x="475" d="M160 0V950H315V0H160Z"/><glyph unicode="Ĳ" horiz-adv-x="1195" d="M170 0V1338H333V0H170ZM867 1338H1030V307Q1030 224 1005 162T934 59T822 -4T676 -25Q607 -24 560 -14T488 8V152Q525 137 568 129T662 120Q707 120 745 130T810 164T852 228T867 327V1338Z"/><glyph unicode="ĳ" horiz-adv-x="969" d="M160 0V950H315V0H160ZM156 1171V1344H319V1171H156ZM809 -212Q809 -343 734 -416T496 -490Q453 -490 414 -484T355 -470V-338Q385 -346 415 -350T477 -355Q572 -355 613 -316T654 -194V950H809V-212ZM650 1171V1344H813V1171H650Z"/><glyph unicode="Ĵ" horiz-adv-x="767" d="M439 1338H602V307Q602 224 577 162T506 59T394 -4T248 -25Q179 -24 132 -14T60 8V152Q97 137 140 129T234 120Q279 120 317 130T382 164T424 228T439 327V1338ZM596 1656L812 1409H654L517 1560H513L377 1409H219L435 1656H596Z"/><glyph unicode="ĵ" horiz-adv-x="494" d="M334 -212Q334 -343 259 -416T21 -490Q-22 -490 -61 -484T-120 -470V-338Q-90 -345 -61 -350T2 -355Q97 -355 138 -316T179 -194V950H334V-212ZM333 1473L543 1124H403L256 1370H252L106 1124H-34L176 1473H333Z"/><glyph unicode="Ķ" horiz-adv-x="1239" d="M170 0V1338H333V677H335L950 1338H1151L527 672L1199 0H987L335 655H333V0H170ZM582 -325Q582 -286 559 -269T498 -251V-122Q513 -121 526 -121Q619 -121 673 -163T728 -287Q728 -337 709 -386T649 -490H506Q540 -443 561 -401T582 -325Z"/><glyph unicode="ķ" horiz-adv-x="997" d="M765 950H967L503 513L966 0H773L317 506H315V0H160V1448H315V526H317L765 950ZM477 -325Q477 -286 454 -269T393 -251V-122Q408 -121 421 -121Q514 -121 568 -163T623 -287Q623 -337 604 -386T544 -490H401Q435 -443 456 -401T477 -325Z"/><glyph unicode="ĸ" horiz-adv-x="987" d="M755 950H957L493 482L956 0H763L307 476H305V0H150V950H305V496H307L755 950Z"/><glyph unicode="Ĺ" horiz-adv-x="1066" d="M333 1338V147H986V0H170V1338H333ZM496 1656L315 1409H176L322 1656H496Z"/><glyph unicode="ĺ" horiz-adv-x="475" d="M160 0V1448H315V0H160ZM484 1766L303 1519H164L310 1766H484Z"/><glyph unicode="Ļ" horiz-adv-x="1066" d="M333 1338V147H986V0H170V1338H333ZM546 -325Q546 -286 523 -269T462 -251V-122Q477 -121 490 -121Q583 -121 637 -163T692 -287Q692 -337 673 -386T613 -490H470Q504 -443 525 -401T546 -325Z"/><glyph unicode="ļ" horiz-adv-x="475" d="M160 0V1448H315V0H160ZM483 -325Q483 -286 460 -269T399 -251V-122Q414 -121 427 -121Q520 -121 574 -163T629 -287Q629 -337 610 -386T550 -490H407Q441 -443 462 -401T483 -325Z"/><glyph unicode="Ľ" horiz-adv-x="1066" d="M668 1143Q668 1182 645 1199T584 1217V1346Q600 1347 615 1347Q705 1347 759 1304T814 1181Q814 1130 795 1081T735 978H592Q624 1024 646 1065T668 1143ZM333 1338V147H986V0H170V1338H333Z"/><glyph unicode="ľ" horiz-adv-x="475" d="M160 0V1448H315V0H160ZM499 1245Q499 1284 476 1301T415 1319V1448Q431 1449 446 1449Q536 1449 590 1406T645 1283Q645 1232 626 1183T566 1080H423Q455 1126 477 1167T499 1245Z"/><glyph unicode="Ŀ" horiz-adv-x="1066" d="M333 1338V147H986V0H170V1338H333ZM570 624V797H733V624H570Z"/><glyph unicode="ŀ" horiz-adv-x="638" d="M160 0V1448H315V0H160ZM475 548V721H638V548H475Z"/><glyph unicode="Ł" horiz-adv-x="1066" d="M709 758L333 607V147H986V0H170V543L25 485V636L170 694V1338H333V758L709 909V758Z"/><glyph unicode="ł" horiz-adv-x="475" d="M160 0V618L-9 510V668L160 776V1448H315V868L503 989V831L315 710V0H160Z"/><glyph unicode="Ń" horiz-adv-x="1426" d="M857 592Q980 415 1100 228H1106Q1093 423 1093 626V1338H1256V0H1094L569 746Q433 941 326 1110H320Q333 927 333 683V0H170V1338H332L857 592ZM961 1656L780 1409H641L787 1656H961Z"/><glyph unicode="ń" horiz-adv-x="1080" d="M300 818H303Q329 851 360 879T431 929T516 963T618 975Q683 975 740 957T839 899T905 795T930 636V0H775V611Q775 734 728 788T589 842Q509 842 434 798T305 675V0H150V950H270L300 818ZM798 1473L637 1124H507L630 1473H798Z"/><glyph unicode="Ņ" horiz-adv-x="1426" d="M857 592Q980 415 1100 228H1106Q1093 423 1093 626V1338H1256V0H1094L569 746Q433 941 326 1110H320Q333 927 333 683V0H170V1338H332L857 592ZM692 -325Q692 -286 669 -269T608 -251V-122Q623 -121 636 -121Q729 -121 783 -163T838 -287Q838 -337 819 -386T759 -490H616Q650 -443 671 -401T692 -325Z"/><glyph unicode="ņ" horiz-adv-x="1080" d="M300 818H303Q329 851 360 879T431 929T516 963T618 975Q683 975 740 957T839 899T905 795T930 636V0H775V611Q775 734 728 788T589 842Q509 842 434 798T305 675V0H150V950H270L300 818ZM498 -325Q498 -286 475 -269T414 -251V-122Q429 -121 442 -121Q535 -121 589 -163T644 -287Q644 -337 625 -386T565 -490H422Q456 -443 477 -401T498 -325Z"/><glyph unicode="Ň" horiz-adv-x="1426" d="M857 592Q980 415 1100 228H1106Q1093 423 1093 626V1338H1256V0H1094L569 746Q433 941 326 1110H320Q333 927 333 683V0H170V1338H332L857 592ZM639 1410L423 1657H577L715 1504H719L858 1657H1012L796 1410H639Z"/><glyph unicode="ň" horiz-adv-x="1080" d="M300 818H303Q329 851 360 879T431 929T516 963T618 975Q683 975 740 957T839 899T905 795T930 636V0H775V611Q775 734 728 788T589 842Q509 842 434 798T305 675V0H150V950H270L300 818ZM480 1124L270 1473H410L557 1227H561L707 1473H847L637 1124H480Z"/><glyph unicode="ŉ" horiz-adv-x="1080" d="M300 818H303Q329 851 360 879T431 929T516 963T618 975Q683 975 740 957T839 899T905 795T930 636V0H775V611Q775 734 728 788T589 842Q509 842 434 798T305 675V0H150V950H270L300 818ZM42 1245Q42 1284 19 1301T-42 1319V1448Q-26 1449 -11 1449Q79 1449 133 1406T188 1283Q188 1232 169 1183T109 1080H-34Q-2 1126 20 1167T42 1245Z"/><glyph unicode="Ŋ" horiz-adv-x="1426" d="M1256 -130Q1256 -196 1238 -248T1181 -337T1084 -393T943 -413Q919 -413 896 -411T853 -405V-267Q870 -270 887 -272T924 -274Q1019 -274 1060 -237T1101 -116V-8L569 746Q433 941 326 1110H320Q333 927 333 683V0H170V1338H332L857 592Q980 415 1100 228H1106Q1093 423 1093 626V1338H1256V-130Z"/><glyph unicode="ŋ" horiz-adv-x="1080" d="M617 -413Q593 -413 570 -411T527 -405V-271Q544 -274 561 -276T598 -278Q693 -278 734 -241T775 -120V611Q775 734 728 788T589 842Q509 842 434 798T305 675V0H150V950H270L300 818H303Q329 851 360 879T431 929T516 963T618 975Q683 975 740 957T839 899T905 795T930 636V-130Q930 -196 912 -248T855 -337T758 -393T617 -413Z"/><glyph unicode="Ō" horiz-adv-x="1496" d="M1204 668Q1204 803 1169 906T1073 1078T928 1182T748 1218Q652 1218 569 1183T424 1078T327 906T292 668Q292 533 327 431T424 259T569 155T750 120Q846 120 928 155T1072 259T1169 430T1204 668ZM1376 668Q1376 516 1332 389T1206 170T1009 27T750 -25Q602 -25 485 26T287 170T163 389T120 668Q120 821 164 948T290 1168T488 1311T748 1363Q895 1363 1011 1312T1209 1168T1333 949T1376 668ZM478 1581H1018V1448H478V1581Z"/><glyph unicode="ō" horiz-adv-x="1092" d="M835 474Q835 562 814 630T754 746T662 818T546 843Q483 843 430 819T339 747T279 631T257 474Q257 387 278 319T339 203T431 132T547 107Q610 107 662 131T753 203T813 318T835 474ZM997 474Q997 362 965 270T875 113T733 11T547 -25Q441 -25 358 11T216 112T126 270T95 474Q95 587 127 679T217 837T359 939T546 975Q651 975 735 939T877 837T966 679T997 474ZM274 1300H814V1171H274V1300Z"/><glyph unicode="Ŏ" horiz-adv-x="1496" d="M1204 668Q1204 803 1169 906T1073 1078T928 1182T748 1218Q652 1218 569 1183T424 1078T327 906T292 668Q292 533 327 431T424 259T569 155T750 120Q846 120 928 155T1072 259T1169 430T1204 668ZM1376 668Q1376 516 1332 389T1206 170T1009 27T750 -25Q602 -25 485 26T287 170T163 389T120 668Q120 821 164 948T290 1168T488 1311T748 1363Q895 1363 1011 1312T1209 1168T1333 949T1376 668ZM750 1530Q778 1530 806 1537T859 1562T900 1605T923 1670H1056Q1049 1606 1023 1558T957 1476T863 1426T750 1409Q690 1409 637 1426T544 1476T477 1557T444 1670H577Q583 1632 600 1606T641 1562T693 1538T750 1530Z"/><glyph unicode="ŏ" horiz-adv-x="1092" d="M835 474Q835 562 814 630T754 746T662 818T546 843Q483 843 430 819T339 747T279 631T257 474Q257 387 278 319T339 203T431 132T547 107Q610 107 662 131T753 203T813 318T835 474ZM997 474Q997 362 965 270T875 113T733 11T547 -25Q441 -25 358 11T216 112T126 270T95 474Q95 587 127 679T217 837T359 939T546 975Q651 975 735 939T877 837T966 679T997 474ZM540 1257Q614 1257 657 1299T715 1432H846Q842 1368 821 1314T761 1221T667 1159T540 1136Q469 1136 414 1158T320 1220T260 1314T234 1432H365Q379 1341 422 1299T540 1257Z"/><glyph unicode="Ő" horiz-adv-x="1496" d="M1204 668Q1204 803 1169 906T1073 1078T928 1182T748 1218Q652 1218 569 1183T424 1078T327 906T292 668Q292 533 327 431T424 259T569 155T750 120Q846 120 928 155T1072 259T1169 430T1204 668ZM1376 668Q1376 516 1332 389T1206 170T1009 27T750 -25Q602 -25 485 26T287 170T163 389T120 668Q120 821 164 948T290 1168T488 1311T748 1363Q895 1363 1011 1312T1209 1168T1333 949T1376 668ZM838 1656L667 1409H528L664 1656H838ZM1145 1656L954 1409H815L971 1656H1145Z"/><glyph unicode="ő" horiz-adv-x="1092" d="M835 474Q835 562 814 630T754 746T662 818T546 843Q483 843 430 819T339 747T279 631T257 474Q257 387 278 319T339 203T431 132T547 107Q610 107 662 131T753 203T813 318T835 474ZM997 474Q997 362 965 270T875 113T733 11T547 -25Q441 -25 358 11T216 112T126 270T95 474Q95 587 127 679T217 837T359 939T546 975Q651 975 735 939T877 837T966 679T997 474ZM621 1473L464 1124H335L458 1473H621ZM932 1473L755 1124H625L768 1473H932Z"/><glyph unicode="Œ" horiz-adv-x="2163" d="M1367 147H2053V0H1204V205H1200Q1127 98 1014 37T744 -25Q600 -25 485 26T288 170T164 389T120 668Q120 821 164 948T290 1168T486 1311T741 1363Q895 1363 1012 1302T1200 1137H1204V1338H2016V1191H1367V759H1944V612H1367V147ZM1204 668Q1204 803 1169 906T1073 1078T928 1182T748 1218Q652 1218 569 1183T424 1078T327 906T292 668Q292 533 327 431T424 259T569 155T750 120Q846 120 928 155T1072 259T1169 430T1204 668Z"/><glyph unicode="œ" horiz-adv-x="1759" d="M1347 110Q1424 110 1487 122T1614 158V29Q1563 4 1488 -10T1327 -25Q1255 -25 1192 -13T1075 27T979 97T909 200H905Q854 96 763 36T543 -25Q438 -25 355 11T215 112T126 270T95 474Q95 587 126 679T216 837T357 939T542 975Q675 975 767 912T909 743H913Q967 860 1060 917T1268 975Q1352 975 1425 945T1549 851T1625 698T1649 505Q1649 475 1647 443H995Q995 352 1022 289T1097 186T1209 128T1347 110ZM835 474Q835 562 814 630T754 746T662 818T546 843Q483 843 430 819T339 747T279 631T257 474Q257 387 278 319T339 203T431 132T547 107Q610 107 662 131T753 203T813 318T835 474ZM1262 842Q1209 842 1164 821T1084 764T1029 680T1003 576H1483Q1483 632 1469 680T1426 765T1357 821T1262 842Z"/><glyph unicode="Ŕ" horiz-adv-x="1212" d="M333 554V0H170V1338H517Q605 1338 666 1332T779 1311Q919 1273 993 1182T1067 953Q1067 872 1041 808T968 697T856 620T710 576V572L1147 0H942L530 554H333ZM333 1191V701H494Q569 701 622 706T717 724Q802 750 848 807T894 956Q893 1042 850 1094T731 1170Q695 1181 645 1186T518 1191H333ZM778 1656L597 1409H458L604 1656H778Z"/><glyph unicode="ŕ" horiz-adv-x="686" d="M594 1473L433 1124H303L426 1473H594ZM671 824H659Q604 824 551 814T452 784T368 733T305 662V0H150V950H270L300 799H303Q326 836 359 868T435 924T527 961T632 975Q642 975 652 975T671 973V824Z"/><glyph unicode="Ŗ" horiz-adv-x="1212" d="M333 554V0H170V1338H517Q605 1338 666 1332T779 1311Q919 1273 993 1182T1067 953Q1067 872 1041 808T968 697T856 620T710 576V572L1147 0H942L530 554H333ZM333 1191V701H494Q569 701 622 706T717 724Q802 750 848 807T894 956Q893 1042 850 1094T731 1170Q695 1181 645 1186T518 1191H333ZM608 -325Q608 -286 585 -269T524 -251V-122Q539 -121 552 -121Q645 -121 699 -163T754 -287Q754 -337 735 -386T675 -490H532Q566 -443 587 -401T608 -325Z"/><glyph unicode="ŗ" horiz-adv-x="686" d="M498 -325Q498 -286 475 -269T414 -251V-122Q429 -121 442 -121Q535 -121 589 -163T644 -287Q644 -337 625 -386T565 -490H422Q456 -443 477 -401T498 -325ZM671 824H659Q604 824 551 814T452 784T368 733T305 662V0H150V950H270L300 799H303Q326 836 359 868T435 924T527 961T632 975Q642 975 652 975T671 973V824Z"/><glyph unicode="Ř" horiz-adv-x="1212" d="M333 554V0H170V1338H517Q605 1338 666 1332T779 1311Q919 1273 993 1182T1067 953Q1067 872 1041 808T968 697T856 620T710 576V572L1147 0H942L530 554H333ZM333 1191V701H494Q569 701 622 706T717 724Q802 750 848 807T894 956Q893 1042 850 1094T731 1170Q695 1181 645 1186T518 1191H333ZM485 1410L269 1657H423L561 1504H565L704 1657H858L642 1410H485Z"/><glyph unicode="ř" horiz-adv-x="686" d="M313 1124L103 1473H243L390 1227H394L540 1473H680L470 1124H313ZM671 824H659Q604 824 551 814T452 784T368 733T305 662V0H150V950H270L300 799H303Q326 836 359 868T435 924T527 961T632 975Q642 975 652 975T671 973V824Z"/><glyph unicode="Ś" horiz-adv-x="1130" d="M294 984Q294 925 318 887T382 823T476 782T588 752Q666 733 741 710T876 647T971 541T1008 374Q1008 270 970 195T863 71T699 -1T491 -25Q439 -25 385 -19T281 -1T191 24T128 52V201Q164 183 209 168T302 143T399 126T491 120Q561 120 624 132T736 172T812 248T840 370Q840 430 816 469T750 533T656 575T543 605Q465 623 391 645T258 708T164 811T128 972Q128 1074 164 1147T262 1269T407 1340T584 1363Q691 1363 783 1343T953 1289V1138Q870 1173 782 1195T592 1218Q516 1218 460 1202T367 1155T312 1081T294 984ZM839 1656L658 1409H519L665 1656H839Z"/><glyph unicode="ś" horiz-adv-x="828" d="M639 1473L478 1124H348L471 1473H639ZM250 697Q250 658 267 633T312 593T378 567T456 549Q511 537 560 523T650 479T717 401T743 272Q743 200 715 145T636 52T514 -5T358 -25Q306 -25 264 -20T189 -6T133 12T95 29V159Q155 135 214 121T344 107Q400 107 445 117T522 146T572 195T590 264Q590 304 574 330T531 373T469 401T394 421Q343 432 291 447T195 489T126 562T99 682Q99 757 126 812T199 903T306 957T435 975Q514 975 581 960T704 922V790Q644 813 583 827T456 843Q401 843 362 832T298 802T262 756T250 697Z"/><glyph unicode="Ŝ" horiz-adv-x="1130" d="M294 984Q294 925 318 887T382 823T476 782T588 752Q666 733 741 710T876 647T971 541T1008 374Q1008 270 970 195T863 71T699 -1T491 -25Q439 -25 385 -19T281 -1T191 24T128 52V201Q164 183 209 168T302 143T399 126T491 120Q561 120 624 132T736 172T812 248T840 370Q840 430 816 469T750 533T656 575T543 605Q465 623 391 645T258 708T164 811T128 972Q128 1074 164 1147T262 1269T407 1340T584 1363Q691 1363 783 1343T953 1289V1138Q870 1173 782 1195T592 1218Q516 1218 460 1202T367 1155T312 1081T294 984ZM653 1656L869 1409H711L574 1560H570L434 1409H276L492 1656H653Z"/><glyph unicode="ŝ" horiz-adv-x="828" d="M498 1473L708 1124H568L421 1370H417L271 1124H131L341 1473H498ZM250 697Q250 658 267 633T312 593T378 567T456 549Q511 537 560 523T650 479T717 401T743 272Q743 200 715 145T636 52T514 -5T358 -25Q306 -25 264 -20T189 -6T133 12T95 29V159Q155 135 214 121T344 107Q400 107 445 117T522 146T572 195T590 264Q590 304 574 330T531 373T469 401T394 421Q343 432 291 447T195 489T126 562T99 682Q99 757 126 812T199 903T306 957T435 975Q514 975 581 960T704 922V790Q644 813 583 827T456 843Q401 843 362 832T298 802T262 756T250 697Z"/><glyph unicode="Ş" horiz-adv-x="1130" d="M440 -23Q393 -20 346 -13T257 4T182 27T128 52V201Q164 183 209 168T302 143T399 126T491 120Q561 120 624 131T736 171T812 248T840 370Q840 430 816 469T750 533T656 575T543 605Q465 623 391 646T258 708T164 811T128 972Q128 1074 164 1147T262 1269T407 1340T584 1363Q693 1363 784 1343T953 1289V1138Q870 1173 782 1195T592 1218Q516 1218 460 1202T367 1155T312 1081T294 984Q294 925 318 887T382 823T476 782T588 752Q666 733 741 710T876 647T971 541T1008 374Q1008 278 976 207T884 87T743 12T562 -22L534 -126Q574 -132 607 -144T665 -177T702 -225T715 -291Q715 -343 692 -380T631 -442T542 -478T438 -490Q395 -490 361 -485T305 -471V-358Q317 -362 332 -365T364 -370T396 -374T424 -375Q453 -375 480 -372T530 -359T565 -334T579 -294Q579 -273 565 -259T526 -235T464 -222T382 -215L440 -23Z"/><glyph unicode="ş" horiz-adv-x="828" d="M743 272Q743 209 721 158T659 71T563 11T437 -20L408 -126Q448 -132 481 -144T539 -177T576 -225T589 -291Q589 -343 566 -380T505 -442T416 -478T312 -490Q271 -490 236 -485T179 -471V-358Q191 -362 206 -365T239 -370T271 -374T298 -375Q327 -375 354 -372T404 -359T439 -334T453 -294Q453 -273 439 -259T400 -235T338 -222T256 -215L314 -24Q230 -19 177 -4T95 29V159Q156 134 215 121T344 107Q400 107 445 117T522 146T572 195T590 264Q590 304 574 330T531 373T469 401T394 421Q343 432 291 447T195 489T126 562T99 682Q99 757 126 812T199 903T306 957T435 975Q514 975 581 960T704 922V790Q644 813 583 827T456 843Q401 843 362 832T298 802T262 756T250 697Q250 658 267 633T312 593T378 567T456 549Q511 537 560 523T650 479T717 401T743 272Z"/><glyph unicode="Š" horiz-adv-x="1130" d="M294 984Q294 925 318 887T382 823T476 782T588 752Q666 733 741 710T876 647T971 541T1008 374Q1008 270 970 195T863 71T699 -1T491 -25Q439 -25 385 -19T281 -1T191 24T128 52V201Q164 183 209 168T302 143T399 126T491 120Q561 120 624 132T736 172T812 248T840 370Q840 430 816 469T750 533T656 575T543 605Q465 623 391 645T258 708T164 811T128 972Q128 1074 164 1147T262 1269T407 1340T584 1363Q691 1363 783 1343T953 1289V1138Q870 1173 782 1195T592 1218Q516 1218 460 1202T367 1155T312 1081T294 984ZM509 1410L293 1657H447L585 1504H589L728 1657H882L666 1410H509Z"/><glyph unicode="š" horiz-adv-x="828" d="M351 1124L141 1473H281L428 1227H432L578 1473H718L508 1124H351ZM250 697Q250 658 267 633T312 593T378 567T456 549Q511 537 560 523T650 479T717 401T743 272Q743 200 715 145T636 52T514 -5T358 -25Q306 -25 264 -20T189 -6T133 12T95 29V159Q155 135 214 121T344 107Q400 107 445 117T522 146T572 195T590 264Q590 304 574 330T531 373T469 401T394 421Q343 432 291 447T195 489T126 562T99 682Q99 757 126 812T199 903T306 957T435 975Q514 975 581 960T704 922V790Q644 813 583 827T456 843Q401 843 362 832T298 802T262 756T250 697Z"/><glyph unicode="Ţ" horiz-adv-x="1137" d="M650 0H487V1191H40V1338H1097V1191H650V0ZM541 -325Q541 -286 518 -269T457 -251V-122Q472 -121 485 -121Q578 -121 632 -163T687 -287Q687 -337 668 -386T608 -490H465Q499 -443 520 -401T541 -325Z"/><glyph unicode="ţ" horiz-adv-x="711" d="M651 -2Q631 -10 590 -17T492 -25Q417 -25 362 -7T271 46T216 130T198 239V817H15V950H198V1210H353V950H637V817H353V263Q353 230 362 202T392 154T445 122T522 110Q553 110 587 115T651 128V-2ZM365 -325Q365 -286 342 -269T281 -251V-122Q296 -121 309 -121Q402 -121 456 -163T511 -287Q511 -337 492 -386T432 -490H289Q323 -443 344 -401T365 -325Z"/><glyph unicode="Ť" horiz-adv-x="1137" d="M650 0H487V1191H40V1338H1097V1191H650V0ZM485 1410L269 1657H423L561 1504H565L704 1657H858L642 1410H485Z"/><glyph unicode="ť" horiz-adv-x="711" d="M651 -2Q631 -10 590 -17T492 -25Q417 -25 362 -7T271 46T216 130T198 239V817H15V950H198V1210H353V950H637V817H353V263Q353 230 362 202T392 154T445 122T522 110Q553 110 587 115T651 128V-2ZM609 1245Q609 1284 586 1301T525 1319V1448Q541 1449 556 1449Q646 1449 700 1406T755 1283Q755 1232 736 1183T676 1080H533Q565 1126 587 1167T609 1245Z"/><glyph unicode="Ŧ" horiz-adv-x="1137" d="M250 759H487V1191H40V1338H1097V1191H650V759H892V612H650V0H487V612H250V759Z"/><glyph unicode="ŧ" horiz-adv-x="711" d="M651 -2Q630 -10 587 -17T492 -25Q417 -25 362 -7T271 46T216 130T198 239V468H15V601H198V817H15V950H198V1210H353V950H637V817H353V601H586V468H353V263Q353 230 362 203T392 154T445 122T522 110Q551 110 586 115T651 128V-2Z"/><glyph unicode="Ũ" horiz-adv-x="1374" d="M687 120Q760 120 816 137T915 185T985 259T1028 356Q1038 389 1042 429T1046 508V1338H1209V512Q1209 465 1204 414T1188 319Q1169 245 1131 182T1032 73T886 1T685 -25Q575 -25 492 -1T350 65T252 166T193 294Q178 344 172 401T165 512V1338H328V508Q328 463 334 416T355 329Q390 232 471 176T687 120ZM551 1641Q592 1641 631 1627T703 1595T765 1563T821 1548Q855 1548 868 1571T882 1633H1007V1611Q1007 1578 1000 1545T973 1483T919 1438T837 1421Q796 1421 757 1435T685 1467T623 1499T567 1514Q533 1514 520 1491T506 1429H381V1443Q380 1478 387 1515T415 1580T469 1625T551 1641Z"/><glyph unicode="ũ" horiz-adv-x="1060" d="M527 -25Q453 -25 394 -9T291 36T215 105T166 194Q152 230 146 273T140 367V950H295V368Q295 289 316 236Q340 176 393 142T530 107Q618 107 671 145T748 247Q765 296 765 368V950H920V366Q920 318 915 277T897 200Q879 151 848 110T770 38T664 -8T527 -25ZM222 1178V1201Q222 1235 229 1268T256 1329T309 1373T390 1390Q431 1390 470 1376T542 1343T606 1310T662 1295Q693 1295 707 1317T722 1382H844V1359Q844 1325 837 1292T810 1231T757 1187T676 1170Q635 1170 596 1184T524 1217T460 1250T404 1265Q373 1265 359 1243T344 1178H222Z"/><glyph unicode="Ū" horiz-adv-x="1374" d="M687 120Q760 120 816 137T915 185T985 259T1028 356Q1038 389 1042 429T1046 508V1338H1209V512Q1209 465 1204 414T1188 319Q1169 245 1131 182T1032 73T886 1T685 -25Q575 -25 492 -1T350 65T252 166T193 294Q178 344 172 401T165 512V1338H328V508Q328 463 334 416T355 329Q390 232 471 176T687 120ZM417 1581H957V1448H417V1581Z"/><glyph unicode="ū" horiz-adv-x="1060" d="M527 -25Q453 -25 394 -9T291 36T215 105T166 194Q152 230 146 273T140 367V950H295V368Q295 289 316 236Q340 176 393 142T530 107Q618 107 671 145T748 247Q765 296 765 368V950H920V366Q920 318 915 277T897 200Q879 151 848 110T770 38T664 -8T527 -25ZM261 1300H801V1171H261V1300Z"/><glyph unicode="Ŭ" horiz-adv-x="1374" d="M687 120Q760 120 816 137T915 185T985 259T1028 356Q1038 389 1042 429T1046 508V1338H1209V512Q1209 465 1204 414T1188 319Q1169 245 1131 182T1032 73T886 1T685 -25Q575 -25 492 -1T350 65T252 166T193 294Q178 344 172 401T165 512V1338H328V508Q328 463 334 416T355 329Q390 232 471 176T687 120ZM684 1530Q712 1530 740 1537T793 1562T834 1605T857 1670H990Q983 1606 957 1558T891 1476T797 1426T684 1409Q624 1409 571 1426T478 1476T411 1557T378 1670H511Q517 1632 534 1606T575 1562T627 1538T684 1530Z"/><glyph unicode="ŭ" horiz-adv-x="1060" d="M527 -25Q453 -25 394 -9T291 36T215 105T166 194Q152 230 146 273T140 367V950H295V368Q295 289 316 236Q340 176 393 142T530 107Q618 107 671 145T748 247Q765 296 765 368V950H920V366Q920 318 915 277T897 200Q879 151 848 110T770 38T664 -8T527 -25ZM526 1257Q600 1257 643 1299T701 1432H832Q828 1368 807 1314T747 1221T653 1159T526 1136Q455 1136 400 1158T306 1220T246 1314T220 1432H351Q365 1341 408 1299T526 1257Z"/><glyph unicode="Ů" horiz-adv-x="1374" d="M687 120Q760 120 816 137T915 185T985 259T1028 356Q1038 389 1042 429T1046 508V1338H1209V512Q1209 465 1204 414T1188 319Q1169 245 1131 182T1032 73T886 1T685 -25Q575 -25 492 -1T350 65T252 166T193 294Q178 344 172 401T165 512V1338H328V508Q328 463 334 416T355 329Q390 232 471 176T687 120ZM686 1376Q638 1376 596 1388T524 1425T475 1484T457 1563Q457 1607 475 1642T523 1701T596 1737T686 1750Q734 1750 776 1738T848 1701T897 1642T915 1563Q915 1519 897 1484T849 1425T776 1389T686 1376ZM686 1652Q641 1652 611 1630T580 1563Q580 1519 610 1497T686 1474Q731 1474 761 1496T792 1563Q792 1607 762 1629T686 1652Z"/><glyph unicode="ů" horiz-adv-x="1060" d="M527 -25Q453 -25 394 -9T291 36T215 105T166 194Q152 230 146 273T140 367V950H295V368Q295 289 316 236Q340 176 393 142T530 107Q618 107 671 145T748 247Q765 296 765 368V950H920V366Q920 318 915 277T897 200Q879 151 848 110T770 38T664 -8T527 -25ZM531 1100Q483 1100 441 1113T369 1152T320 1213T302 1295Q302 1341 320 1377T368 1438T441 1476T531 1490Q579 1490 621 1477T693 1438T742 1377T760 1295Q760 1249 742 1213T694 1152T621 1114T531 1100ZM531 1392Q486 1392 456 1367T425 1295Q425 1248 455 1223T531 1198Q576 1198 606 1223T637 1295Q637 1342 607 1367T531 1392Z"/><glyph unicode="Ű" horiz-adv-x="1374" d="M687 120Q760 120 816 137T915 185T985 259T1028 356Q1038 389 1042 429T1046 508V1338H1209V512Q1209 465 1204 414T1188 319Q1169 245 1131 182T1032 73T886 1T685 -25Q575 -25 492 -1T350 65T252 166T193 294Q178 344 172 401T165 512V1338H328V508Q328 463 334 416T355 329Q390 232 471 176T687 120ZM770 1656L599 1409H460L596 1656H770ZM1077 1656L886 1409H747L903 1656H1077Z"/><glyph unicode="ű" horiz-adv-x="1060" d="M527 -25Q453 -25 394 -9T291 36T215 105T166 194Q152 230 146 273T140 367V950H295V368Q295 289 316 236Q340 176 393 142T530 107Q618 107 671 145T748 247Q765 296 765 368V950H920V366Q920 318 915 277T897 200Q879 151 848 110T770 38T664 -8T527 -25ZM597 1473L440 1124H311L434 1473H597ZM908 1473L731 1124H601L744 1473H908Z"/><glyph unicode="Ų" horiz-adv-x="1374" d="M785 -12Q765 -16 732 -20T669 -24Q565 -24 486 -1T348 65T252 166T193 294Q178 344 172 401T165 512V1338H328V508Q328 463 334 416T355 329Q390 233 470 177T687 120Q760 120 816 137T915 185T985 259T1028 356Q1038 389 1042 429T1046 508V1338H1209V490Q1209 420 1198 363T1166 257T1117 170T1053 96Q1005 50 956 8T867 -76T802 -164T776 -263Q776 -311 803 -333T879 -355Q907 -355 938 -350T1006 -332V-460Q977 -473 938 -481T849 -490Q801 -490 762 -479T694 -444T649 -387T633 -307Q633 -268 644 -228T677 -151T726 -79T787 -17L785 -12Z"/><glyph unicode="ų" horiz-adv-x="1060" d="M641 5Q615 -8 581 -15T504 -23Q443 -23 389 -8T292 36T216 104T166 194Q152 230 146 273T140 367V950H295V368Q295 289 316 236Q340 176 394 142T530 107Q616 107 670 144T748 247Q765 296 765 368V950H920V366Q920 300 908 250T872 156T815 72T741 -17Q716 -46 694 -74T655 -133T628 -195T618 -263Q618 -311 645 -333T721 -355Q749 -355 780 -350T848 -332V-460Q819 -473 780 -481T691 -490Q643 -490 604 -479T536 -444T491 -387T475 -307Q475 -266 487 -223T522 -140T576 -63T643 2L641 5Z"/><glyph unicode="Ŵ" horiz-adv-x="1806" d="M901 1117Q885 1025 826 795L618 0H452L40 1338H211L437 553Q491 364 529 213H533Q553 306 576 394T618 551L822 1338H984L1188 551Q1263 267 1273 213H1277Q1311 353 1369 553L1595 1338H1766L1354 0H1188L980 795Q923 1017 905 1117H901ZM982 1656L1198 1409H1040L903 1560H899L763 1409H605L821 1656H982Z"/><glyph unicode="ŵ" horiz-adv-x="1458" d="M726 793Q695 662 668 567L512 0H353L40 950H197L373 358Q408 241 426 171H430Q446 243 483 379L642 950H816L975 379Q1007 263 1028 171H1032Q1056 263 1085 358L1261 950H1418L1105 0H944L788 567Q760 668 730 793H726ZM806 1473L1016 1124H876L729 1370H725L579 1124H439L649 1473H806Z"/><glyph unicode="Ŷ" horiz-adv-x="1217" d="M690 538V0H527V538L40 1338H218L606 688H611L999 1338H1177L690 538ZM690 1656L906 1409H748L611 1560H607L471 1409H313L529 1656H690Z"/><glyph unicode="ŷ" horiz-adv-x="982" d="M30 950H189L484 205H490L789 950H952L359 -465H205L408 19L30 950ZM565 1473L775 1124H635L488 1370H484L338 1124H198L408 1473H565Z"/><glyph unicode="Ÿ" horiz-adv-x="1217" d="M690 538V0H527V538L40 1338H218L606 688H611L999 1338H1177L690 538ZM337 1448V1617H498V1448H337ZM720 1448V1617H881V1448H720Z"/><glyph unicode="Ź" horiz-adv-x="1199" d="M1090 1338V1236L314 147H1099V0H100V102L878 1191H118V1338H1090ZM822 1656L641 1409H502L648 1656H822Z"/><glyph unicode="ź" horiz-adv-x="910" d="M608 813V817H86V950H805V852L277 137V133H840V0H70V84L608 813ZM650 1473L489 1124H359L482 1473H650Z"/><glyph unicode="Ż" horiz-adv-x="1199" d="M1090 1338V1236L314 147H1099V0H100V102L878 1191H118V1338H1090ZM507 1448V1621H670V1448H507Z"/><glyph unicode="ż" horiz-adv-x="910" d="M608 813V817H86V950H805V852L277 137V133H840V0H70V84L608 813ZM359 1171V1344H522V1171H359Z"/><glyph unicode="Ž" horiz-adv-x="1199" d="M1090 1338V1236L314 147H1099V0H100V102L878 1191H118V1338H1090ZM509 1410L293 1657H447L585 1504H589L728 1657H882L666 1410H509Z"/><glyph unicode="ž" horiz-adv-x="910" d="M608 813V817H86V950H805V852L277 137V133H840V0H70V84L608 813ZM361 1124L151 1473H291L438 1227H442L588 1473H728L518 1124H361Z"/><glyph unicode="ſ" horiz-adv-x="585" d="M160 1096Q160 1198 187 1268T262 1384T372 1451T509 1473Q544 1473 578 1469T635 1460V1329Q607 1334 579 1336T531 1338Q480 1338 440 1325T372 1284T330 1209T315 1096V0H160V1096Z"/><glyph unicode="ƒ" horiz-adv-x="1050" d="M195 822H430Q441 930 466 1028T537 1200T652 1319T822 1363Q844 1363 871 1360T916 1350V1220Q897 1224 876 1226T837 1228Q777 1228 735 1202T663 1124T615 996T585 822H844V685H570Q547 434 518 243T437 -77T305 -271T102 -337Q74 -337 51 -333T14 -324V-194Q30 -198 49 -200T86 -202Q161 -202 213 -155T304 -1T368 274T416 685H195V822Z"/><glyph unicode="Ǻ" horiz-adv-x="1301" d="M918 1943L729 1744H602L738 1943H918ZM646 1363Q598 1363 556 1374T484 1408T435 1464T417 1540Q417 1583 435 1616T483 1671T556 1705T646 1717Q694 1717 736 1706T808 1672T857 1616T875 1540Q875 1497 857 1464T809 1409T736 1375T646 1363ZM646 1619Q602 1619 571 1600T540 1540Q540 1499 571 1480T646 1461Q690 1461 721 1480T752 1540Q752 1581 721 1600T646 1619ZM35 0L580 1338H721L1266 0H1089L929 403H370L210 0H35ZM649 1130Q560 880 478 676L428 550H871L821 676Q739 884 653 1130H649Z"/><glyph unicode="ǻ" horiz-adv-x="1003" d="M755 1774L554 1518H427L575 1774H755ZM487 1086Q439 1086 397 1098T325 1135T276 1194T258 1273Q258 1317 276 1352T324 1411T397 1447T487 1460Q535 1460 577 1448T649 1411T698 1352T716 1273Q716 1229 698 1194T650 1135T577 1099T487 1086ZM487 1362Q442 1362 412 1340T381 1273Q381 1228 411 1206T487 1184Q532 1184 562 1206T593 1273Q593 1318 563 1340T487 1362ZM706 105H702Q683 81 654 58T587 16T504 -14T408 -25Q339 -25 282 -5T183 55T118 152T95 281Q95 352 120 408T192 503T302 563T445 584Q519 583 582 571T694 541H698V607Q698 646 693 676T676 729Q650 777 593 808T439 840Q367 840 304 827T177 789V919Q201 931 233 941T302 959T378 971T458 975Q602 975 693 924T825 789Q840 757 846 719T853 634V0H723L706 105ZM698 417Q655 429 596 440T466 452Q367 452 311 410T255 281Q255 237 269 204T307 150T365 118T437 107Q487 107 530 121T606 156T663 196T698 227V417Z"/><glyph unicode="Ǽ" horiz-adv-x="1814" d="M1120 147H1734V0H982L930 401H416L205 0H30L738 1338H1624V1191H986L1042 759H1562V612H1061L1120 147ZM493 550H911L831 1191H827L493 550ZM1387 1656L1206 1409H1067L1213 1656H1387Z"/><glyph unicode="ǽ" horiz-adv-x="1592" d="M458 975Q529 975 581 963T673 927T740 873T789 804H793Q848 888 926 931T1105 975Q1188 975 1260 945T1383 851T1458 696T1481 495Q1481 472 1480 443H848Q848 352 872 289T940 186T1045 128T1180 110Q1255 110 1319 122T1447 158V29Q1396 4 1321 -11T1160 -25Q1045 -22 953 11T798 120H794Q766 94 731 68T652 22T554 -12T435 -25Q356 -25 293 -5T186 55T119 152T95 281Q95 352 120 408T192 503T302 563T445 584Q521 584 583 572T695 541H699V599Q699 715 639 777T439 840Q367 840 304 827T177 789V919Q202 931 232 941T300 958T377 970T458 975ZM450 107Q501 107 545 118T625 146T688 185T734 228Q703 306 697 416Q657 427 593 439T466 452Q367 452 311 410T255 281Q255 237 269 204T309 150T371 118T450 107ZM1095 842Q1042 842 1000 821T926 764T877 680T853 576H1316Q1316 632 1302 680T1259 765T1190 821T1095 842ZM1027 1473L866 1124H736L859 1473H1027Z"/><glyph unicode="Ǿ" horiz-adv-x="1496" d="M120 71L250 217Q186 306 153 420T120 668Q120 821 164 948T290 1168T488 1311T748 1363Q869 1363 969 1328T1147 1228L1267 1363L1376 1268L1246 1121Q1309 1032 1342 918T1376 668Q1376 516 1332 389T1206 170T1009 27T750 -25Q627 -25 527 10T348 110L228 -25L120 71ZM1204 668Q1204 767 1185 847T1131 992L454 229Q514 175 589 148T750 120Q846 120 928 155T1072 259T1169 430T1204 668ZM292 668Q292 569 310 489T364 345L1041 1109Q982 1163 908 1190T748 1218Q652 1218 569 1183T424 1078T327 906T292 668ZM1004 1656L823 1409H684L830 1656H1004Z"/><glyph unicode="ǿ" horiz-adv-x="1092" d="M95 60L180 157Q138 220 117 299T95 474Q95 587 127 679T217 837T359 939T546 975Q629 975 698 953T822 888L898 975L997 890L911 792Q953 729 975 649T997 474Q997 362 965 270T875 113T733 11T547 -25Q463 -25 394 -3T270 61L194 -25L95 60ZM257 474Q257 365 291 283L724 776Q651 843 546 843Q483 843 430 819T339 747T279 631T257 474ZM835 474Q835 530 826 578T800 666L368 173Q442 107 547 107Q610 107 662 131T753 203T813 318T835 474ZM783 1473L622 1124H492L615 1473H783Z"/><glyph unicode="Ș" horiz-adv-x="1130" d="M294 984Q294 925 318 887T382 823T476 782T588 752Q666 733 741 710T876 647T971 541T1008 374Q1008 270 970 195T863 71T699 -1T491 -25Q439 -25 385 -19T281 -1T191 24T128 52V201Q164 183 209 168T302 143T399 126T491 120Q561 120 624 132T736 172T812 248T840 370Q840 430 816 469T750 533T656 575T543 605Q465 623 391 645T258 708T164 811T128 972Q128 1074 164 1147T262 1269T407 1340T584 1363Q691 1363 783 1343T953 1289V1138Q870 1173 782 1195T592 1218Q516 1218 460 1202T367 1155T312 1081T294 984ZM504 -325Q504 -286 481 -269T420 -251V-122Q435 -121 448 -121Q541 -121 595 -163T650 -287Q650 -337 631 -386T571 -490H428Q462 -443 483 -401T504 -325Z"/><glyph unicode="ș" horiz-adv-x="828" d="M367 -325Q367 -286 344 -269T283 -251V-122Q298 -121 311 -121Q404 -121 458 -163T513 -287Q513 -337 494 -386T434 -490H291Q325 -443 346 -401T367 -325ZM250 697Q250 658 267 633T312 593T378 567T456 549Q511 537 560 523T650 479T717 401T743 272Q743 200 715 145T636 52T514 -5T358 -25Q306 -25 264 -20T189 -6T133 12T95 29V159Q155 135 214 121T344 107Q400 107 445 117T522 146T572 195T590 264Q590 304 574 330T531 373T469 401T394 421Q343 432 291 447T195 489T126 562T99 682Q99 757 126 812T199 903T306 957T435 975Q514 975 581 960T704 922V790Q644 813 583 827T456 843Q401 843 362 832T298 802T262 756T250 697Z"/><glyph unicode="Ț" horiz-adv-x="1137" d="M650 0H487V1191H40V1338H1097V1191H650V0ZM541 -325Q541 -286 518 -269T457 -251V-122Q472 -121 485 -121Q578 -121 632 -163T687 -287Q687 -337 668 -386T608 -490H465Q499 -443 520 -401T541 -325Z"/><glyph unicode="ț" horiz-adv-x="711" d="M651 -2Q631 -10 590 -17T492 -25Q417 -25 362 -7T271 46T216 130T198 239V817H15V950H198V1210H353V950H637V817H353V263Q353 230 362 202T392 154T445 122T522 110Q553 110 587 115T651 128V-2ZM365 -325Q365 -286 342 -269T281 -251V-122Q296 -121 309 -121Q402 -121 456 -163T511 -287Q511 -337 492 -386T432 -490H289Q323 -443 344 -401T365 -325Z"/><glyph unicode="ˆ" horiz-adv-x="700" d="M428 1473L638 1124H498L351 1370H347L201 1124H61L271 1473H428Z"/><glyph unicode="ˇ" horiz-adv-x="700" d="M272 1124L62 1473H202L349 1227H353L499 1473H639L429 1124H272Z"/><glyph unicode="ˉ" horiz-adv-x="700" d="M80 1300H620V1171H80V1300Z"/><glyph unicode="˘" horiz-adv-x="700" d="M350 1257Q424 1257 467 1299T525 1432H656Q652 1368 631 1314T571 1221T477 1159T350 1136Q279 1136 224 1158T130 1220T70 1314T44 1432H175Q189 1341 232 1299T350 1257Z"/><glyph unicode="˙" horiz-adv-x="700" d="M268 1171V1344H431V1171H268Z"/><glyph unicode="˚" horiz-adv-x="700" d="M350 1100Q302 1100 260 1113T188 1152T139 1213T121 1295Q121 1341 139 1377T187 1438T260 1476T350 1490Q398 1490 440 1477T512 1438T561 1377T579 1295Q579 1249 561 1213T513 1152T440 1114T350 1100ZM350 1392Q305 1392 275 1367T244 1295Q244 1248 274 1223T350 1198Q395 1198 425 1223T456 1295Q456 1342 426 1367T350 1392Z"/><glyph unicode="˛" horiz-adv-x="700" d="M577 29Q540 3 495 -32T412 -109T347 -193T321 -277Q321 -355 412 -355Q442 -355 473 -350T542 -332V-460Q513 -473 472 -481T383 -490Q285 -490 232 -446T178 -315Q178 -262 201 -213T262 -120T344 -39T432 29H577Z"/><glyph unicode="˜" horiz-adv-x="700" d="M39 1178V1201Q39 1235 46 1268T73 1329T126 1373T207 1390Q248 1390 287 1376T359 1343T423 1310T479 1295Q510 1295 524 1317T539 1382H661V1359Q661 1325 654 1292T627 1231T574 1187T493 1170Q452 1170 413 1184T341 1217T277 1250T221 1265Q190 1265 176 1243T161 1178H39Z"/><glyph unicode="˝" horiz-adv-x="700" d="M346 1473L189 1124H60L183 1473H346ZM657 1473L480 1124H350L493 1473H657Z"/><glyph unicode="̀" horiz-adv-x="0" d="M-553 1473L-430 1124H-560L-721 1473H-553Z"/><glyph unicode="́" horiz-adv-x="0" d="M-294 1473L-455 1124H-585L-462 1473H-294Z"/><glyph unicode="̂" horiz-adv-x="0" d="M-431 1473L-221 1124H-361L-508 1370H-512L-658 1124H-798L-588 1473H-431Z"/><glyph unicode="̃" horiz-adv-x="0" d="M-818 1178V1201Q-818 1235 -811 1268T-784 1329T-731 1373T-650 1390Q-609 1390 -570 1376T-498 1343T-434 1310T-378 1295Q-347 1295 -333 1317T-318 1382H-196V1359Q-196 1325 -203 1292T-230 1231T-283 1187T-364 1170Q-405 1170 -444 1184T-516 1217T-580 1250T-636 1265Q-667 1265 -681 1243T-696 1178H-818Z"/><glyph unicode="̄" horiz-adv-x="0" d="M-781 1300H-241V1171H-781V1300Z"/><glyph unicode="̆" horiz-adv-x="0" d="M-494 1257Q-420 1257 -377 1299T-319 1432H-188Q-192 1368 -213 1314T-273 1221T-367 1159T-494 1136Q-565 1136 -620 1158T-714 1220T-774 1314T-800 1432H-669Q-655 1341 -612 1299T-494 1257Z"/><glyph unicode="̇" horiz-adv-x="0" d="M-608 1171V1344H-445V1171H-608Z"/><glyph unicode="̈" horiz-adv-x="0" d="M-777 1171V1338H-618V1171H-777ZM-396 1171V1338H-237V1171H-396Z"/><glyph unicode="̊" horiz-adv-x="0" d="M-522 1100Q-570 1100 -612 1113T-684 1152T-733 1213T-751 1295Q-751 1341 -733 1377T-685 1438T-612 1476T-522 1490Q-474 1490 -432 1477T-360 1438T-311 1377T-293 1295Q-293 1249 -311 1213T-359 1152T-432 1114T-522 1100ZM-522 1392Q-567 1392 -597 1367T-628 1295Q-628 1248 -598 1223T-522 1198Q-477 1198 -447 1223T-416 1295Q-416 1342 -446 1367T-522 1392Z"/><glyph unicode="̋" horiz-adv-x="0" d="M-479 1473L-636 1124H-765L-642 1473H-479ZM-168 1473L-345 1124H-475L-332 1473H-168Z"/><glyph unicode="̌" horiz-adv-x="0" d="M-598 1124L-808 1473H-668L-521 1227H-517L-371 1473H-231L-441 1124H-598Z"/><glyph unicode="̒" horiz-adv-x="0" d="M-522 1308Q-522 1269 -499 1252T-438 1234V1105Q-452 1104 -466 1104Q-558 1104 -613 1146T-668 1270Q-668 1321 -649 1370T-589 1473H-446Q-478 1427 -500 1386T-522 1308Z"/><glyph unicode="̕" horiz-adv-x="106" d="M16 1245Q16 1284 -7 1301T-68 1319V1448Q-52 1449 -37 1449Q53 1449 107 1406T162 1283Q162 1232 143 1183T83 1080H-60Q-28 1126 -6 1167T16 1245Z"/><glyph unicode="̦" horiz-adv-x="700" d="M342 -325Q342 -286 319 -269T258 -251V-122Q273 -121 286 -121Q379 -121 433 -163T488 -287Q488 -337 469 -386T409 -490H266Q300 -443 321 -401T342 -325Z"/><glyph unicode="̧" horiz-adv-x="0" d="M-485 0H-363L-398 -126Q-358 -132 -325 -144T-267 -177T-230 -225T-217 -291Q-217 -343 -240 -380T-301 -442T-390 -478T-494 -490Q-537 -490 -571 -485T-627 -471V-358Q-607 -364 -577 -369T-508 -375Q-479 -375 -452 -372T-403 -359T-367 -333T-353 -294Q-353 -273 -367 -259T-406 -235T-468 -222T-550 -215L-485 0Z"/><glyph unicode="̨" horiz-adv-x="0" d="M-160 29Q-197 3 -242 -32T-325 -109T-390 -193T-416 -277Q-416 -355 -325 -355Q-295 -355 -264 -350T-195 -332V-460Q-224 -473 -265 -481T-354 -490Q-452 -490 -505 -446T-559 -315Q-559 -262 -536 -213T-475 -120T-393 -39T-305 29H-160Z"/><glyph unicode="̈́" horiz-adv-x="0" d="M-849 1173V1336H-700V1173H-849ZM-398 1173V1336H-249V1173H-398ZM-433 1473L-516 1124H-635L-586 1473H-433Z"/><glyph unicode="ʹ" horiz-adv-x="420" d="M420 1397L201 1048H65L248 1397H420Z"/><glyph unicode="͵" horiz-adv-x="420" d="M-53 -349L166 0H302L119 -349H-53Z"/><glyph unicode=";" horiz-adv-x="546" d="M187 218H360L171 -390H20L187 218ZM366 807V612H175V807H366Z"/><glyph unicode="΄" horiz-adv-x="700" d="M545 1473L326 1124H190L373 1473H545Z"/><glyph unicode="΅" horiz-adv-x="700" d="M52 1173V1336H201V1173H52ZM503 1173V1336H652V1173H503ZM468 1473L385 1124H266L315 1473H468Z"/><glyph unicode="Ά" horiz-adv-x="1301" d="M334 1338L228 959H90L184 1338H334ZM35 0L580 1338H721L1266 0H1089L929 403H370L210 0H35ZM649 1130Q560 880 478 676L428 550H871L821 676Q739 884 653 1130H649Z"/><glyph unicode="·" horiz-adv-x="541" d="M175 755V950H366V755H175Z"/><glyph unicode="Έ" horiz-adv-x="1295" d="M244 1338L138 959H0L94 1338H244ZM499 147H1185V0H336V1338H1148V1191H499V759H1076V612H499V147Z"/><glyph unicode="Ή" horiz-adv-x="1533" d="M244 1338L138 959H0L94 1338H244ZM499 759H1200V1338H1363V0H1200V612H499V0H336V1338H499V759Z"/><glyph unicode="Ί" horiz-adv-x="669" d="M244 1338L138 959H0L94 1338H244ZM336 0V1338H499V0H336Z"/><glyph unicode="Ό" horiz-adv-x="1617" d="M244 1338L138 959H0L94 1338H244ZM1325 668Q1325 803 1290 906T1194 1078T1049 1182T869 1218Q773 1218 690 1183T545 1078T448 906T413 668Q413 533 448 431T545 259T690 155T871 120Q967 120 1049 155T1193 259T1290 430T1325 668ZM1497 668Q1497 516 1453 389T1327 170T1130 27T871 -25Q723 -25 606 26T408 170T284 389T241 668Q241 821 285 948T411 1168T609 1311T869 1363Q1016 1363 1132 1312T1330 1168T1454 949T1497 668Z"/><glyph unicode="Ύ" horiz-adv-x="1467" d="M244 1338L138 959H0L94 1338H244ZM862 678Q885 758 919 833T1000 987T1102 1152T1225 1338H1417Q1362 1259 1306 1181T1196 1023T1097 861T1017 691T962 509T942 311V0H779V311Q779 466 736 601T625 861T472 1102T305 1338H499Q564 1240 620 1155T721 990T801 834T859 678H862Z"/><glyph unicode="Ώ" horiz-adv-x="1627" d="M244 1338L138 959H0L94 1338H244ZM874 1363Q1018 1363 1132 1315T1327 1181T1449 980T1492 730Q1492 630 1468 544T1403 386T1310 255T1203 151V147H1497V0H1022V112Q1079 178 1132 241T1227 375T1294 531T1320 727Q1320 855 1285 947T1188 1100T1046 1189T874 1218Q783 1218 702 1190T560 1101T464 949T428 730Q428 619 453 533T520 376T615 241T726 112V0H251V147H541V151Q482 199 430 258T340 388T279 545T256 730Q256 864 298 980T421 1181T615 1314T874 1363Z"/><glyph unicode="ΐ" horiz-adv-x="535" d="M305 234Q305 198 309 175T323 139T349 122T391 117Q411 117 438 122T480 132V3Q457 -4 421 -9T349 -15Q293 -15 255 -2T194 38T160 103T150 192V950H305V234ZM210 1173V1336H359V1173H210ZM661 1173V1336H810V1173H661ZM626 1473L543 1124H424L473 1473H626Z"/><glyph unicode="Α" horiz-adv-x="1301" d="M35 0L580 1338H721L1266 0H1089L929 403H370L210 0H35ZM649 1130Q560 880 478 676L428 550H871L821 676Q739 884 653 1130H649Z"/><glyph unicode="Β" horiz-adv-x="1215" d="M830 692Q892 683 941 659T1026 598T1081 509T1100 391Q1100 344 1086 293T1040 193T955 103T824 36Q764 16 691 8T516 0H170V1338H504Q550 1338 587 1337T656 1332T715 1325T766 1314Q829 1297 880 1268T968 1197T1023 1104T1043 991Q1043 942 1032 897T995 814T929 746T830 696V692ZM581 759Q629 759 664 763T727 777Q802 802 836 855T871 980Q871 1054 835 1101T722 1171Q684 1182 634 1186T516 1191H333V759H581ZM333 612V147H530Q600 147 660 153T762 174Q808 189 840 212T891 264T919 325T928 390Q928 428 919 461T890 521T836 568T752 599Q722 606 684 609T588 612H333Z"/><glyph unicode="Γ" horiz-adv-x="1062" d="M170 0V1338H1022V1191H333V0H170Z"/><glyph unicode="Δ" horiz-adv-x="1286" d="M561 1338H724L1226 102V0H60V102L561 1338ZM253 147H1034L796 754Q722 943 647 1145H641Q554 911 493 757L253 147Z"/><glyph unicode="Ε" horiz-adv-x="1129" d="M333 147H1019V0H170V1338H982V1191H333V759H910V612H333V147Z"/><glyph unicode="Ζ" horiz-adv-x="1199" d="M1090 1338V1236L314 147H1099V0H100V102L878 1191H118V1338H1090Z"/><glyph unicode="Η" horiz-adv-x="1367" d="M333 759H1034V1338H1197V0H1034V612H333V0H170V1338H333V759Z"/><glyph unicode="Θ" horiz-adv-x="1496" d="M1048 612H448V759H1048V612ZM1204 668Q1204 803 1169 906T1073 1078T928 1182T748 1218Q652 1218 569 1183T424 1078T327 906T292 668Q292 533 327 431T424 259T569 155T750 120Q846 120 928 155T1072 259T1169 430T1204 668ZM1376 668Q1376 516 1332 389T1206 170T1009 27T750 -25Q602 -25 485 26T287 170T163 389T120 668Q120 821 164 948T290 1168T488 1311T748 1363Q895 1363 1011 1312T1209 1168T1333 949T1376 668Z"/><glyph unicode="Ι" horiz-adv-x="503" d="M170 0V1338H333V0H170Z"/><glyph unicode="Κ" horiz-adv-x="1239" d="M170 0V1338H333V677H335L950 1338H1151L527 672L1199 0H987L335 655H333V0H170Z"/><glyph unicode="Λ" horiz-adv-x="1285" d="M642 1117Q557 885 476 682L208 0H35L570 1338H713L1250 0H1077L809 682Q724 897 646 1117H642Z"/><glyph unicode="Μ" horiz-adv-x="1683" d="M879 0H804L467 799Q397 964 327 1158H319Q333 879 333 647V0H170V1338H405L720 581Q774 451 839 268H844Q916 471 963 581L1278 1338H1513V0H1350V647Q1350 874 1364 1158H1356Q1282 953 1216 799L879 0Z"/><glyph unicode="Ν" horiz-adv-x="1426" d="M857 592Q980 415 1100 228H1106Q1093 423 1093 626V1338H1256V0H1094L569 746Q433 941 326 1110H320Q333 927 333 683V0H170V1338H332L857 592Z"/><glyph unicode="Ξ" horiz-adv-x="1168" d="M207 759H961V612H207V759ZM100 147H1068V0H100V147ZM135 1338H1033V1191H135V1338Z"/><glyph unicode="Ο" horiz-adv-x="1496" d="M1204 668Q1204 803 1169 906T1073 1078T928 1182T748 1218Q652 1218 569 1183T424 1078T327 906T292 668Q292 533 327 431T424 259T569 155T750 120Q846 120 928 155T1072 259T1169 430T1204 668ZM1376 668Q1376 516 1332 389T1206 170T1009 27T750 -25Q602 -25 485 26T287 170T163 389T120 668Q120 821 164 948T290 1168T488 1311T748 1363Q895 1363 1011 1312T1209 1168T1333 949T1376 668Z"/><glyph unicode="Π" horiz-adv-x="1357" d="M1187 1338V0H1024V1191H333V0H170V1338H1187Z"/><glyph unicode="Ρ" horiz-adv-x="1168" d="M333 0H170V1338H541Q624 1338 694 1328T824 1297Q944 1254 1006 1169T1068 958Q1068 856 1028 779T910 649T723 571T472 544Q405 544 333 550V0ZM333 699Q366 695 402 693T470 691Q585 691 666 709T798 761T872 845T895 958Q895 1036 858 1086T751 1162Q708 1178 652 1184T522 1191H333V699Z"/><glyph unicode="Σ" horiz-adv-x="1203" d="M503 314Q430 234 344 147V143Q487 147 590 147H1093V0H100V106L652 704V710L137 1238V1338H1085V1191H603Q496 1191 397 1195V1191Q474 1115 548 1039L863 709L503 314Z"/><glyph unicode="Τ" horiz-adv-x="1137" d="M650 0H487V1191H40V1338H1097V1191H650V0Z"/><glyph unicode="Υ" horiz-adv-x="1212" d="M607 678Q630 758 664 833T745 987T847 1152T970 1338H1162Q1107 1259 1051 1181T941 1023T842 861T762 691T707 509T687 311V0H524V311Q524 466 481 601T370 861T217 1102T50 1338H244Q309 1240 365 1155T466 990T546 834T604 678H607Z"/><glyph unicode="Φ" horiz-adv-x="1557" d="M698 -67V84Q559 95 450 143T265 269T150 451T110 679Q110 803 150 907T267 1090T453 1217T698 1275V1425H861V1275Q1000 1265 1109 1217T1293 1091T1407 908T1447 679Q1447 556 1407 452T1290 269T1106 143T861 84V-67H698ZM280 680Q280 570 312 488T401 351T534 265T698 227V1132Q610 1126 534 1096T402 1009T313 872T280 680ZM1278 680Q1278 790 1246 871T1157 1008T1024 1094T861 1131V227Q948 233 1024 263T1156 349T1245 487T1278 680Z"/><glyph unicode="Χ" horiz-adv-x="1236" d="M624 796L994 1338H1175L721 679L1196 0H1013L621 567H617L225 0H40L519 683L69 1338H248L620 796H624Z"/><glyph unicode="Ψ" horiz-adv-x="1467" d="M815 0H652V427Q489 434 384 482T218 628T134 874T110 1231Q110 1269 112 1338H277Q276 1276 276 1243Q276 1051 293 924T354 721T469 611T652 572V1338H815V572Q925 577 997 610T1113 720T1173 924T1191 1243Q1191 1287 1190 1338H1355Q1357 1286 1357 1231Q1357 1023 1334 874T1250 628T1084 483T815 427V0Z"/><glyph unicode="Ω" horiz-adv-x="1526" d="M763 1363Q907 1363 1021 1315T1216 1181T1338 980T1381 730Q1381 630 1357 544T1292 386T1199 255T1092 151V147H1386V0H911V112Q968 178 1021 241T1116 375T1183 531T1209 727Q1209 855 1174 947T1077 1100T935 1189T763 1218Q672 1218 591 1190T449 1101T353 949T317 730Q317 619 342 533T409 376T504 241T615 112V0H140V147H430V151Q371 199 319 258T229 388T168 545T145 730Q145 864 187 980T310 1181T504 1314T763 1363Z"/><glyph unicode="Ϊ" horiz-adv-x="503" d="M170 0V1338H333V0H170ZM238 1448V1617H399V1448H238ZM621 1448V1617H782V1448H621Z"/><glyph unicode="Ϋ" horiz-adv-x="1212" d="M607 678Q630 758 664 833T745 987T847 1152T970 1338H1162Q1107 1259 1051 1181T941 1023T842 861T762 691T707 509T687 311V0H524V311Q524 466 481 601T370 861T217 1102T50 1338H244Q309 1240 365 1155T466 990T546 834T604 678H607ZM331 1448V1617H492V1448H331ZM714 1448V1617H875V1448H714Z"/><glyph unicode="ά" horiz-adv-x="1144" d="M1013 -15Q964 -15 925 4T857 55T810 129T783 215H778Q759 174 734 132T671 55T582 -3T463 -25Q390 -25 324 5T206 95T125 246T95 459Q95 598 131 696T222 856T345 946T475 975Q540 975 591 955T682 899T753 817T807 716H811Q819 744 830 776T852 839T874 900T893 950H1040Q1013 884 989 824T943 705T905 588T876 468Q876 369 888 303T921 196T973 139T1039 121Q1047 121 1065 122T1094 127V-6Q1076 -10 1055 -12T1013 -15ZM735 515Q723 574 702 632T649 737T575 813T480 842Q433 842 393 817T323 743T276 626T259 468Q259 408 270 345T307 228T373 142T475 107Q535 108 582 145T662 243T712 376T735 515ZM788 1473L569 1124H433L616 1473H788Z"/><glyph unicode="έ" horiz-adv-x="941" d="M709 421Q667 424 620 426T509 429Q384 429 323 389T262 275Q262 239 278 208T326 155T408 120T524 107Q628 107 714 129T861 180V49Q810 20 721 -2T510 -25Q407 -25 330 -4T202 56T126 147T100 263Q100 313 116 352T160 420T222 467T293 494V498Q263 507 234 524T182 567T146 629T132 711Q132 770 160 819T240 902T366 956T532 975Q617 975 693 963T831 933V802Q759 820 690 831T548 842Q491 842 444 831T364 799T312 752T294 691Q294 662 304 637T340 594T405 566T503 555Q571 555 621 556T709 562V421ZM798 1473L579 1124H443L626 1473H798Z"/><glyph unicode="ή" horiz-adv-x="1145" d="M333 818Q359 851 391 879T462 929T546 963T644 975Q678 975 717 969T794 949T866 910T927 848T969 758T985 636V-465H830V611Q830 673 813 716T767 788T699 829T616 842Q534 841 464 797T339 675V0H184V704Q184 736 183 761T174 803T151 830T108 839Q91 839 76 836T50 829V953Q67 958 93 961T140 965Q188 965 221 955T277 927T312 880T330 818H333ZM913 1473L694 1124H558L741 1473H913Z"/><glyph unicode="ί" horiz-adv-x="535" d="M305 234Q305 198 309 175T323 139T349 122T391 117Q411 117 438 122T480 132V3Q457 -4 421 -9T349 -15Q293 -15 255 -2T194 38T160 103T150 192V950H305V234ZM786 1473L567 1124H431L614 1473H786Z"/><glyph unicode="ΰ" horiz-adv-x="1117" d="M265 1173V1336H414V1173H265ZM716 1173V1336H865V1173H716ZM681 1473L598 1124H479L528 1473H681ZM50 952Q68 958 93 961T143 965Q194 965 231 951T292 907T326 837T336 747Q336 710 335 672T332 600T329 516T327 423Q327 262 389 185T568 107Q628 107 679 130T766 201T823 321T844 491Q844 594 820 713T757 950H920Q939 894 955 839T982 726T1000 610T1007 486Q1007 370 980 276T897 115T759 12T565 -25Q457 -25 381 6T257 94T187 233T165 416Q165 482 170 567T175 732Q175 788 159 810T103 833Q89 833 75 831T50 824V952Z"/><glyph unicode="α" horiz-adv-x="1149" d="M1013 -15Q964 -15 925 4T857 55T810 129T783 215H778Q759 174 734 132T671 55T582 -3T463 -25Q390 -25 324 5T206 95T125 246T95 459Q95 598 131 696T222 856T345 946T475 975Q540 975 591 955T682 899T753 817T807 716H811Q819 744 830 776T852 839T874 900T893 950H1040Q1013 884 989 824T943 705T905 588T876 468Q876 369 888 303T921 196T973 139T1039 121Q1047 121 1065 122T1094 127V-6Q1076 -10 1055 -12T1013 -15ZM735 515Q723 574 702 632T649 737T575 813T480 842Q433 842 393 817T323 743T276 626T259 468Q259 408 270 345T307 228T373 142T475 107Q535 108 582 145T662 243T712 376T735 515Z"/><glyph unicode="β" horiz-adv-x="1128" d="M752 774Q811 758 860 728T944 652T998 547T1018 409Q1018 317 990 238T907 100T771 8T584 -25Q503 -25 437 -2T328 63H325V-465H170V1040Q170 1141 188 1207Q206 1273 240 1322T321 1405T427 1456T551 1473Q634 1473 705 1449T829 1377T912 1260T942 1100Q942 1045 931 995T897 903T838 829T752 778V774ZM449 835Q494 832 532 832Q604 832 651 854T727 914T767 1000T779 1100Q779 1151 765 1195T722 1271T650 1322T548 1341Q504 1341 464 1326T393 1276T344 1189T325 1060V206Q374 156 436 132T572 107Q645 107 698 131T787 195T839 289T856 402Q856 486 828 542T755 631T655 678T547 692Q532 692 507 692T449 689V835Z"/><glyph unicode="γ" horiz-adv-x="992" d="M520 -82Q523 -188 523 -245V-465H341Q364 -292 364 -178Q364 -27 336 126T261 426T157 705T40 950H212Q251 877 292 781T370 578T438 357T483 133H487Q533 221 574 313T653 505T721 716T776 950H942Q918 806 873 664T769 389T645 137T520 -82Z"/><glyph unicode="δ" horiz-adv-x="1090" d="M512 931Q470 966 431 1003T359 1081T308 1164T288 1255Q288 1307 309 1347T369 1416T464 1458T590 1473Q642 1473 695 1466T798 1447T896 1420T983 1387V1245Q886 1287 790 1314T602 1342Q532 1342 488 1322T443 1254Q443 1219 469 1184T536 1109T631 1026T738 931Q787 885 833 832T915 716T973 582T995 427Q995 328 962 245T869 102T724 9T535 -25Q436 -25 355 5T216 89T127 221T95 394Q95 495 129 580T222 732T355 849T512 927V931ZM833 432Q833 502 817 559T771 666T703 757T620 839Q548 815 482 776T367 682T287 558T257 402Q257 337 277 283T333 189T420 129T534 107Q602 107 657 128T751 191T811 293T833 432Z"/><glyph unicode="ε" horiz-adv-x="941" d="M709 421Q667 424 620 426T509 429Q384 429 323 389T262 275Q262 239 278 208T326 155T408 120T524 107Q628 107 714 129T861 180V49Q810 20 721 -2T510 -25Q407 -25 330 -4T202 56T126 147T100 263Q100 313 116 352T160 420T222 467T293 494V498Q263 507 234 524T182 567T146 629T132 711Q132 770 160 819T240 902T366 956T532 975Q617 975 693 963T831 933V802Q759 820 690 831T548 842Q491 842 444 831T364 799T312 752T294 691Q294 662 304 637T340 594T405 566T503 555Q571 555 621 556T709 562V421Z"/><glyph unicode="ζ" horiz-adv-x="921" d="M722 1341Q458 1287 209 1285V1423Q582 1423 891 1472V1350Q771 1275 657 1183T454 983T310 753T256 491Q256 418 278 368T337 284T422 228T524 190Q572 176 616 164T702 138T782 105T846 58T890 -8T906 -101Q906 -185 878 -258T802 -401H636Q692 -321 717 -256T742 -133Q742 -85 716 -54T644 -3T542 31T425 64Q364 82 305 109T199 183T124 301T95 476Q95 615 145 744T280 982T480 1180T722 1333V1341Z"/><glyph unicode="η" horiz-adv-x="1145" d="M333 818Q359 851 391 879T462 929T546 963T644 975Q678 975 717 969T794 949T866 910T927 848T969 758T985 636V-465H830V611Q830 673 813 716T767 788T699 829T616 842Q534 841 464 797T339 675V0H184V704Q184 736 183 761T174 803T151 830T108 839Q91 839 76 836T50 829V953Q67 958 93 961T140 965Q188 965 221 955T277 927T312 880T330 818H333Z"/><glyph unicode="θ" horiz-adv-x="1112" d="M1007 734Q1007 544 977 402T889 165T748 23T557 -25Q448 -25 364 19T222 154T135 384T105 714Q105 904 135 1046T223 1283T365 1425T555 1473Q665 1473 749 1429T890 1294T977 1064T1007 734ZM556 107Q691 107 762 251T840 679H271Q276 392 348 250T556 107ZM556 1341Q426 1341 355 1208T273 812H839Q821 1341 556 1341Z"/><glyph unicode="ι" horiz-adv-x="535" d="M305 234Q305 198 309 175T323 139T349 122T391 117Q411 117 438 122T480 132V3Q457 -4 421 -9T349 -15Q293 -15 255 -2T194 38T160 103T150 192V950H305V234Z"/><glyph unicode="κ" horiz-adv-x="1066" d="M150 0V950H305V506L714 872Q767 920 829 947T976 974V836Q945 836 917 828T864 807T816 777T772 741L555 552L1026 0H825L445 456L305 334V0H150Z"/><glyph unicode="λ" horiz-adv-x="996" d="M202 1473Q273 1473 325 1448T416 1375T486 1260T549 1108L951 0H781L602 514Q557 644 530 735H526Q492 642 437 515L213 0H40L456 925Q419 1032 389 1110T328 1239T260 1315T173 1340Q147 1340 119 1334T75 1323V1449Q97 1458 133 1465T202 1473Z"/><glyph unicode="μ" horiz-adv-x="1180" d="M846 144Q794 50 714 13T534 -25Q462 -25 404 1T314 72H310L314 -290L315 -465H160V950H315V361Q315 295 330 248T375 170T445 126T539 111Q605 111 658 132T748 195T806 302T826 454V950H981V312Q981 252 987 213T1005 152T1035 120T1079 111Q1085 111 1099 112T1125 117V-6Q1108 -10 1086 -12T1047 -15Q1001 -15 968 -4T911 28T873 78T850 144H846Z"/><glyph unicode="ν" horiz-adv-x="968" d="M883 950Q882 793 852 665T770 425T650 209T507 0H383Q347 119 307 242T225 486T139 725T50 950H217Q253 864 288 769T356 576T418 378T472 184H476Q520 244 563 326T640 505T696 709T717 928V950H883Z"/><glyph unicode="ξ" horiz-adv-x="893" d="M421 742Q368 750 324 766T247 810T196 879T178 977Q178 1049 209 1107T298 1211T433 1292T606 1353L604 1359Q303 1315 175 1313V1448Q554 1448 852 1472V1348Q738 1318 644 1284T483 1206T378 1111T340 993Q340 933 376 897T469 842T598 819T736 813Q749 813 788 814V691H762Q709 691 649 684T535 661T431 620T345 560T287 483T266 389Q266 331 290 295T353 237T444 202T550 178Q590 170 630 161T706 138T774 105T828 58T865 -10T878 -102Q878 -178 850 -254T774 -401H610Q667 -319 690 -251T714 -125Q714 -79 693 -50T633 -1T548 29T448 52Q387 65 326 82T215 133T136 222T105 364Q105 445 131 505T202 611T303 687T421 738V742Z"/><glyph unicode="ο" horiz-adv-x="1092" d="M835 474Q835 562 814 630T754 746T662 818T546 843Q483 843 430 819T339 747T279 631T257 474Q257 387 278 319T339 203T431 132T547 107Q610 107 662 131T753 203T813 318T835 474ZM997 474Q997 362 965 270T875 113T733 11T547 -25Q441 -25 358 11T216 112T126 270T95 474Q95 587 127 679T217 837T359 939T546 975Q651 975 735 939T877 837T966 679T997 474Z"/><glyph unicode="π" horiz-adv-x="1178" d="M399 817V0H245V817H55V950H1123V817H941V272Q941 233 942 204T952 155T977 127T1027 117Q1039 117 1054 118T1081 123V-6Q1064 -10 1041 -12T989 -15Q931 -15 892 -1T830 40T796 105T786 192V817H399Z"/><glyph unicode="ρ" horiz-adv-x="1104" d="M852 484Q852 570 832 637T776 749T690 818T582 842Q528 842 480 821T395 749T337 617T315 413V227Q355 173 419 140T565 107Q616 107 667 127T759 192T826 310T852 484ZM160 425Q160 540 179 626T230 773T304 873T392 935T485 966T573 975Q683 975 766 936T903 831T986 674T1014 482Q1014 388 995 314T944 184T868 88T776 23T676 -13T576 -25Q528 -25 488 -16T414 9T356 44T313 83H309Q311 37 313 -10T315 -115V-465H160V425Z"/><glyph unicode="ς" horiz-adv-x="849" d="M252 494Q252 415 273 362T329 275T409 219T502 181Q555 163 606 145T698 97T764 20T789 -104Q789 -181 761 -256T685 -401H516Q572 -321 598 -250T625 -121Q624 -75 606 -48T556 -1T481 33T391 65Q355 78 319 93T249 131T187 185T136 258T103 357T90 487Q90 620 129 714T231 866T372 949T530 975Q599 975 662 961T770 922V792Q707 816 655 828T544 842Q488 842 435 824T341 764T276 656T252 494Z"/><glyph unicode="σ" horiz-adv-x="1132" d="M577 817Q493 817 432 791T331 718T271 603T251 453Q251 371 272 307T332 198T422 131T535 108Q667 108 739 197T811 449Q811 515 796 569T756 669T699 750T633 817H577ZM931 817Q902 817 868 818T808 821V817Q840 792 870 754T924 668T961 561T975 437Q975 341 946 257T860 110T720 12T529 -25Q429 -25 348 10T209 110T121 264T90 462Q90 506 98 556T125 658T175 759T251 847Q306 895 386 922T582 950H1082V817H931Z"/><glyph unicode="τ" horiz-adv-x="905" d="M50 950H855V817H490V253Q490 220 495 193T515 147T557 117T630 106Q674 106 734 118V-6Q715 -13 678 -19T596 -25Q521 -25 471 -8T391 41T349 118T336 220V817H50V950Z"/><glyph unicode="υ" horiz-adv-x="1117" d="M50 952Q68 958 93 961T143 965Q194 965 231 951T292 907T326 837T336 747Q336 710 335 672T332 600T329 516T327 423Q327 262 389 185T568 107Q628 107 679 130T766 201T823 321T844 491Q844 594 820 713T757 950H920Q939 894 955 839T982 726T1000 610T1007 486Q1007 370 980 276T897 115T759 12T565 -25Q457 -25 381 6T257 94T187 233T165 416Q165 482 170 567T175 732Q175 788 159 810T103 833Q89 833 75 831T50 824V952Z"/><glyph unicode="φ" horiz-adv-x="1388" d="M617 -465V-36Q499 -27 402 14T235 123T128 280T90 474Q90 578 127 668T232 827T398 939T617 991V1448H771V991Q890 982 987 940T1153 829T1260 670T1298 476Q1298 372 1261 282T1155 125T989 15T771 -36V-465H617ZM1138 476Q1138 557 1110 624T1033 740T917 820T771 859V95Q849 103 916 133T1033 212T1110 327T1138 476ZM250 474Q250 393 278 327T355 211T471 133T617 95V859Q539 851 472 820T355 740T278 623T250 474Z"/><glyph unicode="χ" horiz-adv-x="984" d="M498 431Q519 473 544 522T592 614L785 950H954L551 265Q588 92 623 -26T696 -216T779 -319T880 -351Q900 -351 925 -348V-475Q910 -480 891 -482T853 -484Q778 -484 718 -448T608 -339T520 -152T446 116H442Q424 79 402 34T359 -47L119 -465H-50L389 283Q354 442 322 548T253 718T175 809T78 836Q59 836 33 833V960Q48 965 66 967T105 969Q177 969 234 938T338 842T423 675T494 431H498Z"/><glyph unicode="ψ" horiz-adv-x="1433" d="M794 -465H639V-29Q529 -23 447 3T306 76T209 193T149 359T118 578T109 853Q109 905 111 950H271Q270 881 270 870Q270 727 277 616T301 422T345 280T414 185T510 130T639 107V1244H794V107Q867 111 922 129T1019 185T1087 280T1132 421T1156 616T1163 870Q1163 884 1162 950H1322Q1324 891 1324 853Q1324 701 1316 578T1285 359T1224 193T1128 76T987 3T794 -29V-465Z"/><glyph unicode="ω" horiz-adv-x="1562" d="M780 211Q771 185 752 145T695 67T601 2T460 -25Q382 -25 318 7T207 98T136 243T110 437Q110 522 122 594T155 728T201 845T255 950H424Q394 894 367 839T318 722T285 593T272 445Q272 378 284 317T321 210T383 135T473 107Q522 107 564 130T636 198T684 309T702 462Q702 503 701 558T695 672H867Q863 613 862 558T861 473Q861 382 878 313T925 198T995 130T1081 107Q1136 107 1175 135T1240 209T1278 318T1290 447Q1290 527 1278 594T1244 722T1196 838T1138 950H1307Q1335 900 1361 846T1407 729T1440 594T1452 437Q1452 329 1427 244T1355 99T1245 7T1098 -25Q1019 -24 962 2T868 66T812 145T783 211H780Z"/><glyph unicode="ϊ" horiz-adv-x="535" d="M305 234Q305 198 309 175T323 139T349 122T391 117Q411 117 438 122T480 132V3Q457 -4 421 -9T349 -15Q293 -15 255 -2T194 38T160 103T150 192V950H305V234ZM222 1171V1338H381V1171H222ZM603 1171V1338H762V1171H603Z"/><glyph unicode="ϋ" horiz-adv-x="1117" d="M275 1171V1338H434V1171H275ZM656 1171V1338H815V1171H656ZM50 952Q68 958 93 961T143 965Q194 965 231 951T292 907T326 837T336 747Q336 710 335 672T332 600T329 516T327 423Q327 262 389 185T568 107Q628 107 679 130T766 201T823 321T844 491Q844 594 820 713T757 950H920Q939 894 955 839T982 726T1000 610T1007 486Q1007 370 980 276T897 115T759 12T565 -25Q457 -25 381 6T257 94T187 233T165 416Q165 482 170 567T175 732Q175 788 159 810T103 833Q89 833 75 831T50 824V952Z"/><glyph unicode="ό" horiz-adv-x="1092" d="M835 474Q835 562 814 630T754 746T662 818T546 843Q483 843 430 819T339 747T279 631T257 474Q257 387 278 319T339 203T431 132T547 107Q610 107 662 131T753 203T813 318T835 474ZM997 474Q997 362 965 270T875 113T733 11T547 -25Q441 -25 358 11T216 112T126 270T95 474Q95 587 127 679T217 837T359 939T546 975Q651 975 735 939T877 837T966 679T997 474ZM836 1473L617 1124H481L664 1473H836Z"/><glyph unicode="ύ" horiz-adv-x="1117" d="M821 1473L602 1124H466L649 1473H821ZM50 952Q68 958 93 961T143 965Q194 965 231 951T292 907T326 837T336 747Q336 710 335 672T332 600T329 516T327 423Q327 262 389 185T568 107Q628 107 679 130T766 201T823 321T844 491Q844 594 820 713T757 950H920Q939 894 955 839T982 726T1000 610T1007 486Q1007 370 980 276T897 115T759 12T565 -25Q457 -25 381 6T257 94T187 233T165 416Q165 482 170 567T175 732Q175 788 159 810T103 833Q89 833 75 831T50 824V952Z"/><glyph unicode="ώ" horiz-adv-x="1562" d="M780 211Q771 185 752 145T695 67T601 2T460 -25Q382 -25 318 7T207 98T136 243T110 437Q110 522 122 594T155 728T201 845T255 950H424Q394 894 367 839T318 722T285 593T272 445Q272 378 284 317T321 210T383 135T473 107Q522 107 564 130T636 198T684 309T702 462Q702 503 701 558T695 672H867Q863 613 862 558T861 473Q861 382 878 313T925 198T995 130T1081 107Q1136 107 1175 135T1240 209T1278 318T1290 447Q1290 527 1278 594T1244 722T1196 838T1138 950H1307Q1335 900 1361 846T1407 729T1440 594T1452 437Q1452 329 1427 244T1355 99T1245 7T1098 -25Q1019 -24 962 2T868 66T812 145T783 211H780ZM1067 1473L848 1124H712L895 1473H1067Z"/><glyph unicode="Ѐ" horiz-adv-x="1129" d="M333 147H1019V0H170V1338H982V1191H333V759H910V612H333V147ZM513 1656L659 1409H520L339 1656H513Z"/><glyph unicode="Ё" horiz-adv-x="1129" d="M333 147H1019V0H170V1338H982V1191H333V759H910V612H333V147ZM301 1448V1617H462V1448H301ZM684 1448V1617H845V1448H684Z"/><glyph unicode="Ђ" horiz-adv-x="1521" d="M1416 396Q1416 300 1382 223T1282 92T1125 9T916 -20Q891 -20 871 -18V132Q897 130 917 130Q1001 130 1062 149T1164 204T1224 287T1244 393Q1244 485 1193 547T1024 637Q980 648 927 652T810 656Q711 654 629 646V0H466V1191H40V1338H1149V1191H629V793Q700 798 743 799T808 801Q890 801 960 795T1090 774Q1175 753 1236 718T1338 635T1397 527T1416 396Z"/><glyph unicode="Ѓ" horiz-adv-x="1062" d="M170 0V1338H1022V1191H333V0H170ZM843 1656L662 1409H523L669 1656H843Z"/><glyph unicode="Є" horiz-adv-x="1179" d="M776 1218Q678 1218 594 1189T447 1101T344 958T296 759H984V612H294Q295 491 329 399T427 245T581 152T786 120Q820 120 859 123T938 133T1014 148T1079 167V23Q1020 0 938 -12T770 -25Q605 -25 483 22T281 158T160 373T120 656Q120 810 162 939T286 1163T489 1310T769 1363Q810 1363 852 1360T933 1350T1005 1334T1062 1315V1171Q1002 1191 927 1204T776 1218Z"/><glyph unicode="Ѕ" horiz-adv-x="1130" d="M294 984Q294 925 318 887T382 823T476 782T588 752Q666 733 741 710T876 647T971 541T1008 374Q1008 270 970 195T863 71T699 -1T491 -25Q439 -25 385 -19T281 -1T191 24T128 52V201Q164 183 209 168T302 143T399 126T491 120Q561 120 624 132T736 172T812 248T840 370Q840 430 816 469T750 533T656 575T543 605Q465 623 391 645T258 708T164 811T128 972Q128 1074 164 1147T262 1269T407 1340T584 1363Q691 1363 783 1343T953 1289V1138Q870 1173 782 1195T592 1218Q516 1218 460 1202T367 1155T312 1081T294 984Z"/><glyph unicode="І" horiz-adv-x="503" d="M170 0V1338H333V0H170Z"/><glyph unicode="Ї" horiz-adv-x="503" d="M170 0V1338H333V0H170ZM243 1448V1617H404V1448H243ZM626 1448V1617H787V1448H626Z"/><glyph unicode="Ј" horiz-adv-x="767" d="M439 1338H602V307Q602 224 577 162T506 59T394 -4T248 -25Q179 -24 132 -14T60 8V152Q97 137 140 129T234 120Q279 120 317 130T382 164T424 228T439 327V1338Z"/><glyph unicode="Љ" horiz-adv-x="2036" d="M1174 803Q1226 807 1259 808T1360 811Q1429 811 1493 806T1614 786Q1696 765 1755 731T1854 650T1912 546T1931 421Q1931 369 1917 312T1866 201T1767 103T1611 31Q1558 16 1489 8T1319 0H1011V1191H674Q637 927 597 735T514 408T423 191T325 64T216 2T94 -15Q56 -15 30 -9V150Q51 147 71 147Q101 147 127 151T180 171T238 219T298 309T358 454T419 665T478 955T536 1338H1174V803ZM1174 147H1337Q1428 147 1498 159T1616 194T1691 244T1735 303T1754 364T1759 418Q1759 458 1748 493T1712 558T1649 610T1556 646Q1514 657 1463 661T1349 665Q1274 663 1246 662T1174 656V147Z"/><glyph unicode="Њ" horiz-adv-x="1967" d="M1105 664V147H1270Q1365 147 1433 160T1547 194T1622 244T1666 302T1685 363T1690 418Q1690 497 1646 554T1502 641Q1458 653 1400 658T1255 664H1105ZM1273 811Q1364 811 1436 804T1566 780Q1643 758 1699 724T1791 644T1844 542T1862 421Q1862 372 1850 319T1806 214T1722 120T1589 46Q1530 24 1449 12T1246 0H942V664H333V0H170V1338H333V811H942V1338H1105V811H1273Z"/><glyph unicode="Ћ" horiz-adv-x="1527" d="M40 1191V1338H1149V1191H629V750Q718 779 793 794T966 811Q1063 811 1132 792T1248 736T1323 649T1363 536Q1371 495 1374 448T1377 347V0H1214V349Q1214 399 1212 437T1201 507Q1181 588 1123 627T949 666Q867 665 785 647T629 601V0H466V1191H40Z"/><glyph unicode="Ќ" horiz-adv-x="1239" d="M170 0V1338H333V677H335L950 1338H1151L527 672L1199 0H987L335 655H333V0H170ZM855 1656L674 1409H535L681 1656H855Z"/><glyph unicode="Ѝ" horiz-adv-x="1426" d="M1092 1338H1256V0H1093V605Q1093 937 1106 1110H1100Q1011 965 859 746L334 0H170V1338H333V662Q333 405 320 228H326Q412 368 567 592L1092 1338ZM655 1656L801 1409H662L481 1656H655Z"/><glyph unicode="Ў" horiz-adv-x="1208" d="M247 -25Q192 -25 140 -14V141Q162 136 187 134T242 131Q295 131 337 142T416 182T485 262T552 392L40 1338H222L633 558H639L988 1338H1168L706 341Q657 236 610 166T508 53T391 -7T247 -25ZM605 1654Q697 1654 758 1710T837 1883H987Q980 1807 953 1742T879 1628T763 1553T603 1526Q512 1526 445 1553T331 1628T258 1741T225 1883H375Q392 1767 452 1711T605 1654Z"/><glyph unicode="Џ" horiz-adv-x="1340" d="M752 0V-443H589V0H170V1338H333V147H1007V1338H1170V0H752Z"/><glyph unicode="А" horiz-adv-x="1301" d="M35 0L580 1338H721L1266 0H1089L929 403H370L210 0H35ZM649 1130Q560 880 478 676L428 550H871L821 676Q739 884 653 1130H649Z"/><glyph unicode="Б" horiz-adv-x="1230" d="M508 811Q670 811 786 784T976 707T1085 585T1120 421Q1120 373 1110 324T1072 227T999 139T883 67T715 18T486 0H170V1338H1035V1191H333V803Q345 804 364 805T406 808T456 810T508 811ZM333 147H503Q605 147 677 159T798 193T877 242T921 300T942 360T948 418Q948 477 924 523T848 601T711 649T508 666Q471 665 449 665T409 663T376 661T333 656V147Z"/><glyph unicode="В" horiz-adv-x="1215" d="M830 692Q892 683 941 659T1026 598T1081 509T1100 391Q1100 344 1086 293T1040 193T955 103T824 36Q764 16 691 8T516 0H170V1338H504Q550 1338 587 1337T656 1332T715 1325T766 1314Q829 1297 880 1268T968 1197T1023 1104T1043 991Q1043 942 1032 897T995 814T929 746T830 696V692ZM581 759Q629 759 664 763T727 777Q802 802 836 855T871 980Q871 1054 835 1101T722 1171Q684 1182 634 1186T516 1191H333V759H581ZM333 612V147H530Q600 147 660 153T762 174Q808 189 840 212T891 264T919 325T928 390Q928 428 919 461T890 521T836 568T752 599Q722 606 684 609T588 612H333Z"/><glyph unicode="Г" horiz-adv-x="1042" d="M416 0V1338H1268V1191H579V0H416Z"/><glyph unicode="Д" horiz-adv-x="1516" d="M743 1191Q722 1017 685 872T597 602T483 366T348 151V147H1060V1191H743ZM155 147Q238 254 310 376T441 643T541 960T604 1338H1223V147H1386V-443H1223V0H253V-443H90V147H155Z"/><glyph unicode="Е" horiz-adv-x="1129" d="M333 147H1019V0H170V1338H982V1191H333V759H910V612H333V147Z"/><glyph unicode="Ж" horiz-adv-x="1799" d="M981 0H818V655L246 0H40L630 671L88 1338H285L818 677V1338H981V677L1514 1338H1711L1169 671L1759 0H1553L981 655V0Z"/><glyph unicode="З" horiz-adv-x="1093" d="M117 1281Q146 1296 185 1310T271 1336T374 1355T489 1363Q599 1363 684 1338T828 1266T916 1150T946 995Q946 932 929 883T881 798T811 736T727 695V689Q781 677 828 654T911 594T967 506T988 385Q988 301 958 226T862 96T694 8T449 -25Q340 -25 250 -5T90 54V197Q160 162 247 141T430 120Q621 120 718 189T816 388Q816 495 735 553T482 612H331V759H467Q556 759 615 776T709 823T759 895T774 986Q774 1037 756 1080T700 1153T604 1201T463 1218Q368 1218 286 1198T117 1143V1281Z"/><glyph unicode="И" horiz-adv-x="1426" d="M1092 1338H1256V0H1093V605Q1093 937 1106 1110H1100Q1011 965 859 746L334 0H170V1338H333V662Q333 405 320 228H326Q412 368 567 592L1092 1338Z"/><glyph unicode="Й" horiz-adv-x="1426" d="M1092 1338H1256V0H1093V605Q1093 937 1106 1110H1100Q1011 965 859 746L334 0H170V1338H333V662Q333 405 320 228H326Q412 368 567 592L1092 1338ZM737 1654Q829 1654 890 1710T969 1883H1119Q1112 1807 1085 1742T1011 1628T895 1553T735 1526Q644 1526 577 1553T463 1628T390 1741T357 1883H507Q524 1767 584 1711T737 1654Z"/><glyph unicode="К" horiz-adv-x="1239" d="M170 0V1338H333V677H335L950 1338H1151L527 672L1199 0H987L335 655H333V0H170Z"/><glyph unicode="Л" horiz-adv-x="1344" d="M674 1191Q637 927 597 735T514 408T423 191T324 63T213 1T90 -15Q73 -15 57 -14T30 -9V150Q51 147 71 147Q97 147 124 151T179 171T238 219T298 309T358 454T419 665T478 955T536 1338H1174V0H1011V1191H674Z"/><glyph unicode="М" horiz-adv-x="1683" d="M879 0H804L467 799Q397 964 327 1158H319Q333 879 333 647V0H170V1338H405L720 581Q774 451 839 268H844Q916 471 963 581L1278 1338H1513V0H1350V647Q1350 874 1364 1158H1356Q1282 953 1216 799L879 0Z"/><glyph unicode="Н" horiz-adv-x="1367" d="M333 759H1034V1338H1197V0H1034V612H333V0H170V1338H333V759Z"/><glyph unicode="О" horiz-adv-x="1496" d="M1204 668Q1204 803 1169 906T1073 1078T928 1182T748 1218Q652 1218 569 1183T424 1078T327 906T292 668Q292 533 327 431T424 259T569 155T750 120Q846 120 928 155T1072 259T1169 430T1204 668ZM1376 668Q1376 516 1332 389T1206 170T1009 27T750 -25Q602 -25 485 26T287 170T163 389T120 668Q120 821 164 948T290 1168T488 1311T748 1363Q895 1363 1011 1312T1209 1168T1333 949T1376 668Z"/><glyph unicode="П" horiz-adv-x="1355" d="M1185 1338V0H1019V1182H336V0H170V1338H1185Z"/><glyph unicode="Р" horiz-adv-x="1168" d="M333 0H170V1338H541Q624 1338 694 1328T824 1297Q944 1254 1006 1169T1068 958Q1068 856 1028 779T910 649T723 571T472 544Q405 544 333 550V0ZM333 699Q366 695 402 693T470 691Q585 691 666 709T798 761T872 845T895 958Q895 1036 858 1086T751 1162Q708 1178 652 1184T522 1191H333V699Z"/><glyph unicode="С" horiz-adv-x="1207" d="M820 1218Q709 1218 613 1183T445 1077T333 902T292 658Q292 520 330 419T438 251T606 152T826 120Q859 120 896 123T970 133T1043 148T1107 167V23Q1048 0 970 -12T810 -25Q643 -25 514 21T298 155T165 367T120 652Q120 808 167 939T304 1164T521 1310T808 1363Q850 1363 891 1360T969 1350T1039 1334T1094 1315V1171Q1034 1191 963 1204T820 1218Z"/><glyph unicode="Т" horiz-adv-x="1137" d="M650 0H487V1191H40V1338H1097V1191H650V0Z"/><glyph unicode="У" horiz-adv-x="1208" d="M247 -25Q192 -25 140 -14V141Q162 136 187 134T242 131Q295 131 337 142T416 182T485 262T552 392L40 1338H222L633 558H639L988 1338H1168L706 341Q657 236 610 166T508 53T391 -7T247 -25Z"/><glyph unicode="Ф" horiz-adv-x="1531" d="M687 -107V74Q545 84 437 132T256 258T147 441T110 669Q110 793 148 898T259 1081T440 1208T687 1265V1445H846V1265Q988 1256 1095 1208T1275 1082T1384 898T1421 669Q1421 546 1383 441T1272 258T1092 131T846 74V-107H687ZM276 670Q276 560 306 478T391 340T521 253T687 215V1124Q597 1117 522 1087T392 1000T307 862T276 670ZM1256 670Q1256 779 1226 861T1141 999T1011 1086T846 1124V214Q935 221 1010 251T1140 338T1225 477T1256 670Z"/><glyph unicode="Х" horiz-adv-x="1236" d="M624 796L994 1338H1175L721 679L1196 0H1013L621 567H617L225 0H40L519 683L69 1338H248L620 796H624Z"/><glyph unicode="Ц" horiz-adv-x="1454" d="M1151 0H170V1338H333V147H988V1338H1151V147H1314V-443H1151V0Z"/><glyph unicode="Ч" horiz-adv-x="1263" d="M930 0V571Q838 544 776 533T664 516T563 510Q440 510 360 544T234 639T169 783T150 966V1338H313V962Q313 884 326 827T370 731T454 674T584 655Q627 655 675 660T789 679T930 720V1338H1093V0H930Z"/><glyph unicode="Ш" horiz-adv-x="1875" d="M1705 0H170V1338H333V147H856V1338H1019V147H1542V1338H1705V0Z"/><glyph unicode="Щ" horiz-adv-x="1988" d="M1009 1338V147H1522V1338H1685V147H1848V-443H1685V0H170V1338H333V147H846V1338H1009Z"/><glyph unicode="Ъ" horiz-adv-x="1418" d="M546 147H711Q808 147 878 159T996 193T1072 242T1116 300T1136 360T1141 418Q1141 460 1130 496T1093 561T1029 612T933 647Q890 657 837 661T721 666Q699 666 675 665T627 663T546 656V147ZM546 803Q599 807 620 808T670 810T721 811Q795 811 859 806T977 789Q1154 750 1233 655T1313 421Q1313 367 1299 309T1248 198T1148 101T988 30Q931 15 860 8T683 0H383V1191H0V1338H546V803Z"/><glyph unicode="Ы" horiz-adv-x="1599" d="M1266 0V1338H1429V0H1266ZM170 1338H333V803Q385 807 406 808T456 810T508 811Q578 811 639 807T754 791Q845 772 910 739T1018 658T1080 551T1100 421Q1100 369 1087 314T1039 206T945 109T796 37Q737 19 661 10T472 0H170V1338ZM333 147H498Q592 147 663 159T783 193T859 242T903 300T923 361T928 418Q928 457 917 494T881 560T817 612T721 647Q678 658 625 662T508 666Q486 666 462 665T413 663T333 656V147Z"/><glyph unicode="Ь" horiz-adv-x="1225" d="M333 803Q387 807 407 808T456 810T512 811Q578 811 637 807T748 794Q845 777 915 744T1030 662T1098 554T1120 421Q1120 369 1106 313T1057 204T960 107T807 36Q749 19 670 10T485 0H170V1338H333V803ZM333 147H504Q604 147 675 159T796 193T875 242T922 301T943 361T948 418Q948 462 934 500T890 568T813 620T697 654Q657 661 610 663T508 666Q486 666 461 665T413 663T333 656V147Z"/><glyph unicode="Э" horiz-adv-x="1183" d="M397 1218Q365 1218 329 1215T257 1205T185 1190T120 1171V1315Q149 1327 185 1336T261 1351T340 1360T419 1363Q584 1363 705 1314T906 1172T1024 950T1063 658Q1063 498 1026 371T908 156T704 22T405 -25Q367 -25 326 -22T244 -12T166 3T100 23V167Q129 157 164 149T238 134T317 124T395 120Q638 120 761 241T889 612H206V759H887Q872 985 751 1101T397 1218Z"/><glyph unicode="Ю" horiz-adv-x="1907" d="M1787 668Q1787 522 1749 396T1635 176T1451 29T1201 -25Q1062 -25 956 23T776 157T661 359T613 612H333V0H170V1338H333V759H616Q628 889 671 999T788 1191T965 1317T1199 1363Q1344 1363 1454 1310T1638 1163T1749 942T1787 668ZM1615 668Q1615 801 1584 903T1498 1076T1366 1182T1199 1218Q1108 1218 1032 1182T901 1076T814 904T783 668Q783 535 814 433T900 262T1033 156T1201 120Q1291 120 1367 156T1498 261T1584 433T1615 668Z"/><glyph unicode="Я" horiz-adv-x="1251" d="M90 0L422 549V553Q350 574 298 611T212 696T162 801T145 921Q145 1013 176 1089T266 1221T413 1307T612 1338H1081V0H918V531H591L279 0H90ZM624 1191Q474 1191 396 1122T317 927Q317 809 390 744T608 678H918V1191H624Z"/><glyph unicode="а" horiz-adv-x="1003" d="M706 105H702Q683 81 654 58T587 16T504 -14T408 -25Q339 -25 282 -5T183 55T118 152T95 281Q95 352 120 408T192 503T302 563T445 584Q519 583 582 571T694 541H698V607Q698 646 693 676T676 729Q650 777 593 808T439 840Q367 840 304 827T177 789V919Q201 931 233 941T302 959T378 971T458 975Q602 975 693 924T825 789Q840 757 846 719T853 634V0H723L706 105ZM698 417Q655 429 596 440T466 452Q367 452 311 410T255 281Q255 237 269 204T307 150T365 118T437 107Q487 107 530 121T606 156T663 196T698 227V417Z"/><glyph unicode="б" horiz-adv-x="1074" d="M276 826Q349 875 428 901T580 928Q671 928 744 899T870 815T950 677T979 489Q979 371 950 276T864 114T725 11T536 -25Q434 -25 354 14T218 136T134 349T105 661Q105 838 135 971T232 1197T402 1344T653 1416L889 1445V1281L658 1253Q563 1241 493 1221T376 1155T303 1031T272 826H276ZM548 795Q477 795 402 769T268 699Q266 657 265 608Q265 479 285 385T342 230T431 138T548 107Q610 107 659 131T744 204T798 322T817 484Q817 568 794 627T734 723T648 778T548 795Z"/><glyph unicode="в" horiz-adv-x="1005" d="M723 494Q757 491 790 477T850 436T893 371T910 280Q910 193 861 126T713 25Q676 13 627 7T511 0H150V950H531Q594 950 639 944T718 925Q799 896 840 838T882 703Q882 658 869 624T833 565T782 524T723 498V494ZM509 131Q563 131 600 136T664 151Q710 169 729 201T748 278Q748 329 722 363T650 413Q612 426 545 426H301V131H509ZM542 557Q601 557 632 566Q677 580 698 611T720 687Q720 766 655 798Q615 819 529 819H301V557H542Z"/><glyph unicode="г" horiz-adv-x="846" d="M796 809H305V0H150V950H796V809Z"/><glyph unicode="д" horiz-adv-x="1191" d="M539 817Q530 693 508 595T453 417T378 269T286 137L283 133H757V817H539ZM912 950V133H1061V-340H912V0H199V-340H50V133H100Q168 206 223 287T318 466T382 683T412 950H912Z"/><glyph unicode="е" horiz-adv-x="1019" d="M522 842Q469 842 424 821T344 764T289 680T263 576H743Q743 632 729 680T686 765T617 821T522 842ZM607 110Q684 110 747 122T874 158V29Q823 4 748 -10T587 -25Q485 -25 396 1T239 85T134 236T95 462Q95 592 131 687T227 847T365 943T528 975Q608 975 677 949T798 865T878 718T908 502Q908 490 908 482T907 443H255Q255 352 282 289T357 186T469 128T607 110Z"/><glyph unicode="ж" horiz-adv-x="1373" d="M762 0H611V465H609L219 0H30L438 477L56 950H243L609 485H611V950H762V485H764L1130 950H1317L935 477L1343 0H1154L764 465H762V0Z"/><glyph unicode="з" horiz-adv-x="879" d="M103 920Q165 944 243 959T404 975Q496 975 561 956T671 903T738 819T761 711Q761 664 748 629T712 567T661 524T602 498V494Q640 489 674 473T733 430T774 363T789 272Q789 212 767 158T696 64T570 -1T380 -25Q299 -25 226 -13T85 29V156Q146 134 212 121T357 107Q437 107 489 119T572 154T615 208T627 275Q627 349 575 387T415 425H208V558H420Q472 558 505 568T560 595T590 637T599 691Q599 724 586 751T547 799T479 831T382 843Q307 842 244 830T103 793V920Z"/><glyph unicode="и" horiz-adv-x="1121" d="M286 0H150V950H305V429Q305 289 300 223H304Q332 269 372 327T459 448L835 950H971V0H816V521Q816 631 821 727H817Q789 681 749 623T661 502L286 0Z"/><glyph unicode="й" horiz-adv-x="1121" d="M286 0H150V950H305V429Q305 289 300 223H304Q332 269 372 327T459 448L835 950H971V0H816V521Q816 631 821 727H817Q789 681 749 623T661 502L286 0ZM571 1259Q646 1259 692 1308T750 1448H890Q886 1384 863 1328T800 1229T702 1161T570 1136Q497 1136 440 1161T344 1228T282 1327T256 1448H395Q406 1357 450 1308T571 1259Z"/><glyph unicode="к" horiz-adv-x="975" d="M307 485L721 950H919L490 477L945 0H745L307 465H305V0H150V950H305V485H307Z"/><glyph unicode="л" horiz-adv-x="1076" d="M926 950V0H771V817H519Q496 621 465 483T397 252T318 105T234 24T150 -11T71 -19Q47 -19 30 -16V145Q43 143 54 143Q91 142 122 152T181 187T237 266T292 408T345 630T395 950H926Z"/><glyph unicode="м" horiz-adv-x="1300" d="M605 0L423 455Q365 598 304 761H295Q302 642 302 458V0H150V950H369L539 518Q600 365 646 232H653Q702 369 760 518L931 950H1150V0H998V458Q998 622 1005 761H996Q954 647 877 455L695 0H605Z"/><glyph unicode="н" horiz-adv-x="1089" d="M784 0V425H305V0H150V950H305V558H784V950H939V0H784Z"/><glyph unicode="о" horiz-adv-x="1092" d="M835 474Q835 562 814 630T754 746T662 818T546 843Q483 843 430 819T339 747T279 631T257 474Q257 387 278 319T339 203T431 132T547 107Q610 107 662 131T753 203T813 318T835 474ZM997 474Q997 362 965 270T875 113T733 11T547 -25Q441 -25 358 11T216 112T126 270T95 474Q95 587 127 679T217 837T359 939T546 975Q651 975 735 939T877 837T966 679T997 474Z"/><glyph unicode="п" horiz-adv-x="1069" d="M305 809V0H150V950H919V0H764V809H305Z"/><glyph unicode="р" horiz-adv-x="1087" d="M830 484Q830 567 813 633T760 745T674 817T556 842Q508 842 469 829T397 796T342 753T305 712V215Q354 165 416 136T551 107Q595 107 644 123T734 182T803 298T830 484ZM992 486Q992 387 973 311T921 177T846 82T757 20T664 -14T574 -25Q487 -25 423 3T308 88H305V-465H150V950H267L300 842H303Q316 862 336 881T391 921T474 959T580 975Q660 975 734 948T866 862T957 711T992 486Z"/><glyph unicode="с" horiz-adv-x="898" d="M558 975Q627 975 690 961T798 920V791Q735 815 682 827T574 839Q516 839 459 820T357 758T285 643T257 465Q257 388 277 323T338 211T440 137T581 110Q639 110 698 122T813 158V29Q796 19 769 9T708 -8T638 -20T564 -25Q468 -25 383 4T233 93T132 245T95 463Q95 557 114 632T168 764T247 861T344 926T451 963T558 975Z"/><glyph unicode="т" horiz-adv-x="901" d="M373 812H50V950H851V812H528V0H373V812Z"/><glyph unicode="у" horiz-adv-x="982" d="M30 950H189L484 205H490L789 950H952L359 -465H205L408 19L30 950Z"/><glyph unicode="ф" horiz-adv-x="1367" d="M608 -465V-23Q487 -16 392 22T230 124T130 277T95 474Q95 582 129 671T228 824T389 927T608 973V1448H759V973Q880 966 975 928T1137 826T1237 673T1272 476Q1272 368 1238 279T1139 126T978 23T759 -23V-465H608ZM1114 476Q1114 561 1089 626T1018 738T906 810T759 844V106Q840 113 905 139T1017 212T1089 325T1114 476ZM253 474Q253 389 278 323T349 211T461 139T608 106V844Q527 837 462 811T350 738T278 626T253 474Z"/><glyph unicode="х" horiz-adv-x="952" d="M480 584L738 950H909L562 480L922 0H754L476 380H472L198 0H30L390 484L43 950H214L476 584H480Z"/><glyph unicode="ц" horiz-adv-x="1173" d="M150 0V950H305V139H739V950H894V139H1043V-340H894V0H150Z"/><glyph unicode="ч" horiz-adv-x="995" d="M690 398H687Q646 370 581 350T433 330Q376 330 317 343T212 392T138 490T110 649V950H265V669Q265 624 273 586T301 521T358 478T449 463Q518 463 581 482T690 537V950H845V0H690V398Z"/><glyph unicode="ш" horiz-adv-x="1465" d="M1315 0H150V950H305V133H655V950H810V133H1160V950H1315V0Z"/><glyph unicode="щ" horiz-adv-x="1574" d="M150 0V950H305V133H645V950H800V133H1140V950H1295V133H1444V-340H1295V0H150Z"/><glyph unicode="ъ" horiz-adv-x="1108" d="M437 584Q481 590 527 593T613 597Q723 596 800 574T925 511T996 418T1018 302Q1018 223 985 164T892 67T750 10T568 -9Q482 -9 411 0T282 28V817H0V950H437V584ZM582 123Q709 123 782 167T856 299Q856 334 843 364T799 416T722 452T607 465Q553 464 516 461T437 451V136Q468 129 506 126T582 123Z"/><glyph unicode="ы" horiz-adv-x="1330" d="M1025 0V950H1180V0H1025ZM450 123Q577 123 650 167T724 299Q724 334 710 365T666 417T590 452T475 465Q439 465 399 462T305 451V136Q333 129 372 126T450 123ZM305 950V584Q349 590 396 593T481 597Q591 597 668 574T793 511T864 418T886 302Q886 223 853 164T760 67T618 10T436 -9Q350 -9 279 0T150 28V950H305Z"/><glyph unicode="ь" horiz-adv-x="996" d="M455 123Q520 123 573 133T665 165T723 220T744 299Q744 335 729 365T682 418T599 452T479 465Q445 465 402 462T305 451V136Q336 129 376 126T455 123ZM305 950V584Q349 590 399 593T497 597Q605 597 682 575T809 513T882 419T906 302Q906 221 871 162T774 65T627 9T441 -9Q355 -9 282 0T150 28V950H305Z"/><glyph unicode="э" horiz-adv-x="944" d="M370 975Q459 975 544 948T698 861T807 704T849 465Q849 338 812 246T709 93T553 4T350 -24Q281 -24 208 -10T90 29V155Q150 132 210 120T335 107Q415 107 478 128T587 190T658 290T686 425H180V558H681Q674 634 642 688T564 776T463 827T355 843Q290 843 232 831T107 794V920Q154 944 223 959T370 975Z"/><glyph unicode="ю" horiz-adv-x="1499" d="M305 425V0H150V950H305V558H506Q517 653 553 730T647 861T782 945T953 975Q1058 975 1142 939T1284 837T1373 679T1404 474Q1404 362 1372 270T1282 113T1140 11T954 -25Q854 -25 774 7T636 98T545 240T504 425H305ZM1242 474Q1242 562 1221 630T1161 746T1069 818T953 843Q890 843 837 819T746 747T686 631T664 474Q664 387 685 319T746 203T838 132T954 107Q1017 107 1069 131T1160 203T1220 318T1242 474Z"/><glyph unicode="я" horiz-adv-x="1023" d="M133 642Q133 731 177 804T310 916Q348 933 398 941T521 950H873V0H718V371H484L280 0H100L323 392Q278 403 243 426T184 482T146 556T133 642ZM525 817Q477 817 444 813T385 796Q343 777 319 741T295 649Q295 608 309 580T349 534T413 508T498 500H718V817H525Z"/><glyph unicode="ѐ" horiz-adv-x="1019" d="M522 842Q469 842 424 821T344 764T289 680T263 576H743Q743 632 729 680T686 765T617 821T522 842ZM607 110Q684 110 747 122T874 158V29Q823 4 748 -10T587 -25Q485 -25 396 1T239 85T134 236T95 462Q95 592 131 687T227 847T365 943T528 975Q608 975 677 949T798 865T878 718T908 502Q908 490 908 482T907 443H255Q255 352 282 289T357 186T469 128T607 110ZM469 1473L592 1124H462L301 1473H469Z"/><glyph unicode="ё" horiz-adv-x="1019" d="M522 842Q469 842 424 821T344 764T289 680T263 576H743Q743 632 729 680T686 765T617 821T522 842ZM607 110Q684 110 747 122T874 158V29Q823 4 748 -10T587 -25Q485 -25 396 1T239 85T134 236T95 462Q95 592 131 687T227 847T365 943T528 975Q608 975 677 949T798 865T878 718T908 502Q908 490 908 482T907 443H255Q255 352 282 289T357 186T469 128T607 110ZM255 1171V1338H414V1171H255ZM636 1171V1338H795V1171H636Z"/><glyph unicode="ђ" horiz-adv-x="1134" d="M30 1285H197V1448H352V1285H754V1152H352V786H355Q416 846 489 876T634 907Q723 907 795 872T917 766T996 592T1024 351Q1024 218 998 99T915 -112T769 -256T555 -310Q540 -310 527 -309V-166H543Q639 -165 701 -123T798 -7T846 161T860 363Q860 455 844 530T797 660T720 744T613 774Q545 773 478 736T352 637V0H197V1152H30V1285Z"/><glyph unicode="ѓ" horiz-adv-x="846" d="M796 809H305V0H150V950H796V809ZM697 1473L536 1124H406L529 1473H697Z"/><glyph unicode="є" horiz-adv-x="943" d="M573 975Q651 975 720 960T836 920V794Q769 818 710 830T588 843Q533 843 477 827T375 777T297 688T258 558H775V425H253Q255 349 281 290T352 191T461 129T603 107Q672 107 731 119T853 155V29Q815 8 743 -8T585 -25Q480 -25 390 3T235 91T132 242T95 462Q95 556 114 630T166 762T245 859T344 925T455 963T573 975Z"/><glyph unicode="ѕ" horiz-adv-x="828" d="M250 697Q250 658 267 633T312 593T378 567T456 549Q511 537 560 523T650 479T717 401T743 272Q743 200 715 145T636 52T514 -5T358 -25Q306 -25 264 -20T189 -6T133 12T95 29V159Q155 135 214 121T344 107Q400 107 445 117T522 146T572 195T590 264Q590 304 574 330T531 373T469 401T394 421Q343 432 291 447T195 489T126 562T99 682Q99 757 126 812T199 903T306 957T435 975Q514 975 581 960T704 922V790Q644 813 583 827T456 843Q401 843 362 832T298 802T262 756T250 697Z"/><glyph unicode="і" horiz-adv-x="475" d="M160 0V950H315V0H160ZM156 1171V1344H319V1171H156Z"/><glyph unicode="ї" horiz-adv-x="475" d="M160 0V950H315V0H160ZM-34 1171V1338H125V1171H-34ZM347 1171V1338H506V1171H347Z"/><glyph unicode="ј" horiz-adv-x="494" d="M334 -212Q334 -343 259 -416T21 -490Q-22 -490 -61 -484T-120 -470V-338Q-90 -346 -60 -350T2 -355Q97 -355 138 -316T179 -194V950H334V-212ZM175 1171V1344H338V1171H175Z"/><glyph unicode="љ" horiz-adv-x="1597" d="M926 584Q970 590 1017 593T1102 597Q1212 597 1289 574T1414 511T1485 418T1507 302Q1507 223 1474 164T1381 67T1239 10T1057 -9Q971 -9 900 0T771 28V817H519Q496 621 465 483T397 251T318 104T233 24T149 -11T67 -19Q44 -19 30 -16V145Q42 143 54 143Q90 143 120 151T180 186T237 266T292 408T345 630T395 950H926V584ZM1071 123Q1198 123 1271 167T1345 299Q1345 334 1332 364T1288 416T1211 452T1096 465Q1062 465 1015 462T926 451V136Q957 129 995 126T1071 123Z"/><glyph unicode="њ" horiz-adv-x="1539" d="M878 584Q922 590 966 593T1058 597Q1163 597 1238 574T1360 510T1428 416T1449 302Q1449 224 1417 166T1326 69T1187 11T1009 -9Q923 -9 852 0T723 28V445H305V0H150V950H305V578H723V950H878V584ZM1023 123Q1147 123 1217 167T1287 299Q1287 334 1275 364T1234 416T1160 452T1048 465Q1024 465 979 463T878 451V136Q908 129 946 126T1023 123Z"/><glyph unicode="ћ" horiz-adv-x="1145" d="M30 1285H197V1448H352V1285H744V1152H352V754H355Q406 820 482 863T662 907Q704 907 751 899T842 867T922 804T978 702Q987 674 991 637T995 554V0H840V528Q840 604 827 646Q805 713 755 743T637 774Q553 773 480 728T352 605V0H197V1152H30V1285Z"/><glyph unicode="ќ" horiz-adv-x="975" d="M307 485L721 950H919L490 477L945 0H745L307 465H305V0H150V950H305V485H307ZM730 1473L569 1124H439L562 1473H730Z"/><glyph unicode="ѝ" horiz-adv-x="1121" d="M286 0H150V950H305V429Q305 289 300 223H304Q332 269 372 327T459 448L835 950H971V0H816V521Q816 631 821 727H817Q789 681 749 623T661 502L286 0ZM516 1473L639 1124H509L348 1473H516Z"/><glyph unicode="ў" horiz-adv-x="982" d="M30 950H189L484 205H490L789 950H952L359 -465H205L408 19L30 950ZM490 1259Q565 1259 611 1308T669 1448H809Q805 1384 782 1328T719 1229T621 1161T489 1136Q416 1136 359 1161T263 1228T201 1327T175 1448H314Q325 1357 369 1308T490 1259Z"/><glyph unicode="џ" horiz-adv-x="1069" d="M610 -340H461V0H150V950H305V139H764V950H919V0H610V-340Z"/><glyph unicode="Ѣ" horiz-adv-x="1317" d="M425 1176H905V1029H425V803Q471 807 522 809T604 811Q670 811 729 807T840 794Q937 777 1007 744T1122 662T1190 554T1212 421Q1212 368 1198 313T1149 204T1053 107T899 36Q837 19 755 10T577 0H262V1029H20V1176H262V1338H425V1176ZM425 147H596Q696 147 768 159T889 193T968 242T1014 300T1035 361T1040 418Q1040 462 1026 500T982 568T905 620T789 654Q749 661 702 663T600 666Q569 666 524 664T425 656V147Z"/><glyph unicode="ѣ" horiz-adv-x="1046" d="M535 123Q600 123 653 133T745 165T803 220T824 299Q824 335 809 365T762 418T679 452T559 465Q544 465 523 464T478 462T430 458T385 451V136Q416 128 456 126T535 123ZM30 817V950H230V1448H385V950H704V817H385V584Q429 590 479 593T571 597Q681 597 759 575T888 513T962 419T986 302Q986 221 951 162T854 65T707 9T521 -9Q435 -9 362 0T230 28V817H30Z"/><glyph unicode="Ѳ" horiz-adv-x="1444" d="M1334 668Q1334 518 1292 391T1170 172T978 27T724 -25Q579 -25 465 27T272 171T152 391T110 668Q110 819 152 946T274 1166T467 1311T722 1363Q867 1363 980 1311T1172 1167T1292 947T1334 668ZM724 120Q814 120 892 151T1029 245T1122 400T1159 612H285Q287 492 321 400T415 246T553 152T724 120ZM722 1218Q634 1218 558 1189T423 1101T330 957T287 759H1156Q1150 871 1114 957T1020 1101T886 1188T722 1218Z"/><glyph unicode="ѳ" horiz-adv-x="1072" d="M977 474Q977 362 947 270T860 113T722 11T537 -25Q431 -25 349 11T211 112T125 270T95 474Q95 587 125 679T212 837T351 939T536 975Q641 975 723 939T862 837T947 679T977 474ZM537 107Q595 107 644 128T730 189T790 288T818 423H254Q259 347 282 289T342 190T429 128T537 107ZM536 843Q481 843 433 824T349 768T289 678T257 556H815Q807 625 783 678T722 768T638 824T536 843Z"/><glyph unicode="Ѵ" horiz-adv-x="1342" d="M693 0H550L40 1338H216L470 660Q551 443 622 222H626Q707 460 776 660L939 1127Q965 1200 996 1246T1067 1318T1152 1353T1251 1363Q1275 1363 1302 1361V1210Q1283 1211 1273 1211Q1233 1211 1206 1206T1157 1184T1117 1136T1079 1051L693 0Z"/><glyph unicode="ѵ" horiz-adv-x="1038" d="M674 745Q699 817 729 862T794 932T868 966T952 975Q971 975 988 974V838Q951 838 924 833T877 811T840 767T807 692L558 0H400L30 950H197L420 342Q458 242 477 178H481Q524 309 553 394L674 745Z"/><glyph unicode="Ґ" horiz-adv-x="1101" d="M333 1191V0H170V1338H888V1716H1051V1191H333Z"/><glyph unicode="ґ" horiz-adv-x="900" d="M691 950V1245H840V809H305V0H150V950H691Z"/><glyph unicode="Ẁ" horiz-adv-x="1806" d="M901 1117Q885 1025 826 795L618 0H452L40 1338H211L437 553Q491 364 529 213H533Q553 306 576 394T618 551L822 1338H984L1188 551Q1263 267 1273 213H1277Q1311 353 1369 553L1595 1338H1766L1354 0H1188L980 795Q923 1017 905 1117H901ZM833 1656L979 1409H840L659 1656H833Z"/><glyph unicode="ẁ" horiz-adv-x="1458" d="M726 793Q695 662 668 567L512 0H353L40 950H197L373 358Q408 241 426 171H430Q446 243 483 379L642 950H816L975 379Q1007 263 1028 171H1032Q1056 263 1085 358L1261 950H1418L1105 0H944L788 567Q760 668 730 793H726ZM672 1473L795 1124H665L504 1473H672Z"/><glyph unicode="Ẃ" horiz-adv-x="1806" d="M901 1117Q885 1025 826 795L618 0H452L40 1338H211L437 553Q491 364 529 213H533Q553 306 576 394T618 551L822 1338H984L1188 551Q1263 267 1273 213H1277Q1311 353 1369 553L1595 1338H1766L1354 0H1188L980 795Q923 1017 905 1117H901ZM1150 1656L969 1409H830L976 1656H1150Z"/><glyph unicode="ẃ" horiz-adv-x="1458" d="M726 793Q695 662 668 567L512 0H353L40 950H197L373 358Q408 241 426 171H430Q446 243 483 379L642 950H816L975 379Q1007 263 1028 171H1032Q1056 263 1085 358L1261 950H1418L1105 0H944L788 567Q760 668 730 793H726ZM960 1473L799 1124H669L792 1473H960Z"/><glyph unicode="Ẅ" horiz-adv-x="1806" d="M901 1117Q885 1025 826 795L618 0H452L40 1338H211L437 553Q491 364 529 213H533Q553 306 576 394T618 551L822 1338H984L1188 551Q1263 267 1273 213H1277Q1311 353 1369 553L1595 1338H1766L1354 0H1188L980 795Q923 1017 905 1117H901ZM632 1448V1617H793V1448H632ZM1015 1448V1617H1176V1448H1015Z"/><glyph unicode="ẅ" horiz-adv-x="1458" d="M726 793Q695 662 668 567L512 0H353L40 950H197L373 358Q408 241 426 171H430Q446 243 483 379L642 950H816L975 379Q1007 263 1028 171H1032Q1056 263 1085 358L1261 950H1418L1105 0H944L788 567Q760 668 730 793H726ZM459 1171V1338H618V1171H459ZM840 1171V1338H999V1171H840Z"/><glyph unicode="Ỳ" horiz-adv-x="1217" d="M690 538V0H527V538L40 1338H218L606 688H611L999 1338H1177L690 538ZM540 1656L686 1409H547L366 1656H540Z"/><glyph unicode="ỳ" horiz-adv-x="982" d="M30 950H189L484 205H490L789 950H952L359 -465H205L408 19L30 950ZM448 1473L571 1124H441L280 1473H448Z"/><glyph unicode="‐" horiz-adv-x="681" d="M120 571H561V426H120V571Z"/><glyph unicode="–" horiz-adv-x="1000" d="M0 558H1000V433H0V558Z"/><glyph unicode="—" horiz-adv-x="1700" d="M0 558H1700V433H0V558Z"/><glyph unicode="―" horiz-adv-x="1700" d="M0 558H1700V433H0V558Z"/><glyph unicode="‘" horiz-adv-x="449" d="M60 1338H203L379 844H206L60 1338Z"/><glyph unicode="’" horiz-adv-x="449" d="M216 1338H389L213 844H70L216 1338Z"/><glyph unicode="‚" horiz-adv-x="449" d="M169 226H342L166 -268H23L169 226Z"/><glyph unicode="“" horiz-adv-x="809" d="M80 1338H223L379 844H206L80 1338ZM419 1338H564L739 844H564L419 1338Z"/><glyph unicode="”" horiz-adv-x="809" d="M216 1338H389L213 844H70L216 1338ZM574 1338H749L544 844H399L574 1338Z"/><glyph unicode="„" horiz-adv-x="809" d="M169 226H342L166 -268H23L169 226ZM527 226H702L497 -268H352L527 226Z"/><glyph unicode="†" horiz-adv-x="951" d="M550 1148L504 946L508 942L674 987H831V850H674L508 895L504 891L550 689L506 129H445L401 689L447 891L443 895L277 850H120V987H277L443 942L447 946L401 1148V1338H550V1148Z"/><glyph unicode="‡" horiz-adv-x="951" d="M401 689L447 891L443 895L277 850H120V987H277L443 942L447 946L401 1148V1338H550V1148L504 946L508 942L674 987H831V850H674L508 895L504 891L550 689V649L504 447L508 443L674 488H831V351H674L508 396L504 392L550 190V0H401V190L447 392L443 396L277 351H120V488H277L443 443L447 447L401 649V689Z"/><glyph unicode="•" horiz-adv-x="908" d="M140 667Q140 734 164 791T230 891T329 957T454 981Q521 981 578 957T678 891T744 792T768 667Q768 600 744 543T678 443T579 377T454 353Q387 353 330 377T230 443T164 542T140 667Z"/><glyph unicode="…" horiz-adv-x="1623" d="M175 0V195H366V0H175ZM716 0V195H907V0H716ZM1257 0V195H1448V0H1257Z"/><glyph unicode="‰" horiz-adv-x="2333" d="M1305 852Q1368 852 1420 826T1510 745T1567 610T1588 418Q1588 308 1568 227T1510 91T1421 10T1305 -17Q1242 -17 1190 10T1100 91T1043 226T1022 418Q1022 528 1042 609T1100 745T1189 825T1305 852ZM1305 104Q1374 104 1410 181T1446 418Q1446 577 1410 654T1305 731Q1236 731 1200 654T1164 418Q1164 259 1200 182T1305 104ZM1263 1363L1364 1285L387 -25L286 53L1263 1363ZM1990 852Q2053 852 2105 826T2195 745T2252 610T2273 418Q2273 308 2253 227T2195 91T2106 10T1990 -17Q1927 -17 1875 10T1785 91T1728 226T1707 418Q1707 528 1727 609T1785 745T1874 825T1990 852ZM1990 104Q2059 104 2095 181T2131 418Q2131 577 2095 654T1990 731Q1921 731 1885 654T1849 418Q1849 259 1885 182T1990 104ZM343 1363Q406 1363 458 1337T548 1256T605 1121T626 929Q626 819 606 738T548 602T459 521T343 494Q280 494 228 521T138 602T81 737T60 929Q60 1039 80 1120T138 1256T227 1336T343 1363ZM343 615Q412 615 448 692T484 929Q484 1088 448 1165T343 1242Q274 1242 238 1165T202 929Q202 770 238 693T343 615Z"/><glyph unicode="‹" horiz-adv-x="600" d="M110 474L375 850H520L295 474L520 98H375L110 474Z"/><glyph unicode="›" horiz-adv-x="600" d="M225 98H80L305 474L80 850H225L490 474L225 98Z"/><glyph unicode="‽" horiz-adv-x="873" d="M223 0V195H414V0H223ZM352 659Q383 717 418 758T488 832Q513 857 535 879T574 926T601 978T611 1042Q611 1086 593 1121T541 1180T461 1217T357 1230Q280 1230 209 1211T80 1166V1298Q134 1327 210 1345T364 1363Q459 1363 534 1341T662 1278T743 1180T772 1051Q772 994 756 950T712 870T650 804T579 745Q543 716 508 687T446 622T401 544T384 446V431H253L229 1010H402Q400 952 395 907T382 822Q374 779 364 741T345 662L352 659Z"/><glyph unicode="⁄" horiz-adv-x="457" d="M666 1363L767 1285L-210 -25L-311 53L666 1363Z"/><glyph unicode="⁰" horiz-adv-x="686" d="M343 1363Q406 1363 458 1337T548 1256T605 1121T626 929Q626 819 606 738T548 602T459 521T343 494Q280 494 228 521T138 602T81 737T60 929Q60 1039 80 1120T138 1256T227 1336T343 1363ZM343 615Q412 615 448 692T484 929Q484 1088 448 1165T343 1242Q274 1242 238 1165T202 929Q202 770 238 693T343 615Z"/><glyph unicode="⁴" horiz-adv-x="674" d="M189 815V811L280 817H386V1009H528V817H624V700H528V513H386V700H40V798L270 1338H413L189 815Z"/><glyph unicode="⁵" horiz-adv-x="608" d="M558 765Q558 705 536 655T471 569T367 514T228 494Q177 494 129 504T50 531V650Q91 631 136 623T221 615Q320 616 368 655T416 763Q416 835 360 870T200 906Q139 906 76 898L136 1338H557V1221H252L224 1018H242Q315 1018 373 1002T473 953T536 873T558 765Z"/><glyph unicode="⁶" horiz-adv-x="684" d="M382 1033Q439 1033 486 1014T567 960T620 877T639 772Q639 716 620 666T565 577T476 517T356 494Q285 494 230 520T137 596T80 716T60 875Q60 980 83 1069T152 1223T271 1326T440 1363Q492 1362 532 1353T592 1334V1215Q553 1230 515 1236T447 1243Q402 1243 363 1231T292 1188T238 1109T203 985H207Q245 1007 286 1020T382 1033ZM359 614Q425 614 461 655T498 766Q498 835 464 874T357 913Q312 913 274 899T199 862Q199 739 241 677T359 614Z"/><glyph unicode="⁷" horiz-adv-x="558" d="M25 1221V1338H544V1245L208 513H66L394 1221H25Z"/><glyph unicode="⁸" horiz-adv-x="696" d="M348 494Q281 494 227 512T135 563T76 638T55 732Q55 777 69 812T105 873T156 915T214 940V944Q152 966 112 1012T72 1132Q72 1188 94 1231T155 1304T243 1348T348 1363Q403 1363 453 1348T541 1304T601 1232T624 1132Q624 1058 584 1012T482 944V940Q511 932 539 916T590 874T627 813T641 732Q641 682 621 639T562 563T469 513T348 494ZM348 1243Q321 1243 297 1237T254 1217T225 1183T214 1134Q214 1081 247 1049T348 997Q415 1017 448 1049T482 1134Q482 1162 472 1182T443 1216T400 1236T348 1243ZM348 883Q319 879 292 868T243 839T209 797T196 741Q196 679 237 647T348 614Q417 614 458 646T500 741Q500 772 487 796T453 839T405 868T348 883Z"/><glyph unicode="⁹" horiz-adv-x="684" d="M235 614Q288 614 331 627T406 670T457 750T484 873H481Q446 852 401 838T303 824Q249 824 202 840T120 889T65 969T45 1080Q45 1140 64 1191T120 1281T209 1341T326 1363Q397 1363 452 1336T546 1258T604 1133T624 963Q624 865 604 780T538 631T421 531T247 494Q198 494 153 504T73 531V650Q104 636 148 625T235 614ZM326 944Q374 944 413 957T486 992Q484 1120 443 1181T325 1243Q258 1243 222 1201T185 1090Q185 1016 221 980T326 944Z"/><glyph unicode="⁺" horiz-adv-x="686" d="M43 991H277V1244H409V991H643V867H409V614H277V867H43V991Z"/><glyph unicode="⁻" horiz-adv-x="686" d="M643 867H43V991H643V867Z"/><glyph unicode="⁼" horiz-adv-x="686" d="M643 709H43V833H643V709ZM643 1026H43V1150H643V1026Z"/><glyph unicode="⁽" horiz-adv-x="383" d="M222 927Q222 857 233 796T264 684T309 591T363 516L274 455Q250 475 217 516T154 617T102 755T80 927Q80 1022 101 1099T153 1237T217 1338T274 1399L363 1338Q335 1305 309 1263T264 1170T234 1059T222 927Z"/><glyph unicode="⁾" horiz-adv-x="383" d="M161 927Q161 998 150 1058T119 1170T75 1263T20 1338L109 1399Q133 1379 166 1338T229 1237T281 1100T303 927Q303 833 282 755T230 617T166 516T109 455L20 516Q49 549 74 591T119 684T149 796T161 927Z"/><glyph unicode="ⁿ" horiz-adv-x="842" d="M249 1125H253Q295 1175 352 1208T491 1244Q538 1244 581 1231T657 1186T711 1104T732 977V513H590V969Q590 1043 556 1081T456 1119Q397 1119 345 1086T252 993V513H110V1226H232L249 1125Z"/><glyph unicode="₀" horiz-adv-x="686" d="M343 553Q406 553 458 527T548 446T605 311T626 119Q626 9 606 -72T548 -208T459 -289T343 -316Q280 -316 228 -289T138 -208T81 -73T60 119Q60 229 80 310T138 446T227 526T343 553ZM343 -195Q412 -195 448 -118T484 119Q484 278 448 355T343 432Q274 432 238 355T202 119Q202 -40 238 -117T343 -195Z"/><glyph unicode="₁" horiz-adv-x="631" d="M278 -180V403L55 328V455L291 541H420V-180H591V-297H73V-180H278Z"/><glyph unicode="₂" horiz-adv-x="641" d="M50 -208Q140 -106 207 -29T319 108T386 218T408 313Q408 344 397 366T367 403T321 425T264 432Q213 432 164 418T63 381V502Q99 521 156 536T280 553Q349 553 399 536T483 489T533 417T550 326Q550 271 533 220T476 110T376 -18T228 -182V-186Q306 -180 361 -180H581V-297H50V-208Z"/><glyph unicode="₃" horiz-adv-x="626" d="M239 -316Q191 -316 138 -307T50 -279V-160Q91 -179 140 -187T233 -195Q282 -195 318 -185T376 -155T409 -110T419 -54Q419 9 368 41T222 73H156V190H207Q306 190 352 224T398 322Q398 352 386 373T353 407T305 426T246 432Q198 432 152 422T63 395V516Q98 531 150 542T258 553Q324 553 376 537T465 492T521 423T540 334Q540 302 532 272T508 217T465 171T401 139V135Q432 131 461 118T512 81T547 22T561 -62Q561 -122 538 -169T471 -248T368 -298T239 -316Z"/><glyph unicode="₄" horiz-adv-x="674" d="M189 5V1L280 7H386V199H528V7H624V-110H528V-297H386V-110H40V-12L270 528H413L189 5Z"/><glyph unicode="₅" horiz-adv-x="618" d="M568 -45Q568 -105 546 -155T481 -241T377 -296T238 -316Q187 -316 139 -306T60 -279V-160Q101 -179 146 -187T231 -195Q330 -194 378 -155T426 -47Q426 25 370 60T210 96Q149 96 86 88L146 528H567V411H262L234 208H252Q325 208 383 192T483 143T546 63T568 -45Z"/><glyph unicode="₆" horiz-adv-x="689" d="M382 223Q439 223 486 204T567 150T620 67T639 -38Q639 -94 620 -144T565 -233T476 -293T356 -316Q285 -316 230 -290T137 -214T80 -94T60 65Q60 170 83 259T152 413T271 516T440 553Q492 552 532 543T592 524V405Q553 420 515 426T447 433Q402 433 363 421T292 378T238 299T203 175H207Q245 197 286 210T382 223ZM359 -196Q425 -196 461 -155T498 -44Q498 25 464 64T357 103Q312 103 274 89T199 52Q199 -71 241 -133T359 -196Z"/><glyph unicode="₇" horiz-adv-x="558" d="M25 411V528H544V435L208 -297H66L394 411H25Z"/><glyph unicode="₈" horiz-adv-x="696" d="M348 -316Q281 -316 227 -298T135 -247T76 -172T55 -78Q55 -33 69 2T105 63T156 105T214 130V134Q152 156 112 202T72 322Q72 378 94 421T155 494T243 538T348 553Q403 553 453 538T541 494T601 422T624 322Q624 248 584 202T482 134V130Q511 122 539 106T590 64T627 3T641 -78Q641 -128 621 -171T562 -247T469 -297T348 -316ZM348 433Q321 433 297 427T254 407T225 373T214 324Q214 271 247 239T348 187Q415 207 448 239T482 324Q482 352 472 372T443 406T400 426T348 433ZM348 73Q319 69 292 58T243 29T209 -13T196 -69Q196 -131 237 -163T348 -196Q417 -196 458 -164T500 -69Q500 -38 487 -14T453 29T405 58T348 73Z"/><glyph unicode="₉" horiz-adv-x="689" d="M240 -196Q293 -196 336 -183T411 -140T462 -60T489 63H486Q451 42 406 28T308 14Q254 14 207 30T125 79T70 159T50 270Q50 330 69 381T125 471T214 531T331 553Q402 553 457 526T551 448T609 323T629 153Q629 55 609 -30T543 -179T426 -279T252 -316Q203 -316 158 -306T78 -279V-160Q109 -174 153 -185T240 -196ZM331 134Q379 134 418 147T491 182Q489 310 448 371T330 433Q263 433 227 391T190 280Q190 206 226 170T331 134Z"/><glyph unicode="₊" horiz-adv-x="686" d="M43 179H277V432H409V179H643V55H409V-198H277V55H43V179Z"/><glyph unicode="₋" horiz-adv-x="686" d="M643 55H43V179H643V55Z"/><glyph unicode="₌" horiz-adv-x="686" d="M643 -103H43V21H643V-103ZM643 214H43V338H643V214Z"/><glyph unicode="₍" horiz-adv-x="383" d="M222 120Q222 50 233 -11T264 -123T309 -216T363 -291L274 -352Q250 -332 217 -291T154 -190T102 -52T80 120Q80 215 101 292T153 430T217 531T274 592L363 531Q335 498 309 456T264 363T234 252T222 120Z"/><glyph unicode="₎" horiz-adv-x="383" d="M161 120Q161 191 150 251T119 363T75 456T20 531L109 592Q133 572 166 531T229 430T281 293T303 120Q303 26 282 -52T230 -190T166 -291T109 -352L20 -291Q49 -258 74 -216T119 -123T149 -11T161 120Z"/><glyph unicode="€" horiz-adv-x="1050" d="M110 727H244Q268 805 310 868T412 977T552 1046T729 1070Q762 1070 794 1067T856 1059T911 1047T956 1032V898Q908 914 852 924T739 935Q618 935 534 885T409 727H780V594H380Q378 575 377 555T376 514Q376 481 378 452H704V319H401Q436 207 521 159T743 110Q769 110 798 113T858 121T916 132T966 147V13Q919 -5 858 -15T731 -25Q518 -25 397 65T235 319H110V452H215Q214 481 214 487T214 506Q214 531 215 552T218 594H110V727Z"/><glyph unicode="ℓ" horiz-adv-x="1024" d="M130 540Q209 543 279 559V1070Q279 1121 283 1168T296 1251Q313 1317 342 1359T407 1427T484 1463T562 1473Q637 1473 689 1444T774 1366T822 1251T837 1113Q837 987 807 883T724 697T596 555T434 457V392Q434 301 457 247T516 163T598 121T689 110Q711 110 738 112T791 118T843 128T885 142V8Q876 4 855 -1T806 -12T744 -21T675 -25Q594 -25 523 -4T397 65T311 187T279 366V417Q203 402 130 400V540V540ZM434 614L437 612Q554 678 618 802T683 1117Q683 1144 681 1182T667 1254T631 1313T565 1338Q511 1338 482 1299T444 1202Q437 1158 436 1115T434 1041V614Z"/><glyph unicode="№" horiz-adv-x="2170" d="M1343 371H1970V254H1343V371ZM818 529Q860 455 902 376T983 223H989Q982 328 979 449T976 740V1338H1139V0H949L491 809Q449 883 407 962T326 1115H320Q327 1008 330 898T333 598V0H170V1338H360L818 529ZM1858 869Q1858 933 1844 980T1802 1059T1738 1107T1656 1123Q1565 1123 1510 1060T1454 869Q1454 805 1468 758T1510 679T1574 631T1657 615Q1747 615 1802 678T1858 869ZM2000 869Q2000 786 1975 717T1903 599T1795 522T1657 494Q1580 494 1517 521T1408 598T1337 717T1312 869Q1312 952 1337 1021T1409 1139T1518 1216T1656 1244Q1733 1244 1796 1217T1905 1140T1975 1021T2000 869Z"/><glyph unicode="℗" horiz-adv-x="1686" d="M728 285H596V1056H852Q929 1056 987 1039T1084 990T1142 915T1162 819Q1162 758 1138 712T1067 635T956 589T809 573Q792 573 771 574T728 577V285ZM728 703Q748 700 768 699T810 697Q872 697 914 706T980 731T1011 770T1020 819Q1020 874 977 902T860 931H728V703ZM150 669Q150 819 202 946T348 1165T568 1310T843 1363Q991 1363 1118 1311T1338 1166T1483 946T1536 669Q1536 519 1484 392T1338 173T1118 28T843 -25Q695 -25 568 27T348 172T203 392T150 669ZM282 669Q282 552 323 448T438 267T615 145T843 100Q968 100 1071 145T1248 267T1363 448T1404 669Q1404 786 1363 890T1248 1071T1071 1193T843 1238Q718 1238 615 1193T438 1071T323 890T282 669Z"/><glyph unicode="™" horiz-adv-x="1752" d="M331 1229H103V1338H680V1229H453V654H331V1229ZM1177 834Q1186 861 1203 908T1254 1040L1371 1338H1555V654H1435V983Q1435 1068 1436 1122T1440 1202H1433Q1397 1102 1348 982L1217 654H1132L1001 982Q953 1100 916 1202H909Q911 1176 912 1122T914 983V654H795V1338H977L1095 1040Q1128 955 1145 908T1171 834H1177Z"/><glyph unicode="Ω" horiz-adv-x="1506" d="M753 1363Q897 1363 1011 1315T1206 1181T1328 980T1371 730Q1371 630 1347 544T1282 386T1189 255T1082 151V147H1376V0H901V112Q958 178 1011 241T1106 375T1173 531T1199 727Q1199 855 1164 947T1067 1100T925 1189T753 1218Q662 1218 581 1190T439 1101T343 949T307 730Q307 619 332 533T399 376T494 241T605 112V0H130V147H420V151Q361 199 309 258T219 388T158 545T135 730Q135 864 177 980T300 1181T494 1314T753 1363Z"/><glyph unicode="℮" horiz-adv-x="1671" d="M378 277Q414 224 465 183T576 115T705 73T845 58Q1144 58 1312 265H1513Q1283 -25 834 -25Q731 -25 633 -4T447 57T287 157T162 294T80 466T50 671Q50 838 114 966T288 1183T541 1317T844 1363Q976 1363 1085 1335T1282 1256T1434 1136T1541 986T1602 816T1621 636H378V277ZM842 1280Q688 1280 571 1224T378 1062V721H1305V1062Q1229 1168 1113 1224T842 1280Z"/><glyph unicode="∂" horiz-adv-x="1053" d="M500 879Q577 879 653 854T790 782L793 783Q788 918 768 1021T705 1195T594 1302T425 1338Q356 1338 290 1322T171 1283V1417Q213 1437 283 1455T446 1473Q568 1473 662 1428T821 1288T919 1045T953 691Q953 342 834 159T475 -25Q389 -25 317 4T192 91T110 231T80 420Q80 527 110 612T195 756T328 847T500 879ZM486 107Q629 107 710 237T796 630Q768 655 735 676T666 713T590 738T512 747Q454 747 405 727T319 665T263 563T242 420Q242 339 260 280T311 182T389 126T486 107Z"/><glyph unicode="∆" horiz-adv-x="1286" d="M561 1338H724L1226 102V0H60V102L561 1338ZM253 147H1034L796 754Q722 943 647 1145H641Q554 911 493 757L253 147Z"/><glyph unicode="∏" horiz-adv-x="1415" d="M1355 1191H1184V-387H1021V1191H394V-387H231V1191H60V1338H1355V1191Z"/><glyph unicode="∑" horiz-adv-x="1143" d="M331 -240H1085V-387H132V-267L618 492L144 1218V1338H1075V1191H343L802 494L331 -240Z"/><glyph unicode="−" horiz-adv-x="1050" d="M115 455V587H935V455H115Z"/><glyph unicode="∕" horiz-adv-x="457" d="M666 1363L767 1285L-210 -25L-311 53L666 1363Z"/><glyph unicode="∙" horiz-adv-x="541" d="M175 394V589H366V394H175Z"/><glyph unicode="√" horiz-adv-x="1320" d="M795 -250H648L332 651L167 587L119 713L430 836L629 244Q670 118 709 -18H713Q743 118 768 231L1126 1694H1290L795 -250Z"/><glyph unicode="∞" horiz-adv-x="1572" d="M694 541Q661 579 628 615T559 679T482 724T392 741Q348 741 314 725T256 682T220 619T208 541Q208 500 220 464T255 400T313 357T392 341Q441 341 482 358T559 403T628 467T694 541ZM785 446Q745 401 702 359T611 285T509 233T392 213Q314 213 252 239T148 309T83 414T60 541Q60 609 82 668T147 772T252 843T392 869Q454 869 508 850T611 798T702 723T785 636H787Q827 681 870 723T961 797T1063 849T1180 869Q1258 869 1320 843T1424 773T1489 669T1512 541Q1512 474 1490 414T1425 310T1320 239T1180 213Q1118 213 1064 232T961 284T870 359T787 446H785ZM878 541Q911 503 944 467T1013 403T1090 358T1180 341Q1224 341 1258 357T1316 400T1352 463T1364 541Q1364 582 1352 618T1317 682T1259 725T1180 741Q1131 741 1090 724T1013 679T944 615T878 541Z"/><glyph unicode="∫" horiz-adv-x="715" d="M287 -20Q287 120 281 244T267 489Q259 618 252 743T245 999Q245 1093 256 1178T300 1329T392 1434T547 1473Q591 1473 626 1466T685 1450V1319Q658 1327 626 1332T568 1338Q522 1338 490 1323T437 1269T407 1167T398 1003Q398 870 405 745T420 489Q428 370 434 246T440 -16Q440 -110 429 -195T385 -346T293 -451T138 -490Q94 -490 59 -483T0 -467V-336Q27 -344 59 -349T117 -355Q164 -355 196 -340T248 -286T278 -184T287 -20Z"/><glyph unicode="≈" horiz-adv-x="1050" d="M939 386Q924 353 900 326T846 278T778 246T699 234Q656 234 612 246T527 276Q477 296 432 314T343 332Q293 332 260 308T201 241L99 314Q114 347 138 374T192 422T260 454T339 466Q388 466 438 450T534 415Q577 397 618 383T695 368Q744 368 778 392T837 459L939 386ZM939 732Q924 699 900 672T846 624T778 592T699 580Q656 580 612 592T527 622Q477 642 432 660T343 678Q293 678 260 654T201 587L99 660Q114 693 138 720T192 768T260 800T339 812Q388 812 438 796T534 761Q577 743 618 729T695 714Q744 714 778 738T837 805L939 732Z"/><glyph unicode="≠" horiz-adv-x="1050" d="M606 771L777 1044L884 977L755 771H935V639H673L526 405H935V273H444L273 0L166 67L295 273H115V405H377L524 639H115V771H606Z"/><glyph unicode="≤" horiz-adv-x="1050" d="M935 1060V912L288 656V652L935 396V248L115 583V725L935 1060ZM115 0V132H935V0H115Z"/><glyph unicode="≥" horiz-adv-x="1050" d="M935 725V583L115 248V396L762 652V656L115 912V1060L935 725ZM115 0V132H935V0H115Z"/><glyph unicode="◊" horiz-adv-x="1050" d="M803 669L527 1214H523L247 669L523 124H527L803 669ZM595 -25H455L92 669L455 1363H595L958 669L595 -25Z"/><glyph unicode="ﬀ" horiz-adv-x="1237" d="M546 1473Q581 1473 615 1469T672 1460V1329Q640 1334 614 1336T568 1338Q517 1338 477 1325T409 1284T367 1209T352 1096V950H783V1099Q783 1198 810 1268T886 1384T999 1451T1139 1473Q1187 1473 1227 1468T1287 1457V1326Q1257 1332 1221 1335T1159 1338Q1107 1338 1066 1325T996 1284T953 1209T938 1096V950H1221V817H938V0H783V817H352V0H197V817H30V950H197V1099Q197 1198 224 1268T299 1384T409 1451T546 1473Z"/><glyph unicode="ﬁ" horiz-adv-x="1098" d="M352 817V0H197V817H30V950H197V1061Q197 1174 234 1252T333 1380T474 1451T636 1473Q666 1473 698 1471T762 1464T823 1453T874 1440V1308Q817 1322 765 1330T654 1338Q507 1338 430 1269T352 1058V950H938V0H783V817H352Z"/><glyph unicode="ﬂ" horiz-adv-x="1098" d="M635 817H352V0H197V817H30V950H197V1061Q197 1173 234 1251T333 1378T475 1450T640 1473Q684 1473 726 1469T807 1459T879 1445T938 1429V0H783V1322Q751 1330 719 1334T656 1338Q507 1338 430 1269T352 1058V950H635V817Z"/><glyph unicode="ﬃ" horiz-adv-x="1684" d="M938 817V0H783V817H352V0H197V817H30V950H197V1099Q197 1198 224 1268T299 1384T409 1451T546 1473Q581 1473 615 1469T672 1460V1329Q640 1334 614 1336T568 1338Q517 1338 477 1325T409 1284T367 1209T352 1096V950H783V1061Q783 1174 820 1252T919 1380T1060 1451T1222 1473Q1252 1473 1284 1471T1348 1464T1409 1453T1460 1440V1308Q1403 1322 1351 1330T1242 1338Q1093 1338 1016 1269T938 1058V950H1524V0H1369V817H938Z"/><glyph unicode="ﬄ" horiz-adv-x="1684" d="M1221 817H938V0H783V817H352V0H197V817H30V950H197V1099Q197 1198 224 1268T299 1384T409 1451T546 1473Q581 1473 615 1469T672 1460V1329Q641 1334 615 1336T568 1338Q517 1338 477 1325T409 1284T367 1209T352 1096V950H783V1061Q783 1173 820 1251T919 1378T1061 1450T1226 1473Q1270 1473 1312 1469T1393 1459T1465 1445T1524 1429V0H1369V1325Q1337 1331 1305 1334T1242 1338Q1093 1338 1016 1269T938 1058V950H1221V817Z"/></font>
</defs>
</svg>
