<?xml version="1.0" encoding="UTF-8"?><svg xmlns="http://www.w3.org/2000/svg" width="100%" height="100%"><defs><font id="web" horiz-adv-x="1233"><!--





NOTICE: --><font-face font-family="" units-per-em="2048" panose-1="2 11 5 2 2 2 2 2 2 4" ascent="2297" descent="-628" alphabetic="0"/><missing-glyph horiz-adv-x="1536" d="M256 0V1280H1280V0H256ZM288 32H1248V1248H288V32Z"/><glyph unicode=" " horiz-adv-x="567"/><glyph unicode="!" horiz-adv-x="604" d="M373 1508V368H228V1508H373ZM302 220Q353 220 389 184T425 96Q425 45 389 9T302 -28Q251 -28 215 8T179 96Q179 148 215 184T302 220Z"/><glyph unicode="&quot;" horiz-adv-x="633" d="M562 1045H459L437 1508H585L562 1045ZM174 1045H70L48 1508H196L174 1045Z"/><glyph unicode="#" horiz-adv-x="1475" d="M1233 602V494H985L913 0H801L873 494H540L464 0H354L430 494H184V602H447L498 936H245V1045H514L584 1513H691L623 1045H955L1023 1513H1135L1066 1045H1290V936H1050L1002 602H1233ZM940 936H606L557 602H889L940 936Z"/><glyph unicode="$" horiz-adv-x="1135" d="M531 1574H662V1465Q760 1447 829 1401T963 1265L855 1178Q778 1297 662 1322V823Q924 685 988 599Q1070 489 1070 356Q1070 246 1010 155T846 12Q779 -21 662 -36V-349H531V-36Q408 -26 334 3T190 90T72 226L179 307Q318 123 531 102V721Q374 798 332 826Q247 884 206 955T165 1119Q165 1209 210 1286T332 1411T531 1471V1574ZM531 1332Q456 1326 410 1299T338 1225T311 1122Q311 1050 353 1000Q409 932 531 877V1332ZM662 106Q783 123 855 194T928 353Q928 439 873 512T662 668V106Z"/><glyph unicode="%" horiz-adv-x="1587" d="M1381 1536L309 -102H177L1152 1390Q979 1348 730 1348L676 1349Q738 1263 738 1167Q738 1030 643 922T389 814Q244 814 145 914T46 1159Q46 1255 91 1333T219 1460T389 1508Q426 1508 511 1490Q641 1462 793 1462Q905 1462 1004 1476T1263 1536H1381ZM392 1381Q301 1381 237 1317T173 1161Q173 1070 237 1006T392 942Q483 942 547 1006T612 1161Q612 1252 548 1316T392 1381ZM1195 649Q1338 649 1439 548T1541 303Q1541 160 1440 59T1195 -43Q1052 -43 951 58T849 303Q849 446 950 547T1195 649ZM1195 522Q1104 522 1040 458T976 303Q976 212 1040 148T1195 84Q1286 84 1350 148T1415 303Q1415 394 1351 458T1195 522Z"/><glyph unicode="&amp;" horiz-adv-x="1550" d="M1292 544L1392 438Q1296 353 1219 291Q1270 237 1366 140Q1442 64 1497 0H1292L1103 197Q913 53 798 8T555 -37Q385 -37 282 60T179 304Q179 414 248 524T532 804Q411 950 377 1019T342 1152Q342 1262 427 1334Q525 1418 671 1418Q763 1418 839 1381T955 1282T995 1149Q995 1075 943 992T738 778L961 544L1114 391Q1224 483 1292 544ZM647 888Q754 971 808 1051Q846 1108 846 1152Q846 1203 797 1240T665 1277Q587 1277 538 1239T489 1149Q489 1109 509 1074Q558 989 647 888ZM629 693Q442 552 384 469T326 314Q326 230 397 166T571 101Q649 101 724 133Q842 184 1003 299L763 545Q703 608 629 693Z"/><glyph unicode="'" horiz-adv-x="405" d="M254 1045H151L129 1508H277L254 1045Z"/><glyph unicode="(" horiz-adv-x="756" d="M470 1536H632Q534 1335 475 1067T416 514Q416 250 460 5T583 -426H429Q355 -248 311 -7T267 495Q267 776 319 1042T470 1536Z"/><glyph unicode=")" horiz-adv-x="756" d="M286 -426H124Q223 -225 281 43T340 596Q340 860 296 1105T173 1536H327Q402 1358 445 1117T489 614Q489 334 437 68T286 -426Z"/><glyph unicode="*" horiz-adv-x="870" d="M369 1508H499L470 1211L716 1387L782 1275L505 1150L782 1027L716 914L470 1088L499 791H369L400 1088L154 914L88 1027L369 1150L88 1275L154 1387L400 1211L369 1508Z"/><glyph unicode="+" horiz-adv-x="1241" d="M552 804V1238H689V804H1127V667H689V233H552V667H115V804H552Z"/><glyph unicode="," horiz-adv-x="567" d="M295 270L430 206L227 -172L128 -130L295 270Z"/><glyph unicode="-" horiz-adv-x="680" d="M65 614H615V492H65V614Z"/><glyph unicode="." horiz-adv-x="567" d="M310 220Q361 220 397 184T433 96Q433 45 397 9T310 -28Q259 -28 223 8T187 96Q187 148 223 184T310 220Z"/><glyph unicode="/" horiz-adv-x="895" d="M836 1508L225 -200H72L682 1508H836Z"/><glyph unicode="0" horiz-adv-x="1135" d="M65 735Q65 1026 127 1185T304 1426T559 1508Q702 1508 818 1426T1001 1178T1069 735Q1069 458 1003 294T819 47T559 -37Q418 -37 305 44T129 285T65 735ZM204 732Q204 483 248 356T380 162T564 96Q662 96 747 160T876 354Q931 511 931 732Q931 954 882 1095T747 1302T564 1368Q466 1368 380 1303T249 1110T204 732Z"/><glyph unicode="1" horiz-adv-x="1135" d="M379 1471H668V0H522V1327H291L379 1471Z"/><glyph unicode="2" horiz-adv-x="1135" d="M237 1010H96Q102 1228 241 1368T586 1508Q789 1508 914 1377T1040 1068Q1040 943 980 834T747 537L381 142H1060V0H61L623 607Q794 790 845 878T897 1065Q897 1189 805 1278T578 1368Q437 1368 344 1274T237 1010Z"/><glyph unicode="3" horiz-adv-x="1135" d="M271 1130H121Q162 1312 278 1410T552 1508Q667 1508 766 1456T920 1314T975 1128Q975 938 786 827Q892 784 960 701Q1056 584 1056 439Q1056 314 990 201T810 25T555 -37Q365 -37 238 72T72 394H216Q254 251 325 187Q416 106 557 106Q717 106 814 202T911 427Q911 513 863 588T733 701T480 748V883Q581 883 664 918T784 1009T822 1129Q822 1225 746 1295T552 1365Q457 1365 388 1312T271 1130Z"/><glyph unicode="4" horiz-adv-x="1135" d="M872 1508H902V483H1080V342H902V0H755V342H52L872 1508ZM755 483V1096L322 483H755Z"/><glyph unicode="5" horiz-adv-x="1135" d="M1007 1471V1331H483L410 930Q506 958 583 958Q784 958 914 824T1045 479Q1045 334 978 213T797 28T532 -37Q353 -37 230 72T83 356H234Q251 271 291 218T399 133T541 100Q686 100 790 210T894 485Q894 634 800 727T549 820Q419 820 234 741L370 1471H1007Z"/><glyph unicode="6" horiz-adv-x="1135" d="M751 1508L872 1429L475 827Q555 854 625 854Q800 854 922 728T1044 416Q1044 289 985 187T818 24T584 -37Q463 -37 360 21T197 186T138 413Q138 503 174 602T305 842L751 1508ZM590 725Q462 725 372 635T281 415Q281 287 371 197T590 106Q718 106 808 196T899 415Q899 544 809 634T590 725Z"/><glyph unicode="7" horiz-adv-x="1135" d="M147 1471H1080L293 -37L172 25L852 1332H147V1471Z"/><glyph unicode="8" horiz-adv-x="1135" d="M787 807Q936 733 1000 638T1065 422Q1065 252 954 122Q818 -37 565 -37Q321 -37 195 102T69 410Q69 533 135 631T355 807Q247 863 193 946T139 1124Q139 1220 196 1311T355 1455T575 1508Q690 1508 788 1455T941 1311T997 1120Q997 1020 945 942T787 807ZM568 1365Q447 1365 368 1294T288 1123Q288 1025 373 946T573 866Q646 866 711 902T812 1000T849 1126Q849 1215 777 1290T568 1365ZM575 733Q423 733 320 635T217 405Q217 324 261 252T384 141T567 102Q728 102 823 197T918 419Q918 542 818 637T575 733Z"/><glyph unicode="9" horiz-adv-x="1135" d="M393 -37L272 41L669 643Q589 617 519 617Q344 617 222 743T100 1055Q100 1182 159 1284T326 1447T559 1508Q681 1508 784 1449T947 1284T1006 1058Q1006 967 970 868T839 628L393 -37ZM553 746Q682 746 772 836T863 1055Q863 1183 773 1273T553 1364Q425 1364 335 1274T244 1055Q244 927 334 837T553 746Z"/><glyph unicode=":" horiz-adv-x="567" d="M310 1116Q361 1116 397 1080T433 992Q433 940 397 904T310 868Q259 868 223 904T187 992Q187 1043 223 1079T310 1116ZM310 220Q361 220 397 184T433 96Q433 45 397 9T310 -28Q259 -28 223 8T187 96Q187 148 223 184T310 220Z"/><glyph unicode=";" horiz-adv-x="567" d="M310 1116Q361 1116 397 1080T433 992Q433 940 397 904T310 868Q259 868 223 904T187 992Q187 1043 223 1079T310 1116ZM295 270L430 206L227 -172L128 -130L295 270Z"/><glyph unicode="&lt;" horiz-adv-x="1241" d="M1137 347V201L104 670V800L1137 1271V1124L298 734L1137 347Z"/><glyph unicode="=" horiz-adv-x="1241" d="M1127 1024V887H115V1024H1127ZM1127 584V447H115V584H1127Z"/><glyph unicode="&gt;" horiz-adv-x="1241" d="M104 347L943 734L104 1124V1271L1137 800V670L104 201V347Z"/><glyph unicode="?" horiz-adv-x="1210" d="M315 1071H170Q172 1273 290 1390T608 1508Q804 1508 916 1409T1028 1163Q1028 1093 998 1034T905 927T688 818Q493 740 452 702Q410 663 410 608Q410 550 466 504T613 458Q712 458 765 508T830 670H976Q969 503 873 411T613 318Q451 318 355 402T259 609Q259 669 285 722T360 812T543 903Q759 991 820 1035Q880 1079 880 1161Q880 1248 807 1308T610 1368Q460 1368 377 1269Q319 1200 315 1071ZM607 220Q658 220 694 184T730 96Q730 45 694 9T607 -28Q556 -28 520 8T484 96Q484 148 520 184T607 220Z"/><glyph unicode="@" horiz-adv-x="1776" d="M1444 301H1550Q1416 134 1302 67Q1140 -27 933 -27Q714 -27 529 76T241 359T137 750Q137 965 241 1150T526 1437T920 1540Q1222 1540 1430 1347T1638 896Q1638 709 1552 574T1317 363Q1204 305 1124 305Q1066 305 1032 336Q1006 359 1005 416Q971 373 912 344T788 315Q644 315 550 414T456 678Q456 855 570 1001T884 1147Q972 1147 1031 1114T1144 999L1170 1137H1278L1162 483Q1157 451 1157 442Q1157 419 1171 406T1207 393Q1266 393 1360 461T1507 637T1560 876Q1560 1130 1363 1297Q1179 1452 915 1452Q719 1452 560 1363T308 1111T215 759Q215 568 308 407T565 153T928 61Q1073 61 1191 113T1444 301ZM838 428Q904 428 962 469T1054 594Q1098 703 1098 813Q1098 914 1042 977T895 1040Q775 1040 688 942T600 696Q600 573 666 501T838 428Z"/><glyph unicode="A" horiz-adv-x="1515" d="M780 1471L1466 0H1308L1077 484H443L213 0H49L744 1471H780ZM762 1159L509 626H1012L762 1159Z"/><glyph unicode="B" horiz-adv-x="1176" d="M183 1471H473Q648 1471 742 1430T890 1302T945 1111Q945 1013 897 933T756 802Q871 763 933 711T1029 584T1064 422Q1064 245 935 123T587 0H183V1471ZM327 1327V856H411Q564 856 636 884T750 974T792 1111Q792 1212 722 1269T497 1327H327ZM327 708V144H509Q670 144 745 175T865 274T911 419Q911 517 847 590T671 690Q596 708 410 708H327Z"/><glyph unicode="C" horiz-adv-x="1665" d="M1549 1198L1433 1109Q1337 1234 1203 1298T907 1363Q731 1363 581 1279T349 1052T266 731Q266 462 450 282T916 102Q1225 102 1433 344L1549 256Q1439 116 1275 40T907 -37Q521 -37 298 220Q111 437 111 744Q111 1067 337 1287T905 1508Q1111 1508 1277 1427T1549 1198Z"/><glyph unicode="D" horiz-adv-x="1524" d="M179 0V1471H484Q814 1471 963 1418Q1177 1343 1297 1158T1418 717Q1418 496 1323 328T1075 80T647 0H179ZM320 139H490Q795 139 913 177Q1079 231 1174 371T1269 715Q1269 928 1166 1079T879 1286Q741 1328 424 1328H320V139Z"/><glyph unicode="E" horiz-adv-x="1098" d="M180 1471H1023V1326H327V866H1017V722H327V145H1017V0H180V1471Z"/><glyph unicode="F" horiz-adv-x="993" d="M179 1471H916V1326H325V866H916V721H325V0H179V1471Z"/><glyph unicode="G" horiz-adv-x="1786" d="M1598 1224L1484 1116Q1361 1237 1215 1299T929 1362Q756 1362 600 1277T357 1047T271 739Q271 573 360 424T606 189T950 103Q1177 103 1334 231T1520 563H1051V705H1685Q1683 364 1483 164T946 -37Q538 -37 300 241Q117 455 117 736Q117 945 222 1125T510 1406T924 1508Q1111 1508 1276 1441T1598 1224Z"/><glyph unicode="H" horiz-adv-x="1399" d="M177 1471H325V854H1073V1471H1221V0H1073V710H325V0H177V1471Z"/><glyph unicode="I" horiz-adv-x="463" d="M158 1471H305V0H158V1471Z"/><glyph unicode="J" horiz-adv-x="987" d="M660 1471H808V478Q808 249 773 160T654 17T453 -37Q364 -37 278 -3T86 119L164 236Q279 155 355 122Q405 100 453 100Q516 100 567 138T639 239T660 483V1471Z"/><glyph unicode="K" horiz-adv-x="1210" d="M179 1471H329V919L916 1471H1115L408 811L1170 0H975L329 686V0H179V1471Z"/><glyph unicode="L" horiz-adv-x="946" d="M179 1471H327V142H892V0H179V1471Z"/><glyph unicode="M" horiz-adv-x="1882" d="M112 0L321 1471H345L943 264L1535 1471H1559L1770 0H1625L1481 1052L961 0H924L397 1060L254 0H112Z"/><glyph unicode="N" horiz-adv-x="1515" d="M180 0V1471H212L1190 345V1471H1335V0H1302L332 1112V0H180Z"/><glyph unicode="O" horiz-adv-x="1780" d="M880 1508Q1214 1508 1439 1285T1664 736Q1664 413 1440 188T892 -37Q565 -37 340 187T115 729Q115 941 217 1122T497 1405T880 1508ZM887 1364Q724 1364 578 1279T350 1050T268 729Q268 467 449 287T887 106Q1058 106 1203 189T1430 416T1512 736Q1512 911 1431 1052T1201 1279T887 1364Z"/><glyph unicode="P" horiz-adv-x="1212" d="M178 1471H471Q723 1471 811 1449Q937 1418 1017 1322T1097 1079Q1097 932 1019 837T804 708Q704 684 430 684H325V0H178V1471ZM325 1328V828L574 825Q725 825 795 852T905 941T945 1079Q945 1153 905 1214T800 1302T585 1328H325Z"/><glyph unicode="Q" horiz-adv-x="1784" d="M1413 160L1631 -116H1450L1300 74Q1120 -37 894 -37Q567 -37 342 187T117 729Q117 941 220 1122T500 1406T890 1508Q1217 1508 1441 1285T1666 735Q1666 565 1605 424T1413 160ZM1322 275Q1514 462 1514 736Q1514 911 1433 1052T1203 1279T891 1364Q726 1364 580 1280T352 1051T270 729Q270 467 451 287T888 106Q1063 106 1208 191L880 607H1059L1322 275Z"/><glyph unicode="R" horiz-adv-x="1243" d="M187 1471H480Q725 1471 812 1451Q943 1421 1025 1323T1107 1080Q1107 960 1051 869T889 732T599 684L1128 0H946L418 684H334V0H187V1471ZM334 1327V827L587 825Q734 825 804 853T914 942T954 1080Q954 1154 914 1214T809 1301T593 1327H334Z"/><glyph unicode="S" horiz-adv-x="1020" d="M27 274L152 349Q284 106 457 106Q531 106 596 140T695 233T729 356Q729 430 679 501Q610 599 427 737Q243 876 198 938Q120 1042 120 1163Q120 1259 166 1338T295 1462T477 1508Q581 1508 671 1457T863 1267L743 1176Q660 1286 602 1321T474 1356Q385 1356 329 1302T272 1169Q272 1121 292 1076T365 978Q394 950 555 831Q746 690 817 580T888 359Q888 199 767 81T471 -37Q337 -37 228 34T27 274Z"/><glyph unicode="T" horiz-adv-x="872" d="M33 1328V1471H840V1328H512V0H362V1328H33Z"/><glyph unicode="U" horiz-adv-x="1341" d="M184 1471H331V583Q331 425 337 386Q348 299 388 241T511 143T678 103Q751 103 818 134T930 220T996 353Q1011 409 1011 583V1471H1158V583Q1158 386 1120 265T966 53T686 -37Q508 -37 381 48T211 273Q184 359 184 583V1471Z"/><glyph unicode="V" horiz-adv-x="1438" d="M67 1471H227L714 334L1210 1471H1370L730 0H698L67 1471Z"/><glyph unicode="W" horiz-adv-x="1966" d="M96 1471H247L546 411L968 1471H998L1415 411L1720 1471H1870L1448 0H1420L984 1113L539 0H511L96 1471Z"/><glyph unicode="X" horiz-adv-x="1247" d="M101 1471H273L625 897L980 1471H1150L712 758L1179 0H1007L625 617L241 0H69L538 758L101 1471Z"/><glyph unicode="Y" horiz-adv-x="1212" d="M63 1471H233L609 865L979 1471H1149L683 703V0H538V703L63 1471Z"/><glyph unicode="Z" horiz-adv-x="983" d="M122 1329V1471H898L283 143H867V0H56L675 1329H122Z"/><glyph unicode="[" horiz-adv-x="719" d="M290 1508H626V1366H430V-261H626V-398H290V1508Z"/><glyph unicode="\" horiz-adv-x="1239" d="M220 1508L1172 -200H1019L66 1508H220Z"/><glyph unicode="]" horiz-adv-x="719" d="M429 -398H93V-256H288V1371H93V1508H429V-398Z"/><glyph unicode="^" horiz-adv-x="1376" d="M629 1471H747L1257 365H1124L685 1317L249 365H120L629 1471Z"/><glyph unicode="_" horiz-adv-x="1024" d="M-12 -154H1036V-256H-12V-154Z"/><glyph unicode="`" horiz-adv-x="774" d="M326 1598L544 1290H406L111 1598H326Z"/><glyph unicode="a" horiz-adv-x="1399" d="M1240 1088V0H1102V187Q1014 80 905 26T665 -28Q434 -28 271 139T107 547Q107 782 272 949T669 1116Q803 1116 911 1059T1102 888V1088H1240ZM680 981Q563 981 464 924T307 762T248 542Q248 427 307 322T465 159T679 100Q794 100 897 158T1055 315T1111 538Q1111 727 987 854T680 981Z"/><glyph unicode="b" horiz-adv-x="1397" d="M165 0V1508H304V901Q392 1009 501 1062T740 1116Q971 1116 1134 949T1298 542Q1298 306 1133 139T736 -28Q603 -28 495 29T304 200V0H165ZM725 107Q842 107 941 164T1098 326T1157 546Q1157 662 1098 767T940 930T727 989Q612 989 509 931T350 773T294 550Q294 361 418 234T725 107Z"/><glyph unicode="c" horiz-adv-x="1325" d="M1212 862L1101 793Q957 984 708 984Q509 984 378 856T246 545Q246 426 306 321T472 158T709 100Q949 100 1101 291L1212 218Q1134 101 1003 37T703 -28Q445 -28 275 136T105 535Q105 693 184 828T403 1040T714 1116Q822 1116 922 1083T1093 997T1212 862Z"/><glyph unicode="d" horiz-adv-x="1403" d="M1242 1508V0H1104V187Q1016 80 907 26T667 -28Q436 -28 273 139T109 547Q109 782 274 949T671 1116Q805 1116 913 1059T1104 888V1508H1242ZM682 981Q565 981 466 924T309 762T250 542Q250 427 309 322T467 159T681 100Q796 100 899 158T1057 315T1113 538Q1113 727 989 854T682 981Z"/><glyph unicode="e" horiz-adv-x="1331" d="M1072 361L1190 299Q1132 185 1056 115T885 9T670 -28Q404 -28 254 146T104 541Q104 748 231 910Q392 1116 662 1116Q940 1116 1106 905Q1224 756 1226 533H248Q252 343 369 222T658 100Q741 100 819 129T953 206T1072 361ZM1072 654Q1044 766 991 833T849 941T664 982Q504 982 389 879Q305 804 262 654H1072Z"/><glyph unicode="f" horiz-adv-x="643" d="M604 1508V1371Q527 1404 472 1404Q431 1404 404 1388T370 1350T363 1235V1088H590V968H362V0H222V968H79V1088H222V1258Q222 1375 243 1425T316 1505T441 1536Q509 1536 604 1508Z"/><glyph unicode="g" horiz-adv-x="1378" d="M1093 1088H1234V221Q1234 -8 1194 -114Q1139 -264 1003 -345T676 -426Q536 -426 425 -387T243 -281T114 -86H266Q328 -194 426 -246T669 -298Q812 -298 910 -245T1051 -110T1093 151V207Q1014 107 900 54T658 0Q508 0 376 74T172 275T100 552Q100 703 175 833T382 1040T662 1116Q784 1116 889 1066T1093 899V1088ZM680 981Q561 981 459 924T299 765T241 545Q241 366 361 249T672 132Q865 132 982 248T1100 553Q1100 676 1046 772T893 925T680 981Z"/><glyph unicode="h" horiz-adv-x="1249" d="M156 1508H296V893Q381 1005 483 1060T704 1116Q826 1116 920 1054T1060 888T1105 560V0H965V519Q965 707 950 770Q924 878 856 932T676 987Q549 987 449 903T316 695Q296 615 296 399V0H156V1508Z"/><glyph unicode="i" horiz-adv-x="410" d="M205 1536Q253 1536 287 1502T321 1420Q321 1373 287 1339T205 1305Q158 1305 124 1339T90 1420Q90 1468 124 1502T205 1536ZM135 1088H276V0H135V1088Z"/><glyph unicode="j" horiz-adv-x="416" d="M208 1536Q256 1536 289 1502T323 1420Q323 1373 290 1339T208 1305Q160 1305 127 1339T93 1420Q93 1468 126 1502T208 1536ZM139 1088H281V-164Q281 -301 232 -363T96 -426Q25 -426 -64 -392V-266Q-8 -295 37 -295Q94 -295 122 -248Q139 -218 139 -123V1088Z"/><glyph unicode="k" horiz-adv-x="1028" d="M155 1508H296V650L799 1088H1005L408 569L1040 0H842L296 489V0H155V1508Z"/><glyph unicode="l" horiz-adv-x="410" d="M135 1508H275V0H135V1508Z"/><glyph unicode="m" horiz-adv-x="1921" d="M155 1088H294V900Q367 1004 444 1052Q550 1116 667 1116Q746 1116 817 1085T933 1003T1011 855Q1081 983 1186 1049T1412 1116Q1525 1116 1611 1059T1740 900T1782 594V0H1639V594Q1639 769 1614 834T1529 940T1384 980Q1282 980 1198 920T1074 760T1035 426V0H896V557Q896 754 872 824T786 937T641 980Q544 980 460 922T335 764T294 461V0H155V1088Z"/><glyph unicode="n" horiz-adv-x="1249" d="M156 1088H296V893Q380 1005 482 1060T704 1116Q826 1116 920 1054T1060 887T1105 560V0H966V519Q966 707 950 770Q925 878 856 932T676 987Q549 987 449 903T316 695Q296 614 296 399V0H156V1088Z"/><glyph unicode="o" horiz-adv-x="1341" d="M671 1116Q922 1116 1087 934Q1237 768 1237 541Q1237 313 1079 143T671 -28Q421 -28 263 142T104 541Q104 767 254 933Q419 1116 671 1116ZM671 979Q497 979 372 850T247 538Q247 420 304 318T458 161T671 105Q787 105 884 160T1038 318T1095 538Q1095 721 970 850T671 979Z"/><glyph unicode="p" horiz-adv-x="1397" d="M158 1088H297V888Q380 1002 488 1059T729 1116Q961 1116 1126 949T1291 547Q1291 307 1128 140T733 -28Q603 -28 494 26T297 187V-398H158V1088ZM718 981Q536 981 412 854T287 538Q287 414 342 315T501 158T720 100Q833 100 932 158T1091 322T1150 542Q1150 658 1092 762T934 923T718 981Z"/><glyph unicode="q" horiz-adv-x="1397" d="M1239 1088V-398H1101V187Q1013 80 904 26T664 -28Q433 -28 270 139T106 547Q106 782 271 949T668 1116Q802 1116 910 1059T1101 888V1088H1239ZM679 981Q562 981 463 924T306 762T247 542Q247 427 306 322T464 159T678 100Q793 100 896 158T1054 315T1110 538Q1110 727 986 854T679 981Z"/><glyph unicode="r" horiz-adv-x="616" d="M103 1088H246V929Q310 1023 381 1069T529 1116Q587 1116 653 1079L580 961Q536 980 506 980Q436 980 371 923T272 744Q246 651 246 368V0H103V1088Z"/><glyph unicode="s" horiz-adv-x="795" d="M703 969L613 876Q501 985 394 985Q326 985 278 940T229 835Q229 782 269 734Q309 685 437 619Q593 538 649 463Q704 387 704 292Q704 158 610 65T375 -28Q281 -28 196 13T54 126L142 226Q249 105 369 105Q453 105 512 159T571 286Q571 346 532 393Q493 439 356 509Q209 585 156 659Q103 733 103 828Q103 952 187 1034T401 1116Q551 1116 703 969Z"/><glyph unicode="t" horiz-adv-x="694" d="M278 1492H419V1088H641V968H419V0H278V968H87V1088H278V1492Z"/><glyph unicode="u" horiz-adv-x="1245" d="M138 1088H279V580Q279 394 299 324Q329 224 413 166T615 108Q732 108 813 164T926 313Q947 376 947 580V1088H1090V554Q1090 329 1038 215T880 37T615 -28Q456 -28 350 36T191 216T138 564V1088Z"/><glyph unicode="v" horiz-adv-x="1135" d="M53 1088H202L566 296L927 1088H1077L579 0H554L53 1088Z"/><glyph unicode="w" horiz-adv-x="1702" d="M9 1088H153L486 298L835 1088H860L1208 298L1547 1088H1693L1221 0H1194L848 779L499 0H473L9 1088Z"/><glyph unicode="x" horiz-adv-x="983" d="M32 1088H200L488 685L776 1088H944L572 571L991 0H821L488 457L160 0H-7L405 571L32 1088Z"/><glyph unicode="y" horiz-adv-x="1098" d="M39 1088H187L561 250L924 1088H1073L424 -398H276L486 82L39 1088Z"/><glyph unicode="z" horiz-adv-x="870" d="M67 1088H866L250 124H846V0H9L625 965H67V1088Z"/><glyph unicode="{" horiz-adv-x="719" d="M75 591Q136 593 174 615Q223 644 248 695T279 839Q281 885 282 1050T304 1286T366 1399T473 1460Q512 1471 598 1471H654V1314H623Q518 1314 485 1276T451 1108Q451 875 444 811Q431 688 386 623T242 510Q352 463 401 369T451 59Q451 -133 455 -168Q461 -222 480 -251Q494 -271 524 -282T654 -294V-451H598Q498 -451 452 -434Q385 -409 345 -354T292 -205Q283 -139 282 41Q281 225 262 290T195 390T75 428V591Z"/><glyph unicode="|" horiz-adv-x="1376" d="M616 1508H759V-398H616V1508Z"/><glyph unicode="}" horiz-adv-x="719" d="M644 591V428Q583 427 545 405Q496 376 471 325T440 181Q438 135 437 -30T415 -266T353 -379T246 -440Q207 -451 121 -451H65V-294H96Q201 -294 234 -256T268 -89Q268 150 276 215Q290 336 339 404T477 510Q360 566 314 657T268 960Q268 1181 259 1219Q248 1270 217 1292T96 1314H65V1471H121Q221 1471 267 1453Q334 1429 374 1373T427 1225Q436 1159 437 979Q438 795 457 730T524 629T644 591Z"/><glyph unicode="~" horiz-adv-x="1241" d="M1128 837V675Q1016 612 968 596T876 579Q781 579 611 656Q479 716 443 727T374 739Q330 739 277 720T112 634V794Q222 856 271 873T366 890Q463 890 634 809Q752 753 795 740T874 726Q916 726 959 742T1128 837Z"/><glyph unicode=" " horiz-adv-x="573"/><glyph unicode="¡" horiz-adv-x="604" d="M302 1110Q353 1110 389 1074T425 986Q425 934 389 898T302 862Q251 862 215 898T179 986Q179 1037 215 1073T302 1110ZM231 -426V714H376V-426H231Z"/><glyph unicode="¢" horiz-adv-x="1135" d="M961 1340L1082 1280L950 1023Q1022 977 1066 929L981 824Q935 868 886 900L492 134Q567 102 636 102Q782 102 942 230L1033 124Q955 55 849 14T637 -28Q541 -28 429 9L277 -286L160 -222L311 79Q203 176 153 288T103 535Q103 775 253 945T647 1116Q737 1116 828 1083L961 1340ZM765 961Q701 982 644 982Q473 982 359 862T244 543Q244 434 277 352T377 209L765 961Z"/><glyph unicode="£" horiz-adv-x="1135" d="M99 844H353Q299 1036 293 1071Q282 1128 282 1179Q282 1313 386 1410T643 1508Q743 1508 814 1466T932 1343T989 1125H853Q849 1246 794 1310T647 1374Q546 1374 484 1318T422 1169Q422 1088 451 1006L458 988L503 844H823V715H537Q574 589 574 451Q574 344 552 263Q613 212 718 148Q778 112 828 112Q923 112 934 344H1075Q1076 227 1042 133T957 1T845 -37Q778 -37 700 -2Q592 46 503 123Q420 -37 266 -37Q170 -37 114 13T57 151Q57 247 123 315T279 383Q346 383 423 344Q430 411 430 450Q430 591 385 715H99V844ZM385 207Q317 248 271 248Q238 248 216 226T194 171Q194 139 213 118T261 96Q336 96 385 207Z"/><glyph unicode="¤" horiz-adv-x="1135" d="M42 192L158 306Q97 388 74 459T50 614Q50 703 78 785Q99 848 161 925L41 1042L131 1133L251 1014Q327 1073 407 1099T572 1126Q653 1126 728 1102T884 1020L1001 1133L1089 1042L973 930Q1037 851 1062 777T1088 615Q1088 529 1064 457T979 306L1095 192L1006 102L890 217Q811 155 734 129T569 102Q483 102 407 128T248 217L131 102L42 192ZM193 612Q193 458 303 349T569 240Q725 240 835 350T945 615Q945 770 836 879T570 989Q414 989 304 879T193 612Z"/><glyph unicode="¥" horiz-adv-x="1135" d="M906 1471H1072L655 736H1011V619H637V464H1011V347H637V0H493V347H123V464H493V619H123V736H476L62 1471H229L566 869L906 1471Z"/><glyph unicode="¦" horiz-adv-x="1376" d="M616 686V1508H759V741L616 686ZM616 -398V559L759 613V-398H616Z"/><glyph unicode="§" horiz-adv-x="1259" d="M964 1194H817Q806 1288 745 1341T586 1395Q480 1395 420 1343T359 1215Q359 1171 378 1134Q404 1084 461 1036T659 903Q824 804 882 752T970 639T999 520Q999 419 922 334T713 224Q819 158 875 69T931 -112Q931 -244 829 -335T562 -426Q399 -426 291 -343T162 -138H310Q333 -202 377 -237Q449 -295 553 -295Q658 -295 720 -242T783 -114Q783 -46 733 18Q683 82 503 197Q331 307 293 335Q209 400 170 471T130 616Q130 679 161 739T248 845T390 916Q291 987 252 1059T212 1219Q212 1358 312 1447T584 1536Q750 1536 848 1448T964 1194ZM507 839Q397 822 337 764T276 623Q276 550 329 490Q398 411 596 306Q718 321 785 382T853 523Q853 585 806 637T521 830L507 839Z"/><glyph unicode="¨" horiz-adv-x="756" d="M174 1518Q222 1518 256 1484T290 1402Q290 1354 256 1320T174 1286Q126 1286 92 1320T58 1402Q58 1450 92 1484T174 1518ZM582 1518Q630 1518 664 1484T698 1402Q698 1354 664 1320T582 1286Q534 1286 500 1320T466 1402Q466 1450 500 1484T582 1518Z"/><glyph unicode="©" horiz-adv-x="1530" d="M1551 757Q1551 546 1446 365T1159 79T766 -27Q556 -27 373 78T85 365T-20 757Q-20 967 85 1148T372 1435T766 1540Q976 1540 1158 1435T1446 1149T1551 757ZM1442 757Q1442 939 1352 1095T1104 1343T765 1434Q584 1434 427 1343T180 1095T89 757Q89 575 179 418T427 171T766 80Q947 80 1104 170T1351 418T1442 757ZM1150 924H1014Q993 1013 935 1057T779 1102Q652 1102 575 1013T498 751Q498 583 572 495T765 407Q865 407 930 468T1014 653H1150Q1131 489 1026 392T770 295Q581 295 468 416T355 753Q355 979 472 1105T771 1231Q938 1231 1038 1148T1150 924Z"/><glyph unicode="ª" horiz-adv-x="756" d="M664 1491V810H550V904Q508 849 457 822T343 794Q229 794 143 895T57 1152Q57 1305 144 1406T345 1508Q406 1508 457 1479T550 1392V1491H664ZM365 1399Q288 1399 231 1329T173 1150Q173 1040 231 969T364 898Q441 898 498 966T556 1148Q556 1260 499 1329T365 1399Z"/><glyph unicode="«" horiz-adv-x="870" d="M391 1088L168 542L391 0H243L21 542L243 1088H391ZM849 1088L625 542L849 0H701L479 542L701 1088H849Z"/><glyph unicode="¬" horiz-adv-x="1241" d="M1127 1024V447H990L989 887H115V1024H1127Z"/><glyph unicode="­" horiz-adv-x="680" d="M65 614H615V492H65V614Z"/><glyph unicode="®" horiz-adv-x="1530" d="M1551 760Q1551 548 1446 367T1158 79T766 -27Q557 -27 374 78T86 366T-20 756Q-20 966 85 1150T373 1439T766 1544Q976 1544 1157 1440T1445 1151T1551 760ZM1442 759Q1442 939 1351 1097T1104 1347T768 1438Q587 1438 429 1347T180 1098T89 757Q89 576 179 419T429 171T768 80Q947 80 1104 171T1351 419T1442 759ZM439 1217H816Q948 1217 1006 1191T1100 1104T1137 964Q1137 895 1111 845Q1091 808 1024 764Q1085 734 1106 695T1127 559V457Q1127 385 1159 337L1174 313H1014Q999 369 993 446L986 557Q982 618 967 643T923 679T809 690H582V313H439V1217ZM582 1087V819H804Q905 819 941 842Q994 875 994 954Q994 1023 956 1055T813 1087H582Z"/><glyph unicode="¯" horiz-adv-x="1024" d="M-12 1727H1036V1624H-12V1727Z"/><glyph unicode="°" horiz-adv-x="819" d="M755 1164Q755 1019 654 920T409 820Q265 820 165 920T65 1167Q65 1308 167 1408T412 1508Q554 1508 654 1408T755 1164ZM636 1162Q636 1264 571 1333T413 1402Q319 1402 252 1333T184 1164Q184 1067 252 997T412 926Q504 926 570 995T636 1162Z"/><glyph unicode="±" horiz-adv-x="1124" d="M493 913V1347H630V913H1068V776H630V342H493V776H56V913H493ZM1068 161V24H56V161H1068Z"/><glyph unicode="²" horiz-adv-x="680" d="M155 1234H49Q51 1353 134 1430T351 1508Q475 1508 553 1440T631 1276Q631 1216 598 1160T455 1004L265 832H642V733H6L364 1058Q470 1154 496 1194T522 1274Q522 1328 473 1369T347 1410Q262 1410 212 1364T155 1234Z"/><glyph unicode="³" horiz-adv-x="705" d="M184 1293H72Q99 1399 169 1453T342 1508Q458 1508 531 1448T605 1305Q605 1218 514 1159Q581 1127 616 1075T652 965Q652 864 568 790T345 715Q220 715 144 776T44 956H153Q173 883 220 849T345 814Q435 814 488 857T542 959Q542 1025 482 1062T288 1104V1198Q390 1198 440 1230T490 1306Q490 1346 450 1377T342 1409Q287 1409 250 1383T184 1293Z"/><glyph unicode="´" horiz-adv-x="768" d="M452 1598H667L372 1290H234L452 1598Z"/><glyph unicode="µ" horiz-adv-x="1180" d="M147 -398V1088H288V488Q288 352 321 285T430 173T592 127Q679 127 748 170T855 290T893 501V1088H1033V0H893V118Q834 44 760 10T591 -25Q497 -25 422 9T288 115V-398H147Z"/><glyph unicode="¶" horiz-adv-x="1155" d="M483 -231V706Q408 706 372 714Q294 731 231 781T131 916T94 1105Q94 1294 210 1413Q307 1513 509 1513H1022V1438H938V-231H819V1438H602V-231H483Z"/><glyph unicode="·" horiz-adv-x="682" d="M602 870Q650 870 684 836T718 754Q718 706 684 672T602 638Q554 638 520 672T486 754Q486 802 520 836T602 870Z"/><glyph unicode="¸" horiz-adv-x="664" d="M311 0H399L382 -118Q405 -115 420 -115Q469 -115 502 -145T535 -222Q535 -288 475 -334T306 -380Q217 -380 139 -350L161 -281Q225 -301 281 -301Q356 -301 386 -283T416 -236Q416 -219 400 -206T354 -193Q330 -193 284 -202L311 0Z"/><glyph unicode="¹" horiz-adv-x="680" d="M224 1489H411V733H301V1391H151L224 1489Z"/><glyph unicode="º" horiz-adv-x="756" d="M377 1508Q510 1508 605 1405T700 1149Q700 997 606 896T377 794Q244 794 150 895T55 1149Q55 1303 150 1405T377 1508ZM377 1398Q296 1398 234 1326T172 1147Q172 1040 232 971T377 901Q462 901 522 970T583 1147Q583 1254 521 1326T377 1398Z"/><glyph unicode="»" horiz-adv-x="870" d="M479 0L702 545L479 1088H626L849 545L626 0H479ZM21 0L244 545L21 1088H169L391 545L169 0H21Z"/><glyph unicode="¼" horiz-adv-x="1702" d="M444 1489H631V733H521V1391H371L444 1489ZM388 -37L1311 1508H1423L498 -37H388ZM1554 786V258H1659V161H1554V-9H1443V161H1011L1554 786ZM1443 258V506L1229 258H1443Z"/><glyph unicode="½" horiz-adv-x="1702" d="M433 1489H620V733H510V1391H360L433 1489ZM277 -37L1200 1508H1312L387 -37H277ZM1088 492H982Q984 611 1067 688T1284 766Q1408 766 1486 698T1564 534Q1564 474 1531 418T1388 262L1198 90H1575V-9H939L1297 316Q1403 412 1429 452T1455 532Q1455 586 1406 627T1280 668Q1195 668 1145 622T1088 492Z"/><glyph unicode="¾" horiz-adv-x="1702" d="M209 1293H97Q124 1399 194 1453T367 1508Q483 1508 556 1448T630 1305Q630 1218 539 1159Q606 1127 641 1075T677 965Q677 864 593 790T370 715Q245 715 169 776T69 956H178Q198 883 245 849T370 814Q460 814 513 857T567 959Q567 1025 507 1062T313 1104V1198Q415 1198 465 1230T515 1306Q515 1346 475 1377T367 1409Q312 1409 275 1383T209 1293ZM431 -37L1354 1508H1466L541 -37H431ZM1547 786V258H1652V161H1547V-9H1436V161H1004L1547 786ZM1436 258V506L1222 258H1436Z"/><glyph unicode="¿" horiz-adv-x="1210" d="M604 1110Q655 1110 691 1074T727 986Q727 934 691 898T604 862Q553 862 517 898T481 986Q481 1037 517 1073T604 1110ZM896 11H1041Q1039 -191 921 -308T603 -426Q407 -426 295 -327T183 -81Q183 -11 214 48T306 155T523 264Q718 342 760 381Q801 420 801 474Q801 532 745 578T598 624Q499 624 446 574T381 412H235Q242 579 338 672T598 765Q760 765 856 681T952 473Q952 413 926 360T851 270T668 179Q452 91 392 47Q331 3 331 -78Q331 -165 404 -225T601 -286Q752 -286 835 -187Q893 -118 896 11Z"/><glyph unicode="À" horiz-adv-x="1515" d="M780 1471L1466 0H1308L1077 484H443L213 0H49L744 1471H780ZM762 1159L509 626H1012L762 1159ZM697 1895L915 1587H777L482 1895H697Z"/><glyph unicode="Á" horiz-adv-x="1515" d="M780 1471L1466 0H1308L1077 484H443L213 0H49L744 1471H780ZM762 1159L509 626H1012L762 1159ZM825 1895H1040L745 1587H607L825 1895Z"/><glyph unicode="Â" horiz-adv-x="1515" d="M780 1471L1466 0H1308L1077 484H443L213 0H49L744 1471H780ZM762 1159L509 626H1012L762 1159ZM691 1840H830L1120 1583H940L764 1735L580 1583H394L691 1840Z"/><glyph unicode="Ã" horiz-adv-x="1515" d="M780 1471L1466 0H1308L1077 484H443L213 0H49L744 1471H780ZM762 1159L509 626H1012L762 1159ZM1054 1789L1124 1692Q1052 1640 1003 1622T898 1604Q826 1604 750 1641Q685 1673 667 1678Q643 1685 615 1685Q580 1685 549 1673T457 1616L391 1718Q482 1815 616 1815Q680 1815 769 1775Q854 1736 903 1736Q958 1736 1054 1789Z"/><glyph unicode="Ä" horiz-adv-x="1515" d="M780 1471L1466 0H1308L1077 484H443L213 0H49L744 1471H780ZM762 1159L509 626H1012L762 1159ZM554 1816Q602 1816 636 1782T670 1700Q670 1652 636 1618T554 1584Q506 1584 472 1618T438 1700Q438 1748 472 1782T554 1816ZM962 1816Q1010 1816 1044 1782T1078 1700Q1078 1652 1044 1618T962 1584Q914 1584 880 1618T846 1700Q846 1748 880 1782T962 1816Z"/><glyph unicode="Å" horiz-adv-x="1515" d="M780 1471L1466 0H1308L1077 484H443L213 0H49L744 1471H780ZM762 1159L509 626H1012L762 1159ZM757 1989Q845 1989 907 1927T970 1775Q970 1687 908 1625T757 1562Q669 1562 607 1624T544 1775Q544 1864 606 1926T757 1989ZM756 1888Q710 1888 678 1856T646 1778Q646 1733 678 1701T756 1668Q801 1668 833 1700T865 1778Q865 1823 833 1855T756 1888Z"/><glyph unicode="Æ" horiz-adv-x="2032" d="M1 0L951 1471H1861V1320H1168V868H1861V723H1168V144H1861V0H1019V482H484L172 0H1ZM578 620H1019V1301L578 620Z"/><glyph unicode="Ç" horiz-adv-x="1665" d="M1549 1198L1433 1109Q1337 1234 1203 1298T907 1363Q731 1363 581 1279T349 1052T266 731Q266 462 450 282T916 102Q1225 102 1433 344L1549 256Q1439 116 1275 40T907 -37Q521 -37 298 220Q111 437 111 744Q111 1067 337 1287T905 1508Q1111 1508 1277 1427T1549 1198ZM811 0H899L882 -118Q905 -115 920 -115Q969 -115 1002 -145T1035 -222Q1035 -288 975 -334T806 -380Q717 -380 639 -350L661 -281Q725 -301 781 -301Q856 -301 886 -283T916 -236Q916 -219 900 -206T854 -193Q830 -193 784 -202L811 0Z"/><glyph unicode="È" horiz-adv-x="1098" d="M180 1471H1023V1326H327V866H1017V722H327V145H1017V0H180V1471ZM549 1895L767 1587H629L334 1895H549Z"/><glyph unicode="É" horiz-adv-x="1098" d="M180 1471H1023V1326H327V866H1017V722H327V145H1017V0H180V1471ZM677 1895H892L597 1587H459L677 1895Z"/><glyph unicode="Ê" horiz-adv-x="1098" d="M180 1471H1023V1326H327V866H1017V722H327V145H1017V0H180V1471ZM543 1840H682L972 1583H792L616 1735L432 1583H246L543 1840Z"/><glyph unicode="Ë" horiz-adv-x="1098" d="M180 1471H1023V1326H327V866H1017V722H327V145H1017V0H180V1471ZM406 1816Q454 1816 488 1782T522 1700Q522 1652 488 1618T406 1584Q358 1584 324 1618T290 1700Q290 1748 324 1782T406 1816ZM814 1816Q862 1816 896 1782T930 1700Q930 1652 896 1618T814 1584Q766 1584 732 1618T698 1700Q698 1748 732 1782T814 1816Z"/><glyph unicode="Ì" horiz-adv-x="463" d="M158 1471H305V0H158V1471ZM171 1895L389 1587H251L-44 1895H171Z"/><glyph unicode="Í" horiz-adv-x="463" d="M158 1471H305V0H158V1471ZM299 1895H514L219 1587H81L299 1895Z"/><glyph unicode="Î" horiz-adv-x="463" d="M158 1471H305V0H158V1471ZM165 1840H304L594 1583H414L238 1735L54 1583H-132L165 1840Z"/><glyph unicode="Ï" horiz-adv-x="463" d="M158 1471H305V0H158V1471ZM28 1816Q76 1816 110 1782T144 1700Q144 1652 110 1618T28 1584Q-20 1584 -54 1618T-88 1700Q-88 1748 -54 1782T28 1816ZM436 1816Q484 1816 518 1782T552 1700Q552 1652 518 1618T436 1584Q388 1584 354 1618T320 1700Q320 1748 354 1782T436 1816Z"/><glyph unicode="Ð" horiz-adv-x="1618" d="M213 667H34V804H213V1471H579Q908 1471 1058 1418Q1271 1343 1391 1158T1512 717Q1512 496 1417 328T1169 80T742 0H213V667ZM354 667V139H584Q889 139 1007 177Q1173 231 1268 371T1364 715Q1364 928 1261 1079T973 1286Q835 1328 518 1328H354V804H741V667H354Z"/><glyph unicode="Ñ" horiz-adv-x="1515" d="M180 0V1471H212L1190 345V1471H1335V0H1302L332 1112V0H180ZM1054 1789L1124 1692Q1052 1640 1003 1622T898 1604Q826 1604 750 1641Q685 1673 667 1678Q643 1685 615 1685Q580 1685 549 1673T457 1616L391 1718Q482 1815 616 1815Q680 1815 769 1775Q854 1736 903 1736Q958 1736 1054 1789Z"/><glyph unicode="Ò" horiz-adv-x="1780" d="M880 1508Q1214 1508 1439 1285T1664 736Q1664 413 1440 188T892 -37Q565 -37 340 187T115 729Q115 941 217 1122T497 1405T880 1508ZM887 1364Q724 1364 578 1279T350 1050T268 729Q268 467 449 287T887 106Q1058 106 1203 189T1430 416T1512 736Q1512 911 1431 1052T1201 1279T887 1364ZM829 1895L1047 1587H909L614 1895H829Z"/><glyph unicode="Ó" horiz-adv-x="1780" d="M880 1508Q1214 1508 1439 1285T1664 736Q1664 413 1440 188T892 -37Q565 -37 340 187T115 729Q115 941 217 1122T497 1405T880 1508ZM887 1364Q724 1364 578 1279T350 1050T268 729Q268 467 449 287T887 106Q1058 106 1203 189T1430 416T1512 736Q1512 911 1431 1052T1201 1279T887 1364ZM958 1895H1173L878 1587H740L958 1895Z"/><glyph unicode="Ô" horiz-adv-x="1780" d="M880 1508Q1214 1508 1439 1285T1664 736Q1664 413 1440 188T892 -37Q565 -37 340 187T115 729Q115 941 217 1122T497 1405T880 1508ZM887 1364Q724 1364 578 1279T350 1050T268 729Q268 467 449 287T887 106Q1058 106 1203 189T1430 416T1512 736Q1512 911 1431 1052T1201 1279T887 1364ZM824 1840H963L1253 1583H1073L897 1735L713 1583H527L824 1840Z"/><glyph unicode="Õ" horiz-adv-x="1780" d="M880 1508Q1214 1508 1439 1285T1664 736Q1664 413 1440 188T892 -37Q565 -37 340 187T115 729Q115 941 217 1122T497 1405T880 1508ZM887 1364Q724 1364 578 1279T350 1050T268 729Q268 467 449 287T887 106Q1058 106 1203 189T1430 416T1512 736Q1512 911 1431 1052T1201 1279T887 1364ZM1186 1789L1256 1692Q1184 1640 1135 1622T1030 1604Q958 1604 882 1641Q817 1673 799 1678Q775 1685 747 1685Q712 1685 681 1673T589 1616L523 1718Q614 1815 748 1815Q812 1815 901 1775Q986 1736 1035 1736Q1090 1736 1186 1789Z"/><glyph unicode="Ö" horiz-adv-x="1780" d="M880 1508Q1214 1508 1439 1285T1664 736Q1664 413 1440 188T892 -37Q565 -37 340 187T115 729Q115 941 217 1122T497 1405T880 1508ZM887 1364Q724 1364 578 1279T350 1050T268 729Q268 467 449 287T887 106Q1058 106 1203 189T1430 416T1512 736Q1512 911 1431 1052T1201 1279T887 1364ZM686 1816Q734 1816 768 1782T802 1700Q802 1652 768 1618T686 1584Q638 1584 604 1618T570 1700Q570 1748 604 1782T686 1816ZM1094 1816Q1142 1816 1176 1782T1210 1700Q1210 1652 1176 1618T1094 1584Q1046 1584 1012 1618T978 1700Q978 1748 1012 1782T1094 1816Z"/><glyph unicode="×" horiz-adv-x="1241" d="M712 735L1044 404L952 312L621 643L289 312L197 404L528 735L197 1067L289 1159L621 827L952 1159L1044 1067L712 735Z"/><glyph unicode="Ø" horiz-adv-x="1778" d="M1454 1269Q1554 1167 1608 1031T1663 736Q1663 413 1439 188T891 -37Q646 -37 454 91L290 -103L183 -16L348 178Q114 405 114 729Q114 941 217 1122T498 1406T889 1508Q1146 1508 1356 1360L1500 1534L1605 1447L1454 1269ZM444 291L1255 1245Q1086 1364 886 1364Q723 1364 577 1279T349 1050T267 728Q267 473 444 291ZM1356 1153L551 204Q703 106 886 106Q1057 106 1202 189T1429 416T1511 736Q1511 980 1356 1153Z"/><glyph unicode="Ù" horiz-adv-x="1341" d="M184 1471H331V583Q331 425 337 386Q348 299 388 241T511 143T678 103Q751 103 818 134T930 220T996 353Q1011 409 1011 583V1471H1158V583Q1158 386 1120 265T966 53T686 -37Q508 -37 381 48T211 273Q184 359 184 583V1471ZM610 1895L828 1587H690L395 1895H610Z"/><glyph unicode="Ú" horiz-adv-x="1341" d="M184 1471H331V583Q331 425 337 386Q348 299 388 241T511 143T678 103Q751 103 818 134T930 220T996 353Q1011 409 1011 583V1471H1158V583Q1158 386 1120 265T966 53T686 -37Q508 -37 381 48T211 273Q184 359 184 583V1471ZM739 1895H954L659 1587H521L739 1895Z"/><glyph unicode="Û" horiz-adv-x="1341" d="M184 1471H331V583Q331 425 337 386Q348 299 388 241T511 143T678 103Q751 103 818 134T930 220T996 353Q1011 409 1011 583V1471H1158V583Q1158 386 1120 265T966 53T686 -37Q508 -37 381 48T211 273Q184 359 184 583V1471ZM605 1840H744L1034 1583H854L678 1735L494 1583H308L605 1840Z"/><glyph unicode="Ü" horiz-adv-x="1341" d="M184 1471H331V583Q331 425 337 386Q348 299 388 241T511 143T678 103Q751 103 818 134T930 220T996 353Q1011 409 1011 583V1471H1158V583Q1158 386 1120 265T966 53T686 -37Q508 -37 381 48T211 273Q184 359 184 583V1471ZM467 1816Q515 1816 549 1782T583 1700Q583 1652 549 1618T467 1584Q419 1584 385 1618T351 1700Q351 1748 385 1782T467 1816ZM875 1816Q923 1816 957 1782T991 1700Q991 1652 957 1618T875 1584Q827 1584 793 1618T759 1700Q759 1748 793 1782T875 1816Z"/><glyph unicode="Ý" horiz-adv-x="1212" d="M63 1471H233L609 865L979 1471H1149L683 703V0H538V703L63 1471ZM674 1895H889L594 1587H456L674 1895Z"/><glyph unicode="Þ" horiz-adv-x="1212" d="M178 1471H325V1127H471Q722 1127 810 1105Q936 1074 1016 978T1097 735Q1097 589 1019 494T804 364Q704 340 430 340H325V0H178V1471ZM325 984V484L574 481Q725 481 795 509T905 598T945 735Q945 810 905 871T800 958T585 984H325Z"/><glyph unicode="ß" horiz-adv-x="1135" d="M162 0V995Q162 1221 205 1317T348 1474T583 1536Q760 1536 868 1433T977 1174Q977 1075 927 998T788 875Q739 850 651 838Q748 823 800 796Q908 739 969 639T1030 408Q1030 216 913 94T613 -28Q490 -28 405 21V154Q510 105 593 105Q721 105 805 190T890 412Q890 563 789 658T495 759V916H527Q666 916 750 989T834 1168Q834 1267 764 1334T586 1401Q501 1401 430 1355T327 1230Q303 1169 303 982V0H162Z"/><glyph unicode="à" horiz-adv-x="1399" d="M1240 1088V0H1102V187Q1014 80 905 26T665 -28Q434 -28 271 139T107 547Q107 782 272 949T669 1116Q803 1116 911 1059T1102 888V1088H1240ZM680 981Q563 981 464 924T307 762T248 542Q248 427 307 322T465 159T679 100Q794 100 897 158T1055 315T1111 538Q1111 727 987 854T680 981ZM639 1598L857 1290H719L424 1598H639Z"/><glyph unicode="á" horiz-adv-x="1399" d="M1240 1088V0H1102V187Q1014 80 905 26T665 -28Q434 -28 271 139T107 547Q107 782 272 949T669 1116Q803 1116 911 1059T1102 888V1088H1240ZM680 981Q563 981 464 924T307 762T248 542Q248 427 307 322T465 159T679 100Q794 100 897 158T1055 315T1111 538Q1111 727 987 854T680 981ZM767 1598H982L687 1290H549L767 1598Z"/><glyph unicode="â" horiz-adv-x="1399" d="M1240 1088V0H1102V187Q1014 80 905 26T665 -28Q434 -28 271 139T107 547Q107 782 272 949T669 1116Q803 1116 911 1059T1102 888V1088H1240ZM680 981Q563 981 464 924T307 762T248 542Q248 427 307 322T465 159T679 100Q794 100 897 158T1055 315T1111 538Q1111 727 987 854T680 981ZM633 1542H772L1062 1285H882L706 1437L522 1285H336L633 1542Z"/><glyph unicode="ã" horiz-adv-x="1399" d="M1240 1088V0H1102V187Q1014 80 905 26T665 -28Q434 -28 271 139T107 547Q107 782 272 949T669 1116Q803 1116 911 1059T1102 888V1088H1240ZM680 981Q563 981 464 924T307 762T248 542Q248 427 307 322T465 159T679 100Q794 100 897 158T1055 315T1111 538Q1111 727 987 854T680 981ZM996 1492L1066 1395Q994 1343 945 1325T840 1307Q768 1307 692 1344Q627 1376 609 1381Q585 1388 557 1388Q522 1388 491 1376T399 1319L333 1421Q424 1518 558 1518Q622 1518 711 1478Q796 1439 845 1439Q900 1439 996 1492Z"/><glyph unicode="ä" horiz-adv-x="1399" d="M1240 1088V0H1102V187Q1014 80 905 26T665 -28Q434 -28 271 139T107 547Q107 782 272 949T669 1116Q803 1116 911 1059T1102 888V1088H1240ZM680 981Q563 981 464 924T307 762T248 542Q248 427 307 322T465 159T679 100Q794 100 897 158T1055 315T1111 538Q1111 727 987 854T680 981ZM496 1518Q544 1518 578 1484T612 1402Q612 1354 578 1320T496 1286Q448 1286 414 1320T380 1402Q380 1450 414 1484T496 1518ZM904 1518Q952 1518 986 1484T1020 1402Q1020 1354 986 1320T904 1286Q856 1286 822 1320T788 1402Q788 1450 822 1484T904 1518Z"/><glyph unicode="å" horiz-adv-x="1399" d="M1240 1088V0H1102V187Q1014 80 905 26T665 -28Q434 -28 271 139T107 547Q107 782 272 949T669 1116Q803 1116 911 1059T1102 888V1088H1240ZM680 981Q563 981 464 924T307 762T248 542Q248 427 307 322T465 159T679 100Q794 100 897 158T1055 315T1111 538Q1111 727 987 854T680 981ZM699 1691Q787 1691 849 1629T912 1477Q912 1389 850 1327T699 1264Q611 1264 549 1326T486 1477Q486 1566 548 1628T699 1691ZM698 1590Q652 1590 620 1558T588 1480Q588 1435 620 1403T698 1370Q743 1370 775 1402T807 1480Q807 1525 775 1557T698 1590Z"/><glyph unicode="æ" horiz-adv-x="2370" d="M1245 1088V891Q1351 1018 1450 1067T1682 1116Q1928 1116 2088 952T2248 530H1269Q1273 414 1331 311T1484 154T1696 100Q1821 100 1920 161T2093 357L2213 297Q2139 142 2000 57T1686 -28Q1532 -28 1411 41Q1324 90 1245 194V0H1117V201Q1028 90 944 42Q824 -28 681 -28Q450 -28 285 139T120 548Q120 704 194 833T399 1039T677 1116Q818 1116 941 1047Q1028 997 1117 890V1088H1245ZM2093 651Q2065 765 2012 832T1871 940T1690 982Q1595 982 1506 940T1359 827T1277 651H2093ZM687 981Q573 981 474 924T319 767T263 544Q263 356 387 231T692 105Q873 105 996 229T1120 542Q1120 673 1067 770T911 924T687 981Z"/><glyph unicode="ç" horiz-adv-x="1325" d="M1212 862L1101 793Q957 984 708 984Q509 984 378 856T246 545Q246 426 306 321T472 158T709 100Q949 100 1101 291L1212 218Q1134 101 1003 37T703 -28Q445 -28 275 136T105 535Q105 693 184 828T403 1040T714 1116Q822 1116 922 1083T1093 997T1212 862ZM642 0H730L713 -118Q736 -115 751 -115Q800 -115 833 -145T866 -222Q866 -288 806 -334T637 -380Q548 -380 470 -350L492 -281Q556 -301 612 -301Q687 -301 717 -283T747 -236Q747 -219 731 -206T685 -193Q661 -193 615 -202L642 0Z"/><glyph unicode="è" horiz-adv-x="1331" d="M1072 361L1190 299Q1132 185 1056 115T885 9T670 -28Q404 -28 254 146T104 541Q104 748 231 910Q392 1116 662 1116Q940 1116 1106 905Q1224 756 1226 533H248Q252 343 369 222T658 100Q741 100 819 129T953 206T1072 361ZM1072 654Q1044 766 991 833T849 941T664 982Q504 982 389 879Q305 804 262 654H1072ZM605 1598L823 1290H685L390 1598H605Z"/><glyph unicode="é" horiz-adv-x="1331" d="M1072 361L1190 299Q1132 185 1056 115T885 9T670 -28Q404 -28 254 146T104 541Q104 748 231 910Q392 1116 662 1116Q940 1116 1106 905Q1224 756 1226 533H248Q252 343 369 222T658 100Q741 100 819 129T953 206T1072 361ZM1072 654Q1044 766 991 833T849 941T664 982Q504 982 389 879Q305 804 262 654H1072ZM734 1598H949L654 1290H516L734 1598Z"/><glyph unicode="ê" horiz-adv-x="1331" d="M1072 361L1190 299Q1132 185 1056 115T885 9T670 -28Q404 -28 254 146T104 541Q104 748 231 910Q392 1116 662 1116Q940 1116 1106 905Q1224 756 1226 533H248Q252 343 369 222T658 100Q741 100 819 129T953 206T1072 361ZM1072 654Q1044 766 991 833T849 941T664 982Q504 982 389 879Q305 804 262 654H1072ZM600 1542H739L1029 1285H849L673 1437L489 1285H303L600 1542Z"/><glyph unicode="ë" horiz-adv-x="1331" d="M1072 361L1190 299Q1132 185 1056 115T885 9T670 -28Q404 -28 254 146T104 541Q104 748 231 910Q392 1116 662 1116Q940 1116 1106 905Q1224 756 1226 533H248Q252 343 369 222T658 100Q741 100 819 129T953 206T1072 361ZM1072 654Q1044 766 991 833T849 941T664 982Q504 982 389 879Q305 804 262 654H1072ZM462 1518Q510 1518 544 1484T578 1402Q578 1354 544 1320T462 1286Q414 1286 380 1320T346 1402Q346 1450 380 1484T462 1518ZM870 1518Q918 1518 952 1484T986 1402Q986 1354 952 1320T870 1286Q822 1286 788 1320T754 1402Q754 1450 788 1484T870 1518Z"/><glyph unicode="ì" horiz-adv-x="410" d="M135 1088H276V0H135V1088ZM144 1598L362 1290H224L-71 1598H144Z"/><glyph unicode="í" horiz-adv-x="410" d="M135 1088H276V0H135V1088ZM273 1598H488L193 1290H55L273 1598Z"/><glyph unicode="î" horiz-adv-x="410" d="M135 1088H276V0H135V1088ZM139 1542H278L568 1285H388L212 1437L28 1285H-158L139 1542Z"/><glyph unicode="ï" horiz-adv-x="410" d="M135 1088H276V0H135V1088ZM1 1518Q49 1518 83 1484T117 1402Q117 1354 83 1320T1 1286Q-47 1286 -81 1320T-115 1402Q-115 1450 -81 1484T1 1518ZM409 1518Q457 1518 491 1484T525 1402Q525 1354 491 1320T409 1286Q361 1286 327 1320T293 1402Q293 1450 327 1484T409 1518Z"/><glyph unicode="ð" horiz-adv-x="1341" d="M430 1508H627Q679 1471 729 1430L893 1498L945 1391L828 1344Q1045 1135 1142 938T1239 567Q1239 401 1165 263T958 49T666 -28Q434 -28 270 139T105 547Q105 785 267 950T653 1116Q769 1116 904 1051Q810 1178 691 1286L473 1196L421 1302L596 1375Q500 1455 430 1508ZM680 982Q524 982 399 884Q246 763 246 550Q246 361 370 234T671 106Q785 106 884 163T1039 322T1095 548Q1095 673 1042 773T892 927T680 982Z"/><glyph unicode="ñ" horiz-adv-x="1249" d="M156 1088H296V893Q380 1005 482 1060T704 1116Q826 1116 920 1054T1060 887T1105 560V0H966V519Q966 707 950 770Q925 878 856 932T676 987Q549 987 449 903T316 695Q296 614 296 399V0H156V1088ZM921 1492L991 1395Q919 1343 870 1325T765 1307Q693 1307 617 1344Q552 1376 534 1381Q510 1388 482 1388Q447 1388 416 1376T324 1319L258 1421Q349 1518 483 1518Q547 1518 636 1478Q721 1439 770 1439Q825 1439 921 1492Z"/><glyph unicode="ò" horiz-adv-x="1341" d="M671 1116Q922 1116 1087 934Q1237 768 1237 541Q1237 313 1079 143T671 -28Q421 -28 263 142T104 541Q104 767 254 933Q419 1116 671 1116ZM671 979Q497 979 372 850T247 538Q247 420 304 318T458 161T671 105Q787 105 884 160T1038 318T1095 538Q1095 721 970 850T671 979ZM610 1598L828 1290H690L395 1598H610Z"/><glyph unicode="ó" horiz-adv-x="1341" d="M671 1116Q922 1116 1087 934Q1237 768 1237 541Q1237 313 1079 143T671 -28Q421 -28 263 142T104 541Q104 767 254 933Q419 1116 671 1116ZM671 979Q497 979 372 850T247 538Q247 420 304 318T458 161T671 105Q787 105 884 160T1038 318T1095 538Q1095 721 970 850T671 979ZM739 1598H954L659 1290H521L739 1598Z"/><glyph unicode="ô" horiz-adv-x="1341" d="M671 1116Q922 1116 1087 934Q1237 768 1237 541Q1237 313 1079 143T671 -28Q421 -28 263 142T104 541Q104 767 254 933Q419 1116 671 1116ZM671 979Q497 979 372 850T247 538Q247 420 304 318T458 161T671 105Q787 105 884 160T1038 318T1095 538Q1095 721 970 850T671 979ZM605 1542H744L1034 1285H854L678 1437L494 1285H308L605 1542Z"/><glyph unicode="õ" horiz-adv-x="1341" d="M671 1116Q922 1116 1087 934Q1237 768 1237 541Q1237 313 1079 143T671 -28Q421 -28 263 142T104 541Q104 767 254 933Q419 1116 671 1116ZM671 979Q497 979 372 850T247 538Q247 420 304 318T458 161T671 105Q787 105 884 160T1038 318T1095 538Q1095 721 970 850T671 979ZM967 1492L1037 1395Q965 1343 916 1325T811 1307Q739 1307 663 1344Q598 1376 580 1381Q556 1388 528 1388Q493 1388 462 1376T370 1319L304 1421Q395 1518 529 1518Q593 1518 682 1478Q767 1439 816 1439Q871 1439 967 1492Z"/><glyph unicode="ö" horiz-adv-x="1341" d="M671 1116Q922 1116 1087 934Q1237 768 1237 541Q1237 313 1079 143T671 -28Q421 -28 263 142T104 541Q104 767 254 933Q419 1116 671 1116ZM671 979Q497 979 372 850T247 538Q247 420 304 318T458 161T671 105Q787 105 884 160T1038 318T1095 538Q1095 721 970 850T671 979ZM467 1518Q515 1518 549 1484T583 1402Q583 1354 549 1320T467 1286Q419 1286 385 1320T351 1402Q351 1450 385 1484T467 1518ZM875 1518Q923 1518 957 1484T991 1402Q991 1354 957 1320T875 1286Q827 1286 793 1320T759 1402Q759 1450 793 1484T875 1518Z"/><glyph unicode="÷" horiz-adv-x="1124" d="M461 1207H662V1005H461V1207ZM56 804H1068V667H56V804ZM461 466H662V261H461V466Z"/><glyph unicode="ø" horiz-adv-x="1337" d="M1102 913Q1235 752 1235 541Q1235 313 1077 143T669 -28Q505 -28 370 54L254 -83L165 -9L279 125Q102 296 102 541Q102 769 260 942T668 1116Q869 1116 1019 996L1135 1133L1227 1059L1102 913ZM367 229L927 887Q809 979 669 979Q558 979 460 921T303 759T245 538Q245 452 277 370T367 229ZM1007 802L459 158Q562 105 668 105Q784 105 881 160T1036 318T1093 537Q1093 681 1007 802Z"/><glyph unicode="ù" horiz-adv-x="1245" d="M138 1088H279V580Q279 394 299 324Q329 224 413 166T615 108Q732 108 813 164T926 313Q947 376 947 580V1088H1090V554Q1090 329 1038 215T880 37T615 -28Q456 -28 350 36T191 216T138 564V1088ZM561 1598L779 1290H641L346 1598H561Z"/><glyph unicode="ú" horiz-adv-x="1245" d="M138 1088H279V580Q279 394 299 324Q329 224 413 166T615 108Q732 108 813 164T926 313Q947 376 947 580V1088H1090V554Q1090 329 1038 215T880 37T615 -28Q456 -28 350 36T191 216T138 564V1088ZM690 1598H905L610 1290H472L690 1598Z"/><glyph unicode="û" horiz-adv-x="1245" d="M138 1088H279V580Q279 394 299 324Q329 224 413 166T615 108Q732 108 813 164T926 313Q947 376 947 580V1088H1090V554Q1090 329 1038 215T880 37T615 -28Q456 -28 350 36T191 216T138 564V1088ZM556 1542H695L985 1285H805L629 1437L445 1285H259L556 1542Z"/><glyph unicode="ü" horiz-adv-x="1245" d="M138 1088H279V580Q279 394 299 324Q329 224 413 166T615 108Q732 108 813 164T926 313Q947 376 947 580V1088H1090V554Q1090 329 1038 215T880 37T615 -28Q456 -28 350 36T191 216T138 564V1088ZM418 1518Q466 1518 500 1484T534 1402Q534 1354 500 1320T418 1286Q370 1286 336 1320T302 1402Q302 1450 336 1484T418 1518ZM826 1518Q874 1518 908 1484T942 1402Q942 1354 908 1320T826 1286Q778 1286 744 1320T710 1402Q710 1450 744 1484T826 1518Z"/><glyph unicode="ý" horiz-adv-x="1098" d="M39 1088H187L561 250L924 1088H1073L424 -398H276L486 82L39 1088ZM617 1598H832L537 1290H399L617 1598Z"/><glyph unicode="þ" horiz-adv-x="1397" d="M158 1508H297V888Q380 1002 488 1059T729 1116Q961 1116 1126 949T1291 547Q1291 307 1128 140T733 -28Q603 -28 494 26T297 187V-398H158V1508ZM718 981Q536 981 412 854T287 538Q287 414 342 315T501 158T720 100Q833 100 932 158T1091 322T1150 542Q1150 658 1092 762T934 923T718 981Z"/><glyph unicode="ÿ" horiz-adv-x="1098" d="M39 1088H187L561 250L924 1088H1073L424 -398H276L486 82L39 1088ZM355 1518Q403 1518 437 1484T471 1402Q471 1354 437 1320T355 1286Q307 1286 273 1320T239 1402Q239 1450 273 1484T355 1518ZM763 1518Q811 1518 845 1484T879 1402Q879 1354 845 1320T763 1286Q715 1286 681 1320T647 1402Q647 1450 681 1484T763 1518Z"/><glyph unicode="Ā" horiz-adv-x="1515" d="M780 1471L1466 0H1308L1077 484H443L213 0H49L744 1471H780ZM762 1159L509 626H1012L762 1159ZM412 1776H1102V1657H412V1776Z"/><glyph unicode="ā" horiz-adv-x="1399" d="M1240 1088V0H1102V187Q1014 80 905 26T665 -28Q434 -28 271 139T107 547Q107 782 272 949T669 1116Q803 1116 911 1059T1102 888V1088H1240ZM680 981Q563 981 464 924T307 762T248 542Q248 427 307 322T465 159T679 100Q794 100 897 158T1055 315T1111 538Q1111 727 987 854T680 981ZM355 1479H1045V1360H355V1479Z"/><glyph unicode="Ă" horiz-adv-x="1515" d="M780 1471L1466 0H1308L1077 484H443L213 0H49L744 1471H780ZM762 1159L509 626H1012L762 1159ZM410 1822H542Q576 1770 633 1744T769 1718Q849 1718 898 1741T991 1822H1119Q1097 1732 1007 1672T768 1611Q621 1611 528 1670T410 1822Z"/><glyph unicode="ă" horiz-adv-x="1399" d="M1240 1088V0H1102V187Q1014 80 905 26T665 -28Q434 -28 271 139T107 547Q107 782 272 949T669 1116Q803 1116 911 1059T1102 888V1088H1240ZM680 981Q563 981 464 924T307 762T248 542Q248 427 307 322T465 159T679 100Q794 100 897 158T1055 315T1111 538Q1111 727 987 854T680 981ZM310 1525H442Q476 1473 533 1447T669 1421Q749 1421 798 1444T891 1525H1019Q997 1435 907 1375T668 1314Q521 1314 428 1373T310 1525Z"/><glyph unicode="Ą" horiz-adv-x="1515" d="M780 1471L1466 0H1308L1077 484H443L213 0H49L744 1471H780ZM762 1159L509 626H1012L762 1159ZM1316 0H1425Q1304 -103 1304 -193Q1304 -239 1341 -271T1450 -303Q1479 -303 1519 -298L1510 -383Q1468 -393 1425 -393Q1314 -393 1256 -340T1197 -213Q1197 -83 1316 0Z"/><glyph unicode="ą" horiz-adv-x="1399" d="M1240 1088V0H1102V187Q1014 80 905 26T665 -28Q434 -28 271 139T107 547Q107 782 272 949T669 1116Q803 1116 911 1059T1102 888V1088H1240ZM680 981Q563 981 464 924T307 762T248 542Q248 427 307 322T465 159T679 100Q794 100 897 158T1055 315T1111 538Q1111 727 987 854T680 981ZM1115 0H1224Q1103 -103 1103 -193Q1103 -239 1140 -271T1249 -303Q1278 -303 1318 -298L1309 -383Q1267 -393 1224 -393Q1113 -393 1055 -340T996 -213Q996 -83 1115 0Z"/><glyph unicode="Ć" horiz-adv-x="1665" d="M1549 1198L1433 1109Q1337 1234 1203 1298T907 1363Q731 1363 581 1279T349 1052T266 731Q266 462 450 282T916 102Q1225 102 1433 344L1549 256Q1439 116 1275 40T907 -37Q521 -37 298 220Q111 437 111 744Q111 1067 337 1287T905 1508Q1111 1508 1277 1427T1549 1198ZM985 1891H1200L905 1583H767L985 1891Z"/><glyph unicode="ć" horiz-adv-x="1325" d="M1212 862L1101 793Q957 984 708 984Q509 984 378 856T246 545Q246 426 306 321T472 158T709 100Q949 100 1101 291L1212 218Q1134 101 1003 37T703 -28Q445 -28 275 136T105 535Q105 693 184 828T403 1040T714 1116Q822 1116 922 1083T1093 997T1212 862ZM767 1598H982L687 1290H549L767 1598Z"/><glyph unicode="Ĉ" horiz-adv-x="1665" d="M1549 1198L1433 1109Q1337 1234 1203 1298T907 1363Q731 1363 581 1279T349 1052T266 731Q266 462 450 282T916 102Q1225 102 1433 344L1549 256Q1439 116 1275 40T907 -37Q521 -37 298 220Q111 437 111 744Q111 1067 337 1287T905 1508Q1111 1508 1277 1427T1549 1198ZM806 1840H945L1235 1583H1055L879 1735L695 1583H509L806 1840Z"/><glyph unicode="ĉ" horiz-adv-x="1325" d="M1212 862L1101 793Q957 984 708 984Q509 984 378 856T246 545Q246 426 306 321T472 158T709 100Q949 100 1101 291L1212 218Q1134 101 1003 37T703 -28Q445 -28 275 136T105 535Q105 693 184 828T403 1040T714 1116Q822 1116 922 1083T1093 997T1212 862ZM598 1542H737L1027 1285H847L671 1437L487 1285H301L598 1542Z"/><glyph unicode="Ċ" horiz-adv-x="1665" d="M1549 1198L1433 1109Q1337 1234 1203 1298T907 1363Q731 1363 581 1279T349 1052T266 731Q266 462 450 282T916 102Q1225 102 1433 344L1549 256Q1439 116 1275 40T907 -37Q521 -37 298 220Q111 437 111 744Q111 1067 337 1287T905 1508Q1111 1508 1277 1427T1549 1198ZM878 1816Q926 1816 960 1782T994 1700Q994 1652 960 1618T878 1584Q830 1584 796 1618T762 1700Q762 1748 796 1782T878 1816Z"/><glyph unicode="ċ" horiz-adv-x="1325" d="M1212 862L1101 793Q957 984 708 984Q509 984 378 856T246 545Q246 426 306 321T472 158T709 100Q949 100 1101 291L1212 218Q1134 101 1003 37T703 -28Q445 -28 275 136T105 535Q105 693 184 828T403 1040T714 1116Q822 1116 922 1083T1093 997T1212 862ZM683 1518Q731 1518 765 1484T799 1402Q799 1354 765 1320T683 1286Q635 1286 601 1320T567 1402Q567 1450 601 1484T683 1518Z"/><glyph unicode="Č" horiz-adv-x="1665" d="M1549 1198L1433 1109Q1337 1234 1203 1298T907 1363Q731 1363 581 1279T349 1052T266 731Q266 462 450 282T916 102Q1225 102 1433 344L1549 256Q1439 116 1275 40T907 -37Q521 -37 298 220Q111 437 111 744Q111 1067 337 1287T905 1508Q1111 1508 1277 1427T1549 1198ZM971 1578H832L542 1835H722L899 1683L1082 1835H1268L971 1578Z"/><glyph unicode="č" horiz-adv-x="1325" d="M1212 862L1101 793Q957 984 708 984Q509 984 378 856T246 545Q246 426 306 321T472 158T709 100Q949 100 1101 291L1212 218Q1134 101 1003 37T703 -28Q445 -28 275 136T105 535Q105 693 184 828T403 1040T714 1116Q822 1116 922 1083T1093 997T1212 862ZM777 1285H638L348 1542H528L705 1390L888 1542H1074L777 1285Z"/><glyph unicode="Ď" horiz-adv-x="1524" d="M179 0V1471H484Q814 1471 963 1418Q1177 1343 1297 1158T1418 717Q1418 496 1323 328T1075 80T647 0H179ZM320 139H490Q795 139 913 177Q1079 231 1174 371T1269 715Q1269 928 1166 1079T879 1286Q741 1328 424 1328H320V139ZM731 1578H592L302 1835H482L659 1683L842 1835H1028L731 1578Z"/><glyph unicode="ď" horiz-adv-x="1403" d="M1242 1508V0H1104V187Q927 -28 667 -28Q423 -28 266 146T109 547Q109 777 272 946T671 1116Q939 1116 1104 888V1508H1242ZM682 981Q496 981 373 850T250 542Q250 364 375 232T681 100Q848 100 980 217T1113 538Q1113 737 985 859T682 981ZM1398 1041L1333 1079Q1386 1183 1392 1274H1317V1508H1471V1362Q1471 1256 1457 1193T1398 1041Z"/><glyph unicode="Đ" horiz-adv-x="1618" d="M213 667H34V804H213V1471H579Q908 1471 1058 1418Q1271 1343 1391 1158T1512 717Q1512 496 1417 328T1169 80T742 0H213V667ZM354 667V139H584Q889 139 1007 177Q1173 231 1268 371T1364 715Q1364 928 1261 1079T973 1286Q835 1328 518 1328H354V804H741V667H354Z"/><glyph unicode="đ" horiz-adv-x="1403" d="M1242 1331H1402V1216H1242V0H1104V187Q1016 80 907 26T667 -28Q436 -28 273 139T109 547Q109 782 274 949T671 1116Q805 1116 913 1059T1104 888V1216H798V1331H1104V1508H1242V1331ZM682 981Q565 981 466 924T309 762T250 542Q250 427 309 322T467 159T681 100Q796 100 899 158T1057 315T1113 538Q1113 727 989 854T682 981Z"/><glyph unicode="Ē" horiz-adv-x="1098" d="M180 1471H1023V1326H327V866H1017V722H327V145H1017V0H180V1471ZM252 1776H942V1657H252V1776Z"/><glyph unicode="ē" horiz-adv-x="1331" d="M1072 361L1190 299Q1132 185 1056 115T885 9T670 -28Q404 -28 254 146T104 541Q104 748 231 910Q392 1116 662 1116Q940 1116 1106 905Q1224 756 1226 533H248Q252 343 369 222T658 100Q741 100 819 129T953 206T1072 361ZM1072 654Q1044 766 991 833T849 941T664 982Q504 982 389 879Q305 804 262 654H1072ZM320 1479H1010V1360H320V1479Z"/><glyph unicode="Ĕ" horiz-adv-x="1098" d="M180 1471H1023V1326H327V866H1017V722H327V145H1017V0H180V1471ZM195 1823H327Q361 1771 418 1745T554 1719Q634 1719 683 1742T776 1823H904Q882 1733 792 1673T553 1612Q406 1612 313 1671T195 1823Z"/><glyph unicode="ĕ" horiz-adv-x="1331" d="M1072 361L1190 299Q1132 185 1056 115T885 9T670 -28Q404 -28 254 146T104 541Q104 748 231 910Q392 1116 662 1116Q940 1116 1106 905Q1224 756 1226 533H248Q252 343 369 222T658 100Q741 100 819 129T953 206T1072 361ZM1072 654Q1044 766 991 833T849 941T664 982Q504 982 389 879Q305 804 262 654H1072ZM311 1525H443Q477 1473 534 1447T670 1421Q750 1421 799 1444T892 1525H1020Q998 1435 908 1375T669 1314Q522 1314 429 1373T311 1525Z"/><glyph unicode="Ė" horiz-adv-x="1098" d="M180 1471H1023V1326H327V866H1017V722H327V145H1017V0H180V1471ZM602 1816Q650 1816 684 1782T718 1700Q718 1652 684 1618T602 1584Q554 1584 520 1618T486 1700Q486 1748 520 1782T602 1816Z"/><glyph unicode="ė" horiz-adv-x="1331" d="M1072 361L1190 299Q1132 185 1056 115T885 9T670 -28Q404 -28 254 146T104 541Q104 748 231 910Q392 1116 662 1116Q940 1116 1106 905Q1224 756 1226 533H248Q252 343 369 222T658 100Q741 100 819 129T953 206T1072 361ZM1072 654Q1044 766 991 833T849 941T664 982Q504 982 389 879Q305 804 262 654H1072ZM665 1518Q713 1518 747 1484T781 1402Q781 1354 747 1320T665 1286Q617 1286 583 1320T549 1402Q549 1450 583 1484T665 1518Z"/><glyph unicode="Ę" horiz-adv-x="1098" d="M180 1471H1023V1326H327V866H1017V722H327V145H1017V0H180V1471ZM816 0H925Q804 -103 804 -193Q804 -239 841 -271T950 -303Q979 -303 1019 -298L1010 -383Q968 -393 925 -393Q814 -393 756 -340T697 -213Q697 -83 816 0Z"/><glyph unicode="ę" horiz-adv-x="1331" d="M1072 361L1190 299Q1132 185 1056 115T885 9T670 -28Q404 -28 254 146T104 541Q104 748 231 910Q392 1116 662 1116Q940 1116 1106 905Q1224 756 1226 533H248Q252 343 369 222T658 100Q741 100 819 129T953 206T1072 361ZM1072 654Q1044 766 991 833T849 941T664 982Q504 982 389 879Q305 804 262 654H1072ZM689 0H798Q677 -103 677 -193Q677 -239 714 -271T823 -303Q852 -303 892 -298L883 -383Q841 -393 798 -393Q687 -393 629 -340T570 -213Q570 -83 689 0Z"/><glyph unicode="Ě" horiz-adv-x="1098" d="M180 1471H1023V1326H327V866H1017V722H327V145H1017V0H180V1471ZM675 1583H536L246 1840H426L603 1688L786 1840H972L675 1583Z"/><glyph unicode="ě" horiz-adv-x="1331" d="M1072 361L1190 299Q1132 185 1056 115T885 9T670 -28Q404 -28 254 146T104 541Q104 748 231 910Q392 1116 662 1116Q940 1116 1106 905Q1224 756 1226 533H248Q252 343 369 222T658 100Q741 100 819 129T953 206T1072 361ZM1072 654Q1044 766 991 833T849 941T664 982Q504 982 389 879Q305 804 262 654H1072ZM732 1285H593L303 1542H483L660 1390L843 1542H1029L732 1285Z"/><glyph unicode="Ĝ" horiz-adv-x="1786" d="M1598 1224L1484 1116Q1361 1237 1215 1299T929 1362Q756 1362 600 1277T357 1047T271 739Q271 573 360 424T606 189T950 103Q1177 103 1334 231T1520 563H1051V705H1685Q1683 364 1483 164T946 -37Q538 -37 300 241Q117 455 117 736Q117 945 222 1125T510 1406T924 1508Q1111 1508 1276 1441T1598 1224ZM835 1840H974L1264 1583H1084L908 1735L724 1583H538L835 1840Z"/><glyph unicode="ĝ" horiz-adv-x="1378" d="M1093 1088H1234V221Q1234 -8 1194 -114Q1139 -264 1003 -345T676 -426Q536 -426 425 -387T243 -281T114 -86H266Q328 -194 426 -246T669 -298Q812 -298 910 -245T1051 -110T1093 151V207Q1014 107 900 54T658 0Q508 0 376 74T172 275T100 552Q100 703 175 833T382 1040T662 1116Q784 1116 889 1066T1093 899V1088ZM680 981Q561 981 459 924T299 765T241 545Q241 366 361 249T672 132Q865 132 982 248T1100 553Q1100 676 1046 772T893 925T680 981ZM600 1542H739L1029 1285H849L673 1437L489 1285H303L600 1542Z"/><glyph unicode="Ğ" horiz-adv-x="1786" d="M1598 1224L1484 1116Q1361 1237 1215 1299T929 1362Q756 1362 600 1277T357 1047T271 739Q271 573 360 424T606 189T950 103Q1177 103 1334 231T1520 563H1051V705H1685Q1683 364 1483 164T946 -37Q538 -37 300 241Q117 455 117 736Q117 945 222 1125T510 1406T924 1508Q1111 1508 1276 1441T1598 1224ZM538 1818H670Q704 1766 761 1740T897 1714Q977 1714 1026 1737T1119 1818H1247Q1225 1728 1135 1668T896 1607Q749 1607 656 1666T538 1818Z"/><glyph unicode="ğ" horiz-adv-x="1378" d="M1093 1088H1234V221Q1234 -8 1194 -114Q1139 -264 1003 -345T676 -426Q536 -426 425 -387T243 -281T114 -86H266Q328 -194 426 -246T669 -298Q812 -298 910 -245T1051 -110T1093 151V207Q1014 107 900 54T658 0Q508 0 376 74T172 275T100 552Q100 703 175 833T382 1040T662 1116Q784 1116 889 1066T1093 899V1088ZM680 981Q561 981 459 924T299 765T241 545Q241 366 361 249T672 132Q865 132 982 248T1100 553Q1100 676 1046 772T893 925T680 981ZM335 1525H467Q501 1473 558 1447T694 1421Q774 1421 823 1444T916 1525H1044Q1022 1435 932 1375T693 1314Q546 1314 453 1373T335 1525Z"/><glyph unicode="Ġ" horiz-adv-x="1786" d="M1598 1224L1484 1116Q1361 1237 1215 1299T929 1362Q756 1362 600 1277T357 1047T271 739Q271 573 360 424T606 189T950 103Q1177 103 1334 231T1520 563H1051V705H1685Q1683 364 1483 164T946 -37Q538 -37 300 241Q117 455 117 736Q117 945 222 1125T510 1406T924 1508Q1111 1508 1276 1441T1598 1224ZM913 1816Q961 1816 995 1782T1029 1700Q1029 1652 995 1618T913 1584Q865 1584 831 1618T797 1700Q797 1748 831 1782T913 1816Z"/><glyph unicode="ġ" horiz-adv-x="1378" d="M1093 1088H1234V221Q1234 -8 1194 -114Q1139 -264 1003 -345T676 -426Q536 -426 425 -387T243 -281T114 -86H266Q328 -194 426 -246T669 -298Q812 -298 910 -245T1051 -110T1093 151V207Q1014 107 900 54T658 0Q508 0 376 74T172 275T100 552Q100 703 175 833T382 1040T662 1116Q784 1116 889 1066T1093 899V1088ZM680 981Q561 981 459 924T299 765T241 545Q241 366 361 249T672 132Q865 132 982 248T1100 553Q1100 676 1046 772T893 925T680 981ZM692 1518Q740 1518 774 1484T808 1402Q808 1354 774 1320T692 1286Q644 1286 610 1320T576 1402Q576 1450 610 1484T692 1518Z"/><glyph unicode="Ģ" horiz-adv-x="1786" d="M1598 1224L1484 1116Q1361 1237 1215 1299T929 1362Q756 1362 600 1277T357 1047T271 739Q271 573 360 424T606 189T950 103Q1177 103 1334 231T1520 563H1051V705H1685Q1683 364 1483 164T946 -37Q538 -37 300 241Q117 455 117 736Q117 945 222 1125T510 1406T924 1508Q1111 1508 1276 1441T1598 1224ZM872 0H960L943 -118Q966 -115 981 -115Q1030 -115 1063 -145T1096 -222Q1096 -288 1036 -334T867 -380Q778 -380 700 -350L722 -281Q786 -301 842 -301Q917 -301 947 -283T977 -236Q977 -219 961 -206T915 -193Q891 -193 845 -202L872 0Z"/><glyph unicode="ģ" horiz-adv-x="1378" d="M1093 1088H1234V221Q1234 -8 1194 -114Q1139 -264 1003 -345T676 -426Q536 -426 425 -387T243 -281T114 -86H266Q328 -194 426 -246T669 -298Q812 -298 910 -245T1051 -110T1093 151V207Q1014 107 900 54T658 0Q508 0 376 74T172 275T100 552Q100 703 175 833T382 1040T662 1116Q784 1116 889 1066T1093 899V1088ZM680 981Q561 981 459 924T299 765T241 545Q241 366 361 249T672 132Q865 132 982 248T1100 553Q1100 676 1046 772T893 925T680 981ZM679 1818L757 1774Q719 1698 706 1655T686 1544H775V1269H594V1441Q594 1570 611 1643T679 1818Z"/><glyph unicode="Ĥ" horiz-adv-x="1399" d="M177 1471H325V854H1073V1471H1221V0H1073V710H325V0H177V1471ZM633 1840H772L1062 1583H882L706 1735L522 1583H336L633 1840Z"/><glyph unicode="ĥ" horiz-adv-x="1249" d="M156 1508H296V893Q381 1005 483 1060T704 1116Q826 1116 920 1054T1060 888T1105 560V0H965V519Q965 707 950 770Q924 878 856 932T676 987Q549 987 449 903T316 695Q296 615 296 399V0H156V1508ZM558 1840H697L987 1583H807L631 1735L447 1583H261L558 1840Z"/><glyph unicode="Ħ" horiz-adv-x="1399" d="M326 1239H1073V1471H1221V1239H1354V1101H1221V0H1073V710H326V0H178V1101H45V1239H178V1471H326V1239ZM326 1101V854H1073V1101H326Z"/><glyph unicode="ħ" horiz-adv-x="1249" d="M296 1356H670V1240H296V893Q465 1116 703 1116Q845 1116 944 1038T1074 854T1105 560V0H965V519Q965 708 945 793T856 932T676 987Q580 987 504 943T378 825T312 673T296 399V0H156V1240H4V1356H156V1508H296V1356Z"/><glyph unicode="Ĩ" horiz-adv-x="463" d="M158 1471H305V0H158V1471ZM528 1790L598 1693Q526 1641 477 1623T372 1605Q300 1605 224 1642Q159 1674 141 1679Q117 1686 89 1686Q54 1686 23 1674T-69 1617L-135 1719Q-44 1816 90 1816Q154 1816 243 1776Q328 1737 377 1737Q432 1737 528 1790Z"/><glyph unicode="ĩ" horiz-adv-x="410" d="M135 1088H276V0H135V1088ZM501 1492L571 1395Q499 1343 450 1325T345 1307Q273 1307 197 1344Q132 1376 114 1381Q90 1388 62 1388Q27 1388 -4 1376T-96 1319L-162 1421Q-71 1518 63 1518Q127 1518 216 1478Q301 1439 350 1439Q405 1439 501 1492Z"/><glyph unicode="Ī" horiz-adv-x="463" d="M158 1471H305V0H158V1471ZM-113 1776H577V1657H-113V1776Z"/><glyph unicode="ī" horiz-adv-x="410" d="M135 1088H276V0H135V1088ZM-140 1479H550V1360H-140V1479Z"/><glyph unicode="Ĭ" horiz-adv-x="463" d="M158 1471H305V0H158V1471ZM-123 1823H9Q43 1771 100 1745T236 1719Q316 1719 365 1742T458 1823H586Q564 1733 474 1673T235 1612Q88 1612 -5 1671T-123 1823Z"/><glyph unicode="ĭ" horiz-adv-x="410" d="M135 1088H276V0H135V1088ZM-149 1525H-17Q17 1473 74 1447T210 1421Q290 1421 339 1444T432 1525H560Q538 1435 448 1375T209 1314Q62 1314 -31 1373T-149 1525Z"/><glyph unicode="Į" horiz-adv-x="463" d="M158 1471H305V0H158V1471ZM452 0H561Q440 -103 440 -193Q440 -239 477 -271T586 -303Q615 -303 655 -298L646 -383Q604 -393 561 -393Q450 -393 392 -340T333 -213Q333 -83 452 0Z"/><glyph unicode="į" horiz-adv-x="410" d="M205 1536Q253 1536 287 1502T321 1420Q321 1373 287 1339T205 1305Q158 1305 124 1339T90 1420Q90 1468 124 1502T205 1536ZM135 1088H276V0H135V1088ZM167 0H276Q155 -103 155 -193Q155 -239 192 -271T301 -303Q330 -303 370 -298L361 -383Q319 -393 276 -393Q165 -393 107 -340T48 -213Q48 -83 167 0Z"/><glyph unicode="İ" horiz-adv-x="463" d="M158 1471H305V0H158V1471ZM232 1811Q280 1811 314 1777T348 1695Q348 1647 314 1613T232 1579Q184 1579 150 1613T116 1695Q116 1743 150 1777T232 1811Z"/><glyph unicode="ı" horiz-adv-x="410" d="M135 1088H276V0H135V1088Z"/><glyph unicode="Ĳ" horiz-adv-x="1450" d="M158 1471H305V0H158V1471ZM1124 1471H1271V478Q1271 282 1246 186T1132 26T916 -37Q733 -37 549 119L628 236Q817 100 916 100Q989 100 1043 148T1110 263T1124 483V1471Z"/><glyph unicode="ĳ" horiz-adv-x="825" d="M205 1536Q253 1536 287 1502T321 1421Q321 1373 287 1339T205 1305Q158 1305 124 1339T90 1421Q90 1470 124 1503T205 1536ZM618 1536Q665 1536 699 1503T733 1421Q733 1373 699 1339T618 1305Q571 1305 537 1339T503 1421Q503 1470 537 1503T618 1536ZM135 1088H276V0H135V1088ZM549 1088H691V-164Q691 -426 506 -426Q432 -426 346 -392V-266Q400 -295 447 -295Q486 -295 510 -274T542 -226T549 -123V1088Z"/><glyph unicode="Ĵ" horiz-adv-x="987" d="M660 1471H808V478Q808 249 773 160T654 17T453 -37Q364 -37 278 -3T86 119L164 236Q279 155 355 122Q405 100 453 100Q516 100 567 138T639 239T660 483V1471ZM559 1840H698L988 1583H808L632 1735L448 1583H262L559 1840Z"/><glyph unicode="ĵ" horiz-adv-x="416" d="M142 1542H281L571 1285H391L215 1437L31 1285H-155L142 1542ZM139 1088H281V-164Q281 -426 96 -426Q22 -426 -64 -392V-266Q-10 -295 38 -295Q76 -295 100 -274T132 -226T139 -123V1088Z"/><glyph unicode="Ķ" horiz-adv-x="1210" d="M179 1471H329V919L916 1471H1115L408 811L1170 0H975L329 686V0H179V1471ZM494 -127Q540 -112 589 -112Q746 -112 746 -222Q746 -291 684 -335T516 -380Q454 -380 371 -358L393 -287Q461 -301 497 -301Q627 -301 627 -236Q627 -193 554 -193Q527 -193 482 -206L494 -127Z"/><glyph unicode="ķ" horiz-adv-x="1028" d="M155 1508H296V650L799 1088H1005L408 569L1040 0H842L296 489V0H155V1508ZM419 -127Q465 -112 514 -112Q671 -112 671 -222Q671 -291 609 -335T441 -380Q379 -380 296 -358L318 -287Q386 -301 422 -301Q552 -301 552 -236Q552 -193 479 -193Q452 -193 407 -206L419 -127Z"/><glyph unicode="ĸ" horiz-adv-x="1028" d="M155 1088H296V650L799 1088H1005L408 569L1040 0H842L296 489V0H155V1088Z"/><glyph unicode="Ĺ" horiz-adv-x="946" d="M179 1471H327V142H892V0H179V1471ZM547 1896H762L467 1588H329L547 1896Z"/><glyph unicode="ĺ" horiz-adv-x="410" d="M135 1508H275V0H135V1508ZM297 1895H512L217 1587H79L297 1895Z"/><glyph unicode="Ļ" horiz-adv-x="946" d="M179 1471H327V142H892V0H179V1471ZM408 -127Q454 -112 503 -112Q660 -112 660 -222Q660 -291 598 -335T430 -380Q368 -380 285 -358L307 -287Q375 -301 411 -301Q541 -301 541 -236Q541 -193 468 -193Q441 -193 396 -206L408 -127Z"/><glyph unicode="ļ" horiz-adv-x="410" d="M135 1508H275V0H135V1508ZM362 -127Q408 -112 457 -112Q614 -112 614 -222Q614 -291 552 -335T384 -380Q322 -380 239 -358L261 -287Q329 -301 365 -301Q495 -301 495 -236Q495 -193 422 -193Q395 -193 350 -206L362 -127Z"/><glyph unicode="Ľ" horiz-adv-x="946" d="M179 1471H327V142H892V0H179V1471ZM558 922L481 966Q519 1042 532 1085T551 1196H463V1471H644V1299Q644 1170 627 1097T558 922Z"/><glyph unicode="ľ" horiz-adv-x="422" d="M134 1508H274V0H134V1508ZM430 1041L364 1079Q417 1183 424 1274H349V1508H502V1362Q502 1256 489 1193T430 1041Z"/><glyph unicode="Ŀ" horiz-adv-x="946" d="M179 1471H327V142H892V0H179V1471ZM612 870Q660 870 694 836T728 754Q728 706 694 672T612 638Q564 638 530 672T496 754Q496 802 530 836T612 870Z"/><glyph unicode="ŀ" horiz-adv-x="540" d="M135 1508H275V0H135V1508ZM472 870Q520 870 554 836T588 754Q588 706 554 672T472 638Q424 638 390 672T356 754Q356 802 390 836T472 870Z"/><glyph unicode="Ł" horiz-adv-x="1059" d="M438 857L704 1078V904L438 682V142H1004V0H291V559L89 391V566L291 734V1471H438V857Z"/><glyph unicode="ł" horiz-adv-x="614" d="M377 971L577 1100V960L377 831V0H237V741L53 622V762L237 881V1508H377V971Z"/><glyph unicode="Ń" horiz-adv-x="1515" d="M180 0V1471H212L1190 345V1471H1335V0H1302L332 1112V0H180ZM860 1895H1075L780 1587H642L860 1895Z"/><glyph unicode="ń" horiz-adv-x="1249" d="M156 1088H296V893Q380 1005 482 1060T704 1116Q826 1116 920 1054T1060 887T1105 560V0H966V519Q966 707 950 770Q925 878 856 932T676 987Q549 987 449 903T316 695Q296 614 296 399V0H156V1088ZM667 1598H882L587 1290H449L667 1598Z"/><glyph unicode="Ņ" horiz-adv-x="1515" d="M180 0V1471H212L1190 345V1471H1335V0H1302L332 1112V0H180ZM658 -127Q704 -112 753 -112Q910 -112 910 -222Q910 -291 848 -335T680 -380Q618 -380 535 -358L557 -287Q625 -301 661 -301Q791 -301 791 -236Q791 -193 718 -193Q691 -193 646 -206L658 -127Z"/><glyph unicode="ņ" horiz-adv-x="1249" d="M156 1088H296V893Q380 1005 482 1060T704 1116Q826 1116 920 1054T1060 887T1105 560V0H966V519Q966 707 950 770Q925 878 856 932T676 987Q549 987 449 903T316 695Q296 614 296 399V0H156V1088ZM526 -127Q572 -112 621 -112Q778 -112 778 -222Q778 -291 716 -335T548 -380Q486 -380 403 -358L425 -287Q493 -301 529 -301Q659 -301 659 -236Q659 -193 586 -193Q559 -193 514 -206L526 -127Z"/><glyph unicode="Ň" horiz-adv-x="1515" d="M180 0V1471H212L1190 345V1471H1335V0H1302L332 1112V0H180ZM830 1582H691L401 1839H581L758 1687L941 1839H1127L830 1582Z"/><glyph unicode="ň" horiz-adv-x="1249" d="M156 1088H296V893Q380 1005 482 1060T704 1116Q826 1116 920 1054T1060 887T1105 560V0H966V519Q966 707 950 770Q925 878 856 932T676 987Q549 987 449 903T316 695Q296 614 296 399V0H156V1088ZM755 1285H616L326 1542H506L683 1390L866 1542H1052L755 1285Z"/><glyph unicode="ŉ" horiz-adv-x="1254" d="M161 1088H301V893Q385 1005 487 1060T709 1116Q831 1116 925 1054T1065 887T1110 560V0H971V519Q971 707 955 770Q930 878 861 932T681 987Q554 987 454 903T321 695Q301 614 301 399V0H161V1088ZM26 959L-51 1003Q-13 1079 0 1122T19 1233H-69V1508H112V1336Q112 1207 95 1134T26 959Z"/><glyph unicode="Ŋ" horiz-adv-x="1591" d="M529 151L634 242Q737 102 896 102Q1081 102 1201 286T1322 739Q1322 1013 1167 1191T784 1369Q648 1369 527 1299T326 1119V0H178V1471H326V1293Q523 1508 805 1508Q1101 1508 1288 1283T1476 727Q1476 391 1309 177T891 -37Q672 -37 529 151Z"/><glyph unicode="ŋ" horiz-adv-x="1249" d="M1105 560V-164Q1105 -426 918 -426Q846 -426 761 -392V-266Q814 -295 862 -295Q902 -295 926 -274T958 -226T966 -123V519Q966 708 945 793T856 932T676 987Q580 987 504 943T378 825T312 673T296 399V0H156V1088H296V893Q464 1116 703 1116Q844 1116 942 1039T1073 855T1105 560Z"/><glyph unicode="Ō" horiz-adv-x="1780" d="M880 1508Q1214 1508 1439 1285T1664 736Q1664 413 1440 188T892 -37Q565 -37 340 187T115 729Q115 941 217 1122T497 1405T880 1508ZM887 1364Q724 1364 578 1279T350 1050T268 729Q268 467 449 287T887 106Q1058 106 1203 189T1430 416T1512 736Q1512 911 1431 1052T1201 1279T887 1364ZM545 1777H1235V1658H545V1777Z"/><glyph unicode="ō" horiz-adv-x="1341" d="M671 1116Q922 1116 1087 934Q1237 768 1237 541Q1237 313 1079 143T671 -28Q421 -28 263 142T104 541Q104 767 254 933Q419 1116 671 1116ZM671 979Q497 979 372 850T247 538Q247 420 304 318T458 161T671 105Q787 105 884 160T1038 318T1095 538Q1095 721 970 850T671 979ZM326 1479H1016V1360H326V1479Z"/><glyph unicode="Ŏ" horiz-adv-x="1780" d="M880 1508Q1214 1508 1439 1285T1664 736Q1664 413 1440 188T892 -37Q565 -37 340 187T115 729Q115 941 217 1122T497 1405T880 1508ZM887 1364Q724 1364 578 1279T350 1050T268 729Q268 467 449 287T887 106Q1058 106 1203 189T1430 416T1512 736Q1512 911 1431 1052T1201 1279T887 1364ZM535 1823H667Q701 1771 758 1745T894 1719Q974 1719 1023 1742T1116 1823H1244Q1222 1733 1132 1673T893 1612Q746 1612 653 1671T535 1823Z"/><glyph unicode="ŏ" horiz-adv-x="1341" d="M671 1116Q922 1116 1087 934Q1237 768 1237 541Q1237 313 1079 143T671 -28Q421 -28 263 142T104 541Q104 767 254 933Q419 1116 671 1116ZM671 979Q497 979 372 850T247 538Q247 420 304 318T458 161T671 105Q787 105 884 160T1038 318T1095 538Q1095 721 970 850T671 979ZM316 1525H448Q482 1473 539 1447T675 1421Q755 1421 804 1444T897 1525H1025Q1003 1435 913 1375T674 1314Q527 1314 434 1373T316 1525Z"/><glyph unicode="Ő" horiz-adv-x="1780" d="M880 1508Q1214 1508 1439 1285T1664 736Q1664 413 1440 188T892 -37Q565 -37 340 187T115 729Q115 941 217 1122T497 1405T880 1508ZM887 1364Q724 1364 578 1279T350 1050T268 729Q268 467 449 287T887 106Q1058 106 1203 189T1430 416T1512 736Q1512 911 1431 1052T1201 1279T887 1364ZM850 1896H1065L770 1588H632L850 1896ZM1166 1896H1381L1086 1588H948L1166 1896Z"/><glyph unicode="ő" horiz-adv-x="1341" d="M671 1116Q922 1116 1087 934Q1237 768 1237 541Q1237 313 1079 143T671 -28Q421 -28 263 142T104 541Q104 767 254 933Q419 1116 671 1116ZM671 979Q497 979 372 850T247 538Q247 420 304 318T458 161T671 105Q787 105 884 160T1038 318T1095 538Q1095 721 970 850T671 979ZM648 1598H863L568 1290H430L648 1598ZM964 1598H1179L884 1290H746L964 1598Z"/><glyph unicode="Œ" horiz-adv-x="2445" d="M1522 1471H2360V1326H1671V869H2360V724H1671V145H2360V0H1522V285Q1423 159 1334 95T1135 -3T894 -37Q525 -37 296 236Q114 453 114 728Q114 936 216 1118T504 1404T896 1508Q1094 1508 1274 1405Q1417 1323 1522 1186V1471ZM891 1366Q644 1366 459 1179T273 740Q273 475 456 291T903 106Q1158 106 1339 290T1520 737Q1520 908 1437 1051T1204 1280T891 1366Z"/><glyph unicode="œ" horiz-adv-x="2329" d="M2214 531H1238Q1252 308 1377 205T1663 101Q1793 101 1897 168T2061 361L2180 300Q2086 127 1959 50T1654 -28Q1556 -28 1466 2T1311 83T1166 247Q1075 110 953 41T677 -28Q442 -28 277 140T112 550Q112 820 318 987Q477 1116 678 1116Q841 1116 977 1028Q1076 965 1166 828Q1250 961 1344 1024Q1480 1116 1657 1116Q1890 1116 2052 955T2215 567L2214 531ZM672 981Q561 981 463 924T308 762T251 542Q251 424 307 322T467 161T681 101Q791 101 891 159T1045 316T1099 537Q1099 725 975 853T672 981ZM2061 651Q2020 809 1912 894T1658 980Q1501 980 1383 880Q1292 803 1251 651H2061Z"/><glyph unicode="Ŕ" horiz-adv-x="1243" d="M187 1471H480Q725 1471 812 1451Q943 1421 1025 1323T1107 1080Q1107 960 1051 869T889 732T599 684L1128 0H946L418 684H334V0H187V1471ZM334 1327V827L587 825Q734 825 804 853T914 942T954 1080Q954 1154 914 1214T809 1301T593 1327H334ZM725 1895H940L645 1587H507L725 1895Z"/><glyph unicode="ŕ" horiz-adv-x="616" d="M103 1088H246V929Q310 1023 381 1069T529 1116Q587 1116 653 1079L580 961Q536 980 506 980Q436 980 371 923T272 744Q246 651 246 368V0H103V1088ZM678 1598H893L598 1290H460L678 1598Z"/><glyph unicode="Ŗ" horiz-adv-x="1243" d="M187 1471H480Q725 1471 812 1451Q943 1421 1025 1323T1107 1080Q1107 960 1051 869T889 732T599 684L1128 0H946L418 684H334V0H187V1471ZM334 1327V827L587 825Q734 825 804 853T914 942T954 1080Q954 1154 914 1214T809 1301T593 1327H334ZM504 -127Q550 -112 599 -112Q756 -112 756 -222Q756 -291 694 -335T526 -380Q464 -380 381 -358L403 -287Q471 -301 507 -301Q637 -301 637 -236Q637 -193 564 -193Q537 -193 492 -206L504 -127Z"/><glyph unicode="ŗ" horiz-adv-x="616" d="M103 1088H246V929Q310 1023 381 1069T529 1116Q587 1116 653 1079L580 961Q536 980 506 980Q436 980 371 923T272 744Q246 651 246 368V0H103V1088ZM452 -127Q498 -112 547 -112Q704 -112 704 -222Q704 -291 642 -335T474 -380Q412 -380 329 -358L351 -287Q419 -301 455 -301Q585 -301 585 -236Q585 -193 512 -193Q485 -193 440 -206L452 -127Z"/><glyph unicode="Ř" horiz-adv-x="1243" d="M187 1471H480Q725 1471 812 1451Q943 1421 1025 1323T1107 1080Q1107 960 1051 869T889 732T599 684L1128 0H946L418 684H334V0H187V1471ZM334 1327V827L587 825Q734 825 804 853T914 942T954 1080Q954 1154 914 1214T809 1301T593 1327H334ZM653 1582H514L224 1839H404L581 1687L764 1839H950L653 1582Z"/><glyph unicode="ř" horiz-adv-x="616" d="M103 1088H246V929Q310 1023 381 1069T529 1116Q587 1116 653 1079L580 961Q536 980 506 980Q436 980 371 923T272 744Q246 651 246 368V0H103V1088ZM398 1285H259L-31 1542H149L326 1390L509 1542H695L398 1285Z"/><glyph unicode="Ś" horiz-adv-x="1020" d="M27 274L152 349Q284 106 457 106Q531 106 596 140T695 233T729 356Q729 430 679 501Q610 599 427 737Q243 876 198 938Q120 1042 120 1163Q120 1259 166 1338T295 1462T477 1508Q581 1508 671 1457T863 1267L743 1176Q660 1286 602 1321T474 1356Q385 1356 329 1302T272 1169Q272 1121 292 1076T365 978Q394 950 555 831Q746 690 817 580T888 359Q888 199 767 81T471 -37Q337 -37 228 34T27 274ZM552 1895H767L472 1587H334L552 1895Z"/><glyph unicode="ś" horiz-adv-x="795" d="M703 969L613 876Q501 985 394 985Q326 985 278 940T229 835Q229 782 269 734Q309 685 437 619Q593 538 649 463Q704 387 704 292Q704 158 610 65T375 -28Q281 -28 196 13T54 126L142 226Q249 105 369 105Q453 105 512 159T571 286Q571 346 532 393Q493 439 356 509Q209 585 156 659Q103 733 103 828Q103 952 187 1034T401 1116Q551 1116 703 969ZM658 1598H873L578 1290H440L658 1598Z"/><glyph unicode="Ŝ" horiz-adv-x="1020" d="M27 274L152 349Q284 106 457 106Q531 106 596 140T695 233T729 356Q729 430 679 501Q610 599 427 737Q243 876 198 938Q120 1042 120 1163Q120 1259 166 1338T295 1462T477 1508Q581 1508 671 1457T863 1267L743 1176Q660 1286 602 1321T474 1356Q385 1356 329 1302T272 1169Q272 1121 292 1076T365 978Q394 950 555 831Q746 690 817 580T888 359Q888 199 767 81T471 -37Q337 -37 228 34T27 274ZM444 1840H583L873 1583H693L517 1735L333 1583H147L444 1840Z"/><glyph unicode="ŝ" horiz-adv-x="795" d="M703 969L613 876Q501 985 394 985Q326 985 278 940T229 835Q229 782 269 734Q309 685 437 619Q593 538 649 463Q704 387 704 292Q704 158 610 65T375 -28Q281 -28 196 13T54 126L142 226Q249 105 369 105Q453 105 512 159T571 286Q571 346 532 393Q493 439 356 509Q209 585 156 659Q103 733 103 828Q103 952 187 1034T401 1116Q551 1116 703 969ZM588 1542H727L1017 1285H837L661 1437L477 1285H291L588 1542Z"/><glyph unicode="Ş" horiz-adv-x="1020" d="M27 274L152 349Q284 106 457 106Q531 106 596 140T695 233T729 356Q729 430 679 501Q610 599 427 737Q243 876 198 938Q120 1042 120 1163Q120 1259 166 1338T295 1462T477 1508Q581 1508 671 1457T863 1267L743 1176Q660 1286 602 1321T474 1356Q385 1356 329 1302T272 1169Q272 1121 292 1076T365 978Q394 950 555 831Q746 690 817 580T888 359Q888 199 767 81T471 -37Q337 -37 228 34T27 274ZM429 0H517L500 -118Q523 -115 538 -115Q587 -115 620 -145T653 -222Q653 -288 593 -334T424 -380Q335 -380 257 -350L279 -281Q343 -301 399 -301Q474 -301 504 -283T534 -236Q534 -219 518 -206T472 -193Q448 -193 402 -202L429 0Z"/><glyph unicode="ş" horiz-adv-x="795" d="M703 969L613 876Q501 985 394 985Q326 985 278 940T229 835Q229 782 269 734Q309 685 437 619Q593 538 649 463Q704 387 704 292Q704 158 610 65T375 -28Q281 -28 196 13T54 126L142 226Q249 105 369 105Q453 105 512 159T571 286Q571 346 532 393Q493 439 356 509Q209 585 156 659Q103 733 103 828Q103 952 187 1034T401 1116Q551 1116 703 969ZM340 0H428L411 -118Q434 -115 449 -115Q498 -115 531 -145T564 -222Q564 -288 504 -334T335 -380Q246 -380 168 -350L190 -281Q254 -301 310 -301Q385 -301 415 -283T445 -236Q445 -219 429 -206T383 -193Q359 -193 313 -202L340 0Z"/><glyph unicode="Š" horiz-adv-x="1020" d="M27 274L152 349Q284 106 457 106Q531 106 596 140T695 233T729 356Q729 430 679 501Q610 599 427 737Q243 876 198 938Q120 1042 120 1163Q120 1259 166 1338T295 1462T477 1508Q581 1508 671 1457T863 1267L743 1176Q660 1286 602 1321T474 1356Q385 1356 329 1302T272 1169Q272 1121 292 1076T365 978Q394 950 555 831Q746 690 817 580T888 359Q888 199 767 81T471 -37Q337 -37 228 34T27 274ZM576 1583H437L147 1840H327L504 1688L687 1840H873L576 1583Z"/><glyph unicode="š" horiz-adv-x="795" d="M703 969L613 876Q501 985 394 985Q326 985 278 940T229 835Q229 782 269 734Q309 685 437 619Q593 538 649 463Q704 387 704 292Q704 158 610 65T375 -28Q281 -28 196 13T54 126L142 226Q249 105 369 105Q453 105 512 159T571 286Q571 346 532 393Q493 439 356 509Q209 585 156 659Q103 733 103 828Q103 952 187 1034T401 1116Q551 1116 703 969ZM719 1285H580L290 1542H470L647 1390L830 1542H1016L719 1285Z"/><glyph unicode="Ţ" horiz-adv-x="872" d="M33 1328V1471H840V1328H512V0H362V1328H33ZM471 -427L406 -400Q438 -328 441 -275H358V-121H515V-172Q515 -339 471 -427Z"/><glyph unicode="ţ" horiz-adv-x="694" d="M278 1492H419V1088H641V968H419V0H278V968H87V1088H278V1492ZM382 -427L317 -400Q349 -328 351 -275H269V-121H425V-172Q425 -339 382 -427Z"/><glyph unicode="Ť" horiz-adv-x="872" d="M33 1328V1471H840V1328H512V0H362V1328H33ZM520 1578H381L91 1835H271L448 1683L631 1835H817L520 1578Z"/><glyph unicode="ť" horiz-adv-x="694" d="M592 1163L533 1189Q586 1272 589 1344H521V1508H659V1405Q659 1320 648 1276T592 1163ZM278 1492H419V1088H641V968H419V0H278V968H87V1088H278V1492Z"/><glyph unicode="Ŧ" horiz-adv-x="872" d="M512 777H792V639H512V0H362V639H81V777H362V1328H33V1471H840V1328H512V777Z"/><glyph unicode="ŧ" horiz-adv-x="694" d="M419 607H665V491H419V0H279V491H63V607H279V968H87V1088H279V1492H419V1088H641V968H419V607Z"/><glyph unicode="Ũ" horiz-adv-x="1341" d="M184 1471H331V583Q331 425 337 386Q348 299 388 241T511 143T678 103Q751 103 818 134T930 220T996 353Q1011 409 1011 583V1471H1158V583Q1158 386 1120 265T966 53T686 -37Q508 -37 381 48T211 273Q184 359 184 583V1471ZM975 1789L1045 1692Q973 1640 924 1622T819 1604Q747 1604 671 1641Q606 1673 588 1678Q564 1685 536 1685Q501 1685 470 1673T378 1616L312 1718Q403 1815 537 1815Q601 1815 690 1775Q775 1736 824 1736Q879 1736 975 1789Z"/><glyph unicode="ũ" horiz-adv-x="1245" d="M138 1088H279V580Q279 394 299 324Q329 224 413 166T615 108Q732 108 813 164T926 313Q947 376 947 580V1088H1090V554Q1090 329 1038 215T880 37T615 -28Q456 -28 350 36T191 216T138 564V1088ZM919 1492L989 1395Q917 1343 868 1325T763 1307Q691 1307 615 1344Q550 1376 532 1381Q508 1388 480 1388Q445 1388 414 1376T322 1319L256 1421Q347 1518 481 1518Q545 1518 634 1478Q719 1439 768 1439Q823 1439 919 1492Z"/><glyph unicode="Ū" horiz-adv-x="1341" d="M184 1471H331V583Q331 425 337 386Q348 299 388 241T511 143T678 103Q751 103 818 134T930 220T996 353Q1011 409 1011 583V1471H1158V583Q1158 386 1120 265T966 53T686 -37Q508 -37 381 48T211 273Q184 359 184 583V1471ZM325 1777H1015V1658H325V1777Z"/><glyph unicode="ū" horiz-adv-x="1245" d="M138 1088H279V580Q279 394 299 324Q329 224 413 166T615 108Q732 108 813 164T926 313Q947 376 947 580V1088H1090V554Q1090 329 1038 215T880 37T615 -28Q456 -28 350 36T191 216T138 564V1088ZM277 1479H967V1360H277V1479Z"/><glyph unicode="Ŭ" horiz-adv-x="1341" d="M184 1471H331V583Q331 425 337 386Q348 299 388 241T511 143T678 103Q751 103 818 134T930 220T996 353Q1011 409 1011 583V1471H1158V583Q1158 386 1120 265T966 53T686 -37Q508 -37 381 48T211 273Q184 359 184 583V1471ZM316 1823H448Q482 1771 539 1745T675 1719Q755 1719 804 1742T897 1823H1025Q1003 1733 913 1673T674 1612Q527 1612 434 1671T316 1823Z"/><glyph unicode="ŭ" horiz-adv-x="1245" d="M138 1088H279V580Q279 394 299 324Q329 224 413 166T615 108Q732 108 813 164T926 313Q947 376 947 580V1088H1090V554Q1090 329 1038 215T880 37T615 -28Q456 -28 350 36T191 216T138 564V1088ZM268 1525H400Q434 1473 491 1447T627 1421Q707 1421 756 1444T849 1525H977Q955 1435 865 1375T626 1314Q479 1314 386 1373T268 1525Z"/><glyph unicode="Ů" horiz-adv-x="1341" d="M184 1471H331V583Q331 425 337 386Q348 299 388 241T511 143T678 103Q751 103 818 134T930 220T996 353Q1011 409 1011 583V1471H1158V583Q1158 386 1120 265T966 53T686 -37Q508 -37 381 48T211 273Q184 359 184 583V1471ZM633 1989Q721 1989 783 1927T846 1775Q846 1687 784 1625T633 1562Q545 1562 483 1624T420 1775Q420 1864 482 1926T633 1989ZM632 1888Q586 1888 554 1856T522 1778Q522 1733 554 1701T632 1668Q677 1668 709 1700T741 1778Q741 1823 709 1855T632 1888Z"/><glyph unicode="ů" horiz-adv-x="1245" d="M138 1088H279V580Q279 394 299 324Q329 224 413 166T615 108Q732 108 813 164T926 313Q947 376 947 580V1088H1090V554Q1090 329 1038 215T880 37T615 -28Q456 -28 350 36T191 216T138 564V1088ZM584 1691Q672 1691 734 1629T797 1477Q797 1389 735 1327T584 1264Q496 1264 434 1326T371 1477Q371 1566 433 1628T584 1691ZM583 1590Q537 1590 505 1558T473 1480Q473 1435 505 1403T583 1370Q628 1370 660 1402T692 1480Q692 1525 660 1557T583 1590Z"/><glyph unicode="Ű" horiz-adv-x="1341" d="M184 1471H331V583Q331 425 337 386Q348 299 388 241T511 143T678 103Q751 103 818 134T930 220T996 353Q1011 409 1011 583V1471H1158V583Q1158 386 1120 265T966 53T686 -37Q508 -37 381 48T211 273Q184 359 184 583V1471ZM648 1896H863L568 1588H430L648 1896ZM964 1896H1179L884 1588H746L964 1896Z"/><glyph unicode="ű" horiz-adv-x="1245" d="M138 1088H279V580Q279 394 299 324Q329 224 413 166T615 108Q732 108 813 164T926 313Q947 376 947 580V1088H1090V554Q1090 329 1038 215T880 37T615 -28Q456 -28 350 36T191 216T138 564V1088ZM599 1598H814L519 1290H381L599 1598ZM915 1598H1130L835 1290H697L915 1598Z"/><glyph unicode="Ų" horiz-adv-x="1341" d="M184 1471H331V583Q331 425 337 386Q348 299 388 241T511 143T678 103Q751 103 818 134T930 220T996 353Q1011 409 1011 583V1471H1158V583Q1158 386 1120 265T966 53T686 -37Q508 -37 381 48T211 273Q184 359 184 583V1471ZM680 0H789Q668 -103 668 -193Q668 -239 705 -271T814 -303Q843 -303 883 -298L874 -383Q832 -393 789 -393Q678 -393 620 -340T561 -213Q561 -83 680 0Z"/><glyph unicode="ų" horiz-adv-x="1245" d="M138 1088H279V580Q279 394 299 324Q329 224 413 166T615 108Q732 108 813 164T926 313Q947 376 947 580V1088H1090V554Q1090 329 1038 215T880 37T615 -28Q456 -28 350 36T191 216T138 564V1088ZM601 0H710Q589 -103 589 -193Q589 -239 626 -271T735 -303Q764 -303 804 -298L795 -383Q753 -393 710 -393Q599 -393 541 -340T482 -213Q482 -83 601 0Z"/><glyph unicode="Ŵ" horiz-adv-x="1966" d="M96 1471H247L546 411L968 1471H998L1415 411L1720 1471H1870L1448 0H1420L984 1113L539 0H511L96 1471ZM917 1840H1056L1346 1583H1166L990 1735L806 1583H620L917 1840Z"/><glyph unicode="ŵ" horiz-adv-x="1702" d="M9 1088H153L486 298L835 1088H860L1208 298L1547 1088H1693L1221 0H1194L848 779L499 0H473L9 1088ZM785 1542H924L1214 1285H1034L858 1437L674 1285H488L785 1542Z"/><glyph unicode="Ŷ" horiz-adv-x="1212" d="M63 1471H233L609 865L979 1471H1149L683 703V0H538V703L63 1471ZM540 1840H679L969 1583H789L613 1735L429 1583H243L540 1840Z"/><glyph unicode="ŷ" horiz-adv-x="1098" d="M39 1088H187L561 250L924 1088H1073L424 -398H276L486 82L39 1088ZM483 1542H622L912 1285H732L556 1437L372 1285H186L483 1542Z"/><glyph unicode="Ÿ" horiz-adv-x="1212" d="M63 1471H233L609 865L979 1471H1149L683 703V0H538V703L63 1471ZM402 1816Q450 1816 484 1782T518 1700Q518 1652 484 1618T402 1584Q354 1584 320 1618T286 1700Q286 1748 320 1782T402 1816ZM810 1816Q858 1816 892 1782T926 1700Q926 1652 892 1618T810 1584Q762 1584 728 1618T694 1700Q694 1748 728 1782T810 1816Z"/><glyph unicode="Ź" horiz-adv-x="983" d="M122 1329V1471H898L283 143H867V0H56L675 1329H122ZM527 1895H742L447 1587H309L527 1895Z"/><glyph unicode="ź" horiz-adv-x="870" d="M67 1088H866L250 124H846V0H9L625 965H67V1088ZM532 1598H747L452 1290H314L532 1598Z"/><glyph unicode="Ż" horiz-adv-x="983" d="M122 1329V1471H898L283 143H867V0H56L675 1329H122ZM453 1815Q501 1815 535 1781T569 1699Q569 1651 535 1617T453 1583Q405 1583 371 1617T337 1699Q337 1747 371 1781T453 1815Z"/><glyph unicode="ż" horiz-adv-x="870" d="M67 1088H866L250 124H846V0H9L625 965H67V1088ZM403 1518Q451 1518 485 1484T519 1402Q519 1354 485 1320T403 1286Q355 1286 321 1320T287 1402Q287 1450 321 1484T403 1518Z"/><glyph unicode="Ž" horiz-adv-x="983" d="M122 1329V1471H898L283 143H867V0H56L675 1329H122ZM558 1583H419L129 1840H309L486 1688L669 1840H855L558 1583Z"/><glyph unicode="ž" horiz-adv-x="870" d="M67 1088H866L250 124H846V0H9L625 965H67V1088ZM757 1285H618L328 1542H508L685 1390L868 1542H1054L757 1285Z"/><glyph unicode="ſ" horiz-adv-x="410" d="M517 1508V1371Q443 1404 385 1404Q341 1404 312 1384T279 1334T275 1235V0H135V1198Q135 1349 148 1402T215 1496T354 1536Q426 1536 517 1508Z"/><glyph unicode="ƒ" horiz-adv-x="1135" d="M621 882H852L835 760H602L495 50Q466 -146 421 -241T311 -381T174 -426Q106 -426 32 -377L50 -253Q105 -298 161 -298Q232 -298 283 -225T367 71L468 760H327L344 882H485L534 1201Q562 1385 599 1440Q665 1536 765 1536Q848 1536 942 1471L924 1338Q847 1411 785 1411Q736 1411 710 1366T663 1176L621 882Z"/><glyph unicode="Ǻ" horiz-adv-x="1515" d="M780 1471L1466 0H1308L1077 484H443L213 0H49L744 1471H780ZM762 1159L509 626H1012L762 1159ZM762 1822Q850 1822 912 1760T975 1608Q975 1520 913 1458T762 1395Q674 1395 612 1457T549 1608Q549 1697 611 1759T762 1822ZM761 1721Q715 1721 683 1689T651 1611Q651 1566 683 1534T761 1501Q806 1501 838 1533T870 1611Q870 1656 838 1688T761 1721ZM800 2170H1015L720 1862H582L800 2170Z"/><glyph unicode="ǻ" horiz-adv-x="1399" d="M1240 1088V0H1102V187Q1014 80 905 26T665 -28Q434 -28 271 139T107 547Q107 782 272 949T669 1116Q803 1116 911 1059T1102 888V1088H1240ZM680 981Q563 981 464 924T307 762T248 542Q248 427 307 322T465 159T679 100Q794 100 897 158T1055 315T1111 538Q1111 727 987 854T680 981ZM701 1650Q789 1650 851 1588T914 1436Q914 1348 852 1286T701 1223Q613 1223 551 1285T488 1436Q488 1525 550 1587T701 1650ZM700 1549Q654 1549 622 1517T590 1439Q590 1394 622 1362T700 1329Q745 1329 777 1361T809 1439Q809 1484 777 1516T700 1549ZM745 1998H960L665 1690H527L745 1998Z"/><glyph unicode="Ǽ" horiz-adv-x="2032" d="M1 0L951 1471H1861V1320H1168V868H1861V723H1168V144H1861V0H1019V482H484L172 0H1ZM578 620H1019V1301L578 620ZM1299 1895H1514L1219 1587H1081L1299 1895Z"/><glyph unicode="ǽ" horiz-adv-x="2370" d="M1245 1088V891Q1351 1018 1450 1067T1682 1116Q1928 1116 2088 952T2248 530H1269Q1273 414 1331 311T1484 154T1696 100Q1821 100 1920 161T2093 357L2213 297Q2139 142 2000 57T1686 -28Q1532 -28 1411 41Q1324 90 1245 194V0H1117V201Q1028 90 944 42Q824 -28 681 -28Q450 -28 285 139T120 548Q120 704 194 833T399 1039T677 1116Q818 1116 941 1047Q1028 997 1117 890V1088H1245ZM2093 651Q2065 765 2012 832T1871 940T1690 982Q1595 982 1506 940T1359 827T1277 651H2093ZM687 981Q573 981 474 924T319 767T263 544Q263 356 387 231T692 105Q873 105 996 229T1120 542Q1120 673 1067 770T911 924T687 981ZM1252 1598H1467L1172 1290H1034L1252 1598Z"/><glyph unicode="Ǿ" horiz-adv-x="1778" d="M1454 1269Q1554 1167 1608 1031T1663 736Q1663 413 1439 188T891 -37Q646 -37 454 91L290 -103L183 -16L348 178Q114 405 114 729Q114 941 217 1122T498 1406T889 1508Q1146 1508 1356 1360L1500 1534L1605 1447L1454 1269ZM444 291L1255 1245Q1086 1364 886 1364Q723 1364 577 1279T349 1050T267 728Q267 473 444 291ZM1356 1153L551 204Q703 106 886 106Q1057 106 1202 189T1429 416T1511 736Q1511 980 1356 1153ZM957 1896H1172L877 1588H739L957 1896Z"/><glyph unicode="ǿ" horiz-adv-x="1337" d="M1102 913Q1235 752 1235 541Q1235 313 1077 143T669 -28Q505 -28 370 54L254 -83L165 -9L279 125Q102 296 102 541Q102 769 260 942T668 1116Q869 1116 1019 996L1135 1133L1227 1059L1102 913ZM367 229L927 887Q809 979 669 979Q558 979 460 921T303 759T245 538Q245 452 277 370T367 229ZM1007 802L459 158Q562 105 668 105Q784 105 881 160T1036 318T1093 537Q1093 681 1007 802ZM730 1598H945L650 1290H512L730 1598Z"/><glyph unicode="ˆ" horiz-adv-x="1028" d="M448 1542H587L877 1285H697L521 1437L337 1285H151L448 1542Z"/><glyph unicode="ˇ" horiz-adv-x="1028" d="M580 1285H441L151 1542H331L508 1390L691 1542H877L580 1285Z"/><glyph unicode="ˉ" horiz-adv-x="993" d="M152 1479H842V1360H152V1479Z"/><glyph unicode="˘" horiz-adv-x="928" d="M110 1525H242Q276 1473 333 1447T469 1421Q549 1421 598 1444T691 1525H819Q797 1435 707 1375T468 1314Q321 1314 228 1373T110 1525Z"/><glyph unicode="˙" horiz-adv-x="455" d="M228 1518Q276 1518 310 1484T344 1402Q344 1354 310 1320T228 1286Q180 1286 146 1320T112 1402Q112 1450 146 1484T228 1518Z"/><glyph unicode="˚" horiz-adv-x="680" d="M340 1691Q428 1691 490 1629T553 1477Q553 1389 491 1327T340 1264Q252 1264 190 1326T127 1477Q127 1566 189 1628T340 1691ZM339 1590Q293 1590 261 1558T229 1480Q229 1435 261 1403T339 1370Q384 1370 416 1402T448 1480Q448 1525 416 1557T339 1590Z"/><glyph unicode="˛" horiz-adv-x="618" d="M309 0H418Q297 -103 297 -193Q297 -239 334 -271T443 -303Q472 -303 512 -298L503 -383Q461 -393 418 -393Q307 -393 249 -340T190 -213Q190 -83 309 0Z"/><glyph unicode="˜" horiz-adv-x="899" d="M746 1492L816 1395Q744 1343 695 1325T590 1307Q518 1307 442 1344Q377 1376 359 1381Q335 1388 307 1388Q272 1388 241 1376T149 1319L83 1421Q174 1518 308 1518Q372 1518 461 1478Q546 1439 595 1439Q650 1439 746 1492Z"/><glyph unicode="˝" horiz-adv-x="1130" d="M475 1598H690L395 1290H257L475 1598ZM791 1598H1006L711 1290H573L791 1598Z"/><glyph unicode=";" horiz-adv-x="567" d="M310 1116Q361 1116 397 1080T433 992Q433 940 397 904T310 868Q259 868 223 904T187 992Q187 1043 223 1079T310 1116ZM295 270L430 206L227 -172L128 -130L295 270Z"/><glyph unicode="΄" horiz-adv-x="774" d="M474 1598L446 1260H328L299 1598H474Z"/><glyph unicode="΅" horiz-adv-x="774" d="M474 1598L446 1260H328L299 1598H474ZM633 1291Q596 1291 570 1317T544 1380Q544 1418 570 1443T633 1469Q670 1469 695 1443T721 1380Q721 1343 696 1317T633 1291ZM141 1291Q104 1291 78 1317T52 1380Q52 1417 78 1443T141 1469Q178 1469 204 1444T230 1380Q230 1343 204 1317T141 1291Z"/><glyph unicode="Ά" horiz-adv-x="1515" d="M780 1471L1466 0H1308L1077 484H443L213 0H49L744 1471H780ZM762 1159L509 626H1012L762 1159ZM680 1764L652 1426H534L505 1764H680Z"/><glyph unicode="·" horiz-adv-x="567" d="M433 992Q433 940 398 904T310 868Q258 868 223 904T187 992Q187 1044 222 1080T310 1116Q362 1116 397 1080T433 992Z"/><glyph unicode="Έ" horiz-adv-x="1188" d="M270 1471H1113V1326H417V866H1107V722H417V145H1107V0H270V1471ZM75 1508L47 1170H-71L-100 1508H75Z"/><glyph unicode="Ή" horiz-adv-x="1489" d="M267 1471H415V854H1163V1471H1311V0H1163V710H415V0H267V1471ZM75 1508L47 1170H-71L-100 1508H75Z"/><glyph unicode="Ί" horiz-adv-x="553" d="M248 1471H395V0H248V1471ZM75 1508L47 1170H-71L-100 1508H75Z"/><glyph unicode="Ό" horiz-adv-x="1780" d="M880 1508Q1214 1508 1439 1285T1664 736Q1664 413 1440 188T892 -37Q565 -37 340 187T115 729Q115 941 217 1122T497 1405T880 1508ZM887 1364Q724 1364 578 1279T350 1050T268 729Q268 467 449 287T887 106Q1058 106 1203 189T1430 416T1512 736Q1512 911 1431 1052T1201 1279T887 1364ZM75 1508L47 1170H-71L-100 1508H75Z"/><glyph unicode="Ύ" horiz-adv-x="1322" d="M173 1471H343L719 865L1089 1471H1259L793 703V0H648V703L173 1471ZM75 1508L47 1170H-71L-100 1508H75Z"/><glyph unicode="Ώ" horiz-adv-x="1713" d="M1103 138H1536V0H975V196Q1273 390 1352 529T1431 821Q1431 1069 1272 1216T857 1363Q601 1363 442 1216T282 821Q282 669 357 533T738 196V0H177V138H610Q319 319 225 476T130 823Q130 1128 335 1317T857 1507Q1174 1507 1378 1318T1583 823Q1583 633 1489 476T1103 138ZM75 1508L47 1170H-71L-100 1508H75Z"/><glyph unicode="ΐ" horiz-adv-x="410" d="M135 1088H276V0H135V1088ZM293 1598L265 1260H147L118 1598H293ZM452 1291Q415 1291 389 1317T363 1380Q363 1418 389 1443T452 1469Q489 1469 514 1443T540 1380Q540 1343 515 1317T452 1291ZM-40 1291Q-77 1291 -103 1317T-129 1380Q-129 1417 -103 1443T-40 1469Q-3 1469 23 1444T49 1380Q49 1343 23 1317T-40 1291Z"/><glyph unicode="Α" horiz-adv-x="1515" d="M780 1471L1466 0H1308L1077 484H443L213 0H49L744 1471H780ZM762 1159L509 626H1012L762 1159Z"/><glyph unicode="Β" horiz-adv-x="1176" d="M183 1471H473Q648 1471 742 1430T890 1302T945 1111Q945 1013 897 933T756 802Q871 763 933 711T1029 584T1064 422Q1064 245 935 123T587 0H183V1471ZM327 1327V856H411Q564 856 636 884T750 974T792 1111Q792 1212 722 1269T497 1327H327ZM327 708V144H509Q670 144 745 175T865 274T911 419Q911 517 847 590T671 690Q596 708 410 708H327Z"/><glyph unicode="Γ" horiz-adv-x="946" d="M914 1326H323V0H177V1471H914V1326Z"/><glyph unicode="Δ" horiz-adv-x="1515" d="M1466 0H49L744 1471H780L1466 0ZM1239 145L762 1159L281 145H1239Z"/><glyph unicode="Ε" horiz-adv-x="1098" d="M180 1471H1023V1326H327V866H1017V722H327V145H1017V0H180V1471Z"/><glyph unicode="Ζ" horiz-adv-x="983" d="M122 1329V1471H898L283 143H867V0H56L675 1329H122Z"/><glyph unicode="Η" horiz-adv-x="1399" d="M177 1471H325V854H1073V1471H1221V0H1073V710H325V0H177V1471Z"/><glyph unicode="Θ" horiz-adv-x="1780" d="M892 -37Q566 -37 341 184T115 729Q115 1055 338 1281T880 1508Q1213 1508 1438 1288T1664 736Q1664 411 1441 187T892 -37ZM887 1364Q639 1364 454 1184T268 729Q268 468 447 287T887 106Q1148 106 1330 285T1512 736Q1512 1027 1318 1195T887 1364ZM1258 672H521V816H1258V672Z"/><glyph unicode="Ι" horiz-adv-x="463" d="M158 1471H305V0H158V1471Z"/><glyph unicode="Κ" horiz-adv-x="1210" d="M179 1471H329V919L916 1471H1115L408 811L1170 0H975L329 686V0H179V1471Z"/><glyph unicode="Λ" horiz-adv-x="1438" d="M1370 0H1210L723 1137L227 0H67L707 1471H739L1370 0Z"/><glyph unicode="Μ" horiz-adv-x="1882" d="M112 0L321 1471H345L943 264L1535 1471H1559L1770 0H1625L1481 1052L961 0H924L397 1060L254 0H112Z"/><glyph unicode="Ν" horiz-adv-x="1515" d="M180 0V1471H212L1190 345V1471H1335V0H1302L332 1112V0H180Z"/><glyph unicode="Ξ" horiz-adv-x="1087" d="M972 1326H115V1471H972V1326ZM972 722H115V866H972V722ZM972 0H115V145H972V0Z"/><glyph unicode="Ο" horiz-adv-x="1780" d="M880 1508Q1214 1508 1439 1285T1664 736Q1664 413 1440 188T892 -37Q565 -37 340 187T115 729Q115 941 217 1122T497 1405T880 1508ZM887 1364Q724 1364 578 1279T350 1050T268 729Q268 467 449 287T887 106Q1058 106 1203 189T1430 416T1512 736Q1512 911 1431 1052T1201 1279T887 1364Z"/><glyph unicode="Π" horiz-adv-x="1399" d="M1221 0H1073V1331H325V0H177V1471H1221V0Z"/><glyph unicode="Ρ" horiz-adv-x="1212" d="M178 1471H471Q723 1471 811 1449Q937 1418 1017 1322T1097 1079Q1097 932 1019 837T804 708Q704 684 430 684H325V0H178V1471ZM325 1328V828L574 825Q725 825 795 852T905 941T945 1079Q945 1153 905 1214T800 1302T585 1328H325Z"/><glyph unicode="Σ" horiz-adv-x="1027" d="M927 0H66L477 734L72 1471H912V1329H312L642 733L309 143H927V0Z"/><glyph unicode="Τ" horiz-adv-x="872" d="M33 1328V1471H840V1328H512V0H362V1328H33Z"/><glyph unicode="Υ" horiz-adv-x="1212" d="M63 1471H233L609 865L979 1471H1149L683 703V0H538V703L63 1471Z"/><glyph unicode="Φ" horiz-adv-x="1760" d="M954 145V0H806V145Q482 166 291 324T100 744Q100 1004 293 1165T806 1345V1471H954V1345Q1278 1324 1469 1166T1660 746Q1660 486 1467 325T954 145ZM954 1209V282Q1191 297 1349 406T1508 746Q1508 951 1362 1071T954 1209ZM806 282V1209Q569 1194 411 1085T252 745Q252 540 398 420T806 282Z"/><glyph unicode="Χ" horiz-adv-x="1247" d="M101 1471H273L625 897L980 1471H1150L712 758L1179 0H1007L625 617L241 0H69L538 758L101 1471Z"/><glyph unicode="Ψ" horiz-adv-x="1620" d="M1480 964Q1480 758 1421 639T1222 444T884 359V0H736V359Q551 369 422 430T217 608T140 975V1471H291V1023Q291 841 319 746T455 583T736 501V1471H884V501Q1066 515 1170 585T1302 745T1329 1023V1471H1480V964Z"/><glyph unicode="Ω" horiz-adv-x="1713" d="M1103 138H1536V0H975V196Q1273 390 1352 529T1431 821Q1431 1069 1272 1216T857 1363Q601 1363 442 1216T282 821Q282 669 357 533T738 196V0H177V138H610Q319 319 225 476T130 823Q130 1128 335 1317T857 1507Q1174 1507 1378 1318T1583 823Q1583 633 1489 476T1103 138Z"/><glyph unicode="Ϊ" horiz-adv-x="463" d="M158 1471H305V0H158V1471ZM28 1816Q76 1816 110 1782T144 1700Q144 1652 110 1618T28 1584Q-20 1584 -54 1618T-88 1700Q-88 1748 -54 1782T28 1816ZM436 1816Q484 1816 518 1782T552 1700Q552 1652 518 1618T436 1584Q388 1584 354 1618T320 1700Q320 1748 354 1782T436 1816Z"/><glyph unicode="Ϋ" horiz-adv-x="1212" d="M63 1471H233L609 865L979 1471H1149L683 703V0H538V703L63 1471ZM402 1816Q450 1816 484 1782T518 1700Q518 1652 484 1618T402 1584Q354 1584 320 1618T286 1700Q286 1748 320 1782T402 1816ZM810 1816Q858 1816 892 1782T926 1700Q926 1652 892 1618T810 1584Q762 1584 728 1618T694 1700Q694 1748 728 1782T810 1816Z"/><glyph unicode="ά" horiz-adv-x="1399" d="M1240 1088V0H1102V187Q1014 80 905 26T665 -28Q434 -28 271 139T107 547Q107 782 272 949T669 1116Q803 1116 911 1059T1102 888V1088H1240ZM680 981Q563 981 464 924T307 762T248 542Q248 427 307 322T465 159T679 100Q794 100 897 158T1055 315T1111 538Q1111 727 987 854T680 981ZM787 1598L759 1260H641L612 1598H787Z"/><glyph unicode="έ" horiz-adv-x="866" d="M827 116Q691 -29 468 -29Q308 -29 206 64T103 310Q103 515 299 597Q149 658 149 828Q149 957 240 1037T469 1118Q634 1118 781 995L702 898Q588 986 475 986Q387 986 336 939T284 808Q284 730 337 680T471 630H544V510H458Q370 510 312 453T253 309Q253 213 315 158T480 102Q638 102 739 216L827 116ZM520 1598L492 1260H374L345 1598H520Z"/><glyph unicode="ή" horiz-adv-x="1249" d="M1105 -398H966V519Q966 682 950 773T865 925T676 987Q546 987 448 904T323 721T296 399V0H156V1088H296V893Q463 1116 704 1116Q821 1116 915 1058T1057 894T1105 560V-398ZM712 1598L684 1260H566L537 1598H712Z"/><glyph unicode="ί" horiz-adv-x="410" d="M135 1088H276V0H135V1088ZM292 1598L264 1260H146L117 1598H292Z"/><glyph unicode="ΰ" horiz-adv-x="1219" d="M135 1088H276V580Q276 417 294 330T397 175T612 108Q789 108 880 226T972 544Q972 817 718 989L795 1117Q1115 929 1115 518Q1115 278 979 125T612 -28Q398 -28 267 97T135 564V1088ZM697 1598L669 1260H551L522 1598H697ZM856 1291Q819 1291 793 1317T767 1380Q767 1418 793 1443T856 1469Q893 1469 918 1443T944 1380Q944 1343 919 1317T856 1291ZM364 1291Q327 1291 301 1317T275 1380Q275 1417 301 1443T364 1469Q401 1469 427 1444T453 1380Q453 1343 427 1317T364 1291Z"/><glyph unicode="α" horiz-adv-x="1399" d="M1240 1088V0H1102V187Q1014 80 905 26T665 -28Q434 -28 271 139T107 547Q107 782 272 949T669 1116Q803 1116 911 1059T1102 888V1088H1240ZM680 981Q563 981 464 924T307 762T248 542Q248 427 307 322T465 159T679 100Q794 100 897 158T1055 315T1111 538Q1111 727 987 854T680 981Z"/><glyph unicode="β" horiz-adv-x="1221" d="M297 164V-398H156V1107Q156 1337 275 1436T556 1536Q722 1536 819 1448T917 1211Q917 980 698 900Q890 881 1004 763T1118 462Q1118 253 979 113T635 -28Q421 -28 297 164ZM435 805V922Q774 931 774 1197Q774 1289 718 1346T567 1404Q436 1404 367 1332T297 1074L298 461Q298 299 396 202T633 105Q778 105 876 205T975 453Q975 598 876 701T505 805H435Z"/><glyph unicode="γ" horiz-adv-x="1135" d="M1077 1088L635 122V-398H497V124L53 1088H202L566 296L927 1088H1077Z"/><glyph unicode="δ" horiz-adv-x="1171" d="M445 906Q280 1017 280 1196Q280 1347 396 1441T685 1536Q811 1536 923 1508L887 1383Q803 1405 696 1405Q570 1405 497 1349T423 1200Q423 1120 472 1063T730 922Q1067 787 1067 456Q1067 252 929 112T586 -28Q382 -28 243 111T104 456Q104 786 445 906ZM586 806Q444 806 346 702T247 453Q247 307 344 206T586 105Q730 105 827 206T925 453Q925 598 827 702T586 806Z"/><glyph unicode="ε" horiz-adv-x="866" d="M827 116Q691 -29 468 -29Q308 -29 206 64T103 310Q103 515 299 597Q149 658 149 828Q149 957 240 1037T469 1118Q634 1118 781 995L702 898Q588 986 475 986Q387 986 336 939T284 808Q284 730 337 680T471 630H544V510H458Q370 510 312 453T253 309Q253 213 315 158T480 102Q638 102 739 216L827 116Z"/><glyph unicode="ζ" horiz-adv-x="953" d="M388 -406L424 -280Q487 -296 543 -296Q790 -296 790 -138Q790 -79 735 -44T528 20Q118 99 118 505Q118 716 264 924T736 1385H233V1508H908V1385Q548 1082 405 890T261 515Q261 359 332 270T593 141Q822 94 877 29T932 -132Q932 -270 827 -348T553 -426Q466 -426 388 -406Z"/><glyph unicode="η" horiz-adv-x="1249" d="M1105 -398H966V519Q966 682 950 773T865 925T676 987Q546 987 448 904T323 721T296 399V0H156V1088H296V893Q463 1116 704 1116Q821 1116 915 1058T1057 894T1105 560V-398Z"/><glyph unicode="θ" horiz-adv-x="1341" d="M671 -28Q402 -28 253 181T104 750Q104 1110 253 1323T671 1536Q939 1536 1088 1323T1237 750Q1237 392 1089 182T671 -28ZM1093 816Q1080 1090 970 1249T671 1408Q482 1408 372 1250T248 816H1093ZM1094 693H248Q259 413 368 257T671 100Q865 100 974 255T1094 693Z"/><glyph unicode="ι" horiz-adv-x="410" d="M135 1088H276V0H135V1088Z"/><glyph unicode="κ" horiz-adv-x="1028" d="M1040 0H842L296 489V0H155V1089H296V650L799 1088H1005L408 569L1040 0Z"/><glyph unicode="λ" horiz-adv-x="1098" d="M1073 0H924L561 838L187 0H39L486 1006L266 1508H414L1073 0Z"/><glyph unicode="μ" horiz-adv-x="1249" d="M1093 1H953V196Q785 -27 545 -27Q371 -27 284 89V-398H144V1089H284V570Q284 407 300 316T385 164T573 102Q703 102 801 185T926 368T953 690V1089H1093V1Z"/><glyph unicode="ν" horiz-adv-x="1135" d="M53 1088H202L566 296L927 1088H1077L579 0H554L53 1088Z"/><glyph unicode="ξ" horiz-adv-x="953" d="M388 -406L424 -280Q487 -296 543 -296Q790 -296 790 -138Q790 -87 746 -52T509 20Q118 94 118 475Q118 620 201 730T429 885Q200 998 200 1196Q200 1355 321 1445T635 1536Q789 1536 914 1499L881 1365Q766 1405 616 1405Q492 1405 418 1342T343 1176Q343 1064 456 997T721 930H840V808H638Q491 808 376 729T261 485Q261 345 329 264T571 144Q778 98 855 47T932 -132Q932 -270 827 -348T553 -426Q466 -426 388 -406Z"/><glyph unicode="ο" horiz-adv-x="1341" d="M671 1116Q922 1116 1087 934Q1237 768 1237 541Q1237 313 1079 143T671 -28Q421 -28 263 142T104 541Q104 767 254 933Q419 1116 671 1116ZM671 979Q497 979 372 850T247 538Q247 420 304 318T458 161T671 105Q787 105 884 160T1038 318T1095 538Q1095 721 970 850T671 979Z"/><glyph unicode="π" horiz-adv-x="1373" d="M1323 965H1102V0H961V965H412V0H271V965H50V1088H1323V965Z"/><glyph unicode="ρ" horiz-adv-x="1372" d="M275 205V-398H135V511Q135 777 297 946T702 1116Q945 1116 1106 947T1268 541Q1268 301 1105 137T702 -28Q434 -28 275 205ZM702 979Q524 979 401 849T278 538Q278 359 398 232T702 105Q894 105 1010 234T1126 538Q1126 719 1003 849T702 979Z"/><glyph unicode="ς" horiz-adv-x="1185" d="M1131 862L1020 793Q876 984 657 984Q480 984 363 861T245 545Q245 382 337 288T662 149Q887 107 971 54T1056 -132Q1056 -270 951 -348T677 -426Q590 -426 512 -406L548 -280Q611 -296 667 -296Q914 -296 914 -138Q914 -79 860 -44T623 20Q104 103 104 535Q104 788 264 952T663 1116Q979 1116 1131 862Z"/><glyph unicode="σ" horiz-adv-x="1468" d="M1428 965H1057Q1237 790 1237 541Q1237 301 1074 137T671 -28Q430 -28 267 136T104 541Q104 776 266 946T671 1116Q769 1116 855 1088H1428V965ZM671 979Q496 979 372 851T247 538Q247 359 367 232T671 105Q868 105 981 237T1095 538Q1095 719 972 849T671 979Z"/><glyph unicode="τ" horiz-adv-x="823" d="M773 965H482V0H341V965H50V1088H773V965Z"/><glyph unicode="υ" horiz-adv-x="1219" d="M135 1088H276V580Q276 417 294 330T397 175T612 108Q789 108 880 226T972 544Q972 817 718 989L795 1117Q1115 929 1115 518Q1115 278 979 125T612 -28Q398 -28 267 97T135 564V1088Z"/><glyph unicode="φ" horiz-adv-x="1568" d="M854 -26V-398H713V-25Q433 -7 269 142T104 541Q104 736 217 879T527 1089L572 956Q247 840 247 538Q247 152 713 113V1113Q752 1116 784 1116Q1099 1116 1281 963T1464 541Q1464 293 1300 143T854 -26ZM854 979V113Q1320 156 1320 538Q1320 739 1195 856T854 979Z"/><glyph unicode="χ" horiz-adv-x="983" d="M944 1088L567 388L991 -398H831L488 240L144 -398H-7L412 382L32 1088H190L491 529L791 1088H944Z"/><glyph unicode="ψ" horiz-adv-x="1507" d="M1372 554Q1372 228 1206 105T824 -26V-398H684V-26Q514 -16 396 42T206 212T135 564V1088H274V610Q274 436 300 345T425 189T684 111V1088H824V110Q989 123 1085 189T1207 342T1232 610V1088H1372V554Z"/><glyph unicode="ω" horiz-adv-x="1756" d="M878 199Q849 96 765 34T568 -28Q352 -28 228 111T104 497Q104 757 271 929T699 1116L710 981Q498 965 373 831T247 492Q247 305 329 203T557 100Q673 100 740 200T807 488V622H949V488Q949 300 1016 200T1199 100Q1339 100 1424 200T1509 492Q1509 700 1384 833T1046 981L1057 1116Q1317 1103 1484 930T1652 497Q1652 251 1528 112T1188 -28Q1076 -28 992 34T878 199Z"/><glyph unicode="ϊ" horiz-adv-x="410" d="M135 1088H276V0H135V1088ZM1 1518Q49 1518 83 1484T117 1402Q117 1354 83 1320T1 1286Q-47 1286 -81 1320T-115 1402Q-115 1450 -81 1484T1 1518ZM409 1518Q457 1518 491 1484T525 1402Q525 1354 491 1320T409 1286Q361 1286 327 1320T293 1402Q293 1450 327 1484T409 1518Z"/><glyph unicode="ϋ" horiz-adv-x="1219" d="M135 1088H276V580Q276 417 294 330T397 175T612 108Q789 108 880 226T972 544Q972 817 718 989L795 1117Q1115 929 1115 518Q1115 278 979 125T612 -28Q398 -28 267 97T135 564V1088ZM406 1518Q454 1518 488 1484T522 1402Q522 1354 488 1320T406 1286Q358 1286 324 1320T290 1402Q290 1450 324 1484T406 1518ZM814 1518Q862 1518 896 1484T930 1402Q930 1354 896 1320T814 1286Q766 1286 732 1320T698 1402Q698 1450 732 1484T814 1518Z"/><glyph unicode="ό" horiz-adv-x="1341" d="M671 1116Q922 1116 1087 934Q1237 768 1237 541Q1237 313 1079 143T671 -28Q421 -28 263 142T104 541Q104 767 254 933Q419 1116 671 1116ZM671 979Q497 979 372 850T247 538Q247 420 304 318T458 161T671 105Q787 105 884 160T1038 318T1095 538Q1095 721 970 850T671 979ZM758 1598L730 1260H612L583 1598H758Z"/><glyph unicode="ύ" horiz-adv-x="1219" d="M135 1088H276V580Q276 417 294 330T397 175T612 108Q789 108 880 226T972 544Q972 817 718 989L795 1117Q1115 929 1115 518Q1115 278 979 125T612 -28Q398 -28 267 97T135 564V1088ZM697 1598L669 1260H551L522 1598H697Z"/><glyph unicode="ώ" horiz-adv-x="1756" d="M878 199Q849 96 765 34T568 -28Q352 -28 228 111T104 497Q104 757 271 929T699 1116L710 981Q498 965 373 831T247 492Q247 305 329 203T557 100Q673 100 740 200T807 488V622H949V488Q949 300 1016 200T1199 100Q1339 100 1424 200T1509 492Q1509 700 1384 833T1046 981L1057 1116Q1317 1103 1484 930T1652 497Q1652 251 1528 112T1188 -28Q1076 -28 992 34T878 199ZM965 1598L937 1260H819L790 1598H965Z"/><glyph unicode="Ё" horiz-adv-x="1098" d="M180 1471H1023V1326H327V866H1017V722H327V145H1017V0H180V1471ZM406 1816Q454 1816 488 1782T522 1700Q522 1652 488 1618T406 1584Q358 1584 324 1618T290 1700Q290 1748 324 1782T406 1816ZM814 1816Q862 1816 896 1782T930 1700Q930 1652 896 1618T814 1584Q766 1584 732 1618T698 1700Q698 1748 732 1782T814 1816Z"/><glyph unicode="Ђ" horiz-adv-x="1374" d="M511 1328V854H646Q882 854 1000 819T1188 672T1259 394Q1259 189 1170 78T914 -34Q769 -34 670 64L761 166Q826 105 902 105Q1000 105 1053 182T1107 394Q1107 528 1063 595T938 687T690 711H511V0H361V1328H32V1471H839V1328H511Z"/><glyph unicode="Ѓ" horiz-adv-x="946" d="M323 0H177V1471H914V1326H323V0ZM709 1895H924L629 1587H491L709 1895Z"/><glyph unicode="Є" horiz-adv-x="1665" d="M277 669H972V814H283Q302 1066 491 1214T911 1363Q1243 1363 1437 1109L1554 1198Q1454 1342 1285 1425T909 1508Q571 1508 344 1288T116 744Q116 417 331 190T911 -37Q1323 -37 1554 256L1437 344Q1231 102 921 102Q684 102 501 240T277 669Z"/><glyph unicode="Ѕ" horiz-adv-x="1020" d="M27 274L152 349Q284 106 457 106Q531 106 596 140T695 233T729 356Q729 430 679 501Q610 599 427 737Q243 876 198 938Q120 1042 120 1163Q120 1259 166 1338T295 1462T477 1508Q581 1508 671 1457T863 1267L743 1176Q660 1286 602 1321T474 1356Q385 1356 329 1302T272 1169Q272 1121 292 1076T365 978Q394 950 555 831Q746 690 817 580T888 359Q888 199 767 81T471 -37Q337 -37 228 34T27 274Z"/><glyph unicode="І" horiz-adv-x="463" d="M158 1471H305V0H158V1471Z"/><glyph unicode="Ї" horiz-adv-x="463" d="M158 1471H305V0H158V1471ZM28 1816Q76 1816 110 1782T144 1700Q144 1652 110 1618T28 1584Q-20 1584 -54 1618T-88 1700Q-88 1748 -54 1782T28 1816ZM436 1816Q484 1816 518 1782T552 1700Q552 1652 518 1618T436 1584Q388 1584 354 1618T320 1700Q320 1748 354 1782T436 1816Z"/><glyph unicode="Ј" horiz-adv-x="987" d="M660 1471H808V478Q808 249 773 160T654 17T453 -37Q364 -37 278 -3T86 119L164 236Q279 155 355 122Q405 100 453 100Q516 100 567 138T639 239T660 483V1471Z"/><glyph unicode="Љ" horiz-adv-x="2181" d="M780 1471L1087 840H1422Q1660 840 1790 804T1994 667T2067 418Q2067 266 1992 165T1799 32T1466 0H1308L762 1159L211 0H49L744 1471H780ZM1400 142H1473Q1658 142 1738 163T1864 251T1910 417Q1910 519 1862 587T1732 675T1441 696H1140L1400 142Z"/><glyph unicode="Њ" horiz-adv-x="2136" d="M325 855H1073V1471H1221V855H1326Q1539 855 1644 845T1838 787T1974 651T2022 440Q2022 271 1951 169T1761 34T1366 0H1073V711H325V0H177V1471H325V855ZM1221 142H1377Q1589 142 1677 158T1815 243T1866 431Q1866 542 1813 609T1674 694T1345 711H1221V142Z"/><glyph unicode="Ћ" horiz-adv-x="1391" d="M512 0H362V1328H33V1471H840V1328H512V854H819Q983 854 1079 809T1217 670T1260 369V0H1110V377Q1110 534 1085 593T998 682T823 711H512V0Z"/><glyph unicode="Ќ" horiz-adv-x="1210" d="M179 1471H329V919L916 1471H1115L408 811L1170 0H975L329 686V0H179V1471ZM772 1895H987L692 1587H554L772 1895Z"/><glyph unicode="Ў" horiz-adv-x="1323" d="M67 1467H233L678 468L1085 1471H1246L688 149Q610 -37 411 -37Q331 -37 260 -5T80 149L187 237Q298 128 335 113T410 98Q468 98 510 129T604 284L67 1467ZM307 1823H439Q473 1771 530 1745T666 1719Q746 1719 795 1742T888 1823H1016Q994 1733 904 1673T665 1612Q518 1612 425 1671T307 1823Z"/><glyph unicode="Џ" horiz-adv-x="1329" d="M598 0H177V1471H325V139H1004V1471H1152V0H735V-220H598V0Z"/><glyph unicode="А" horiz-adv-x="1515" d="M780 1471L1466 0H1308L1077 484H443L213 0H49L744 1471H780ZM762 1159L509 626H1012L762 1159Z"/><glyph unicode="Б" horiz-adv-x="1173" d="M178 0V1471H915V1326H323V856H392Q667 856 791 808T987 655T1059 422Q1059 254 933 127T582 0H178ZM323 708V144H504Q665 144 740 175T859 272T904 419Q904 521 841 592T684 685T405 708H323Z"/><glyph unicode="В" horiz-adv-x="1176" d="M183 1471H473Q648 1471 742 1430T890 1302T945 1111Q945 1013 897 933T756 802Q871 763 933 711T1029 584T1064 422Q1064 245 935 123T587 0H183V1471ZM327 1327V856H411Q564 856 636 884T750 974T792 1111Q792 1212 722 1269T497 1327H327ZM327 708V144H509Q670 144 745 175T865 274T911 419Q911 517 847 590T671 690Q596 708 410 708H327Z"/><glyph unicode="Г" horiz-adv-x="946" d="M323 0H177V1471H914V1326H323V0Z"/><glyph unicode="Д" horiz-adv-x="1532" d="M175 -220H30V137H150L727 1471H778L1387 137H1502V-220H1357V0H175V-220ZM316 137H1213L753 1167L316 137Z"/><glyph unicode="Е" horiz-adv-x="1098" d="M180 1471H1023V1326H327V866H1017V722H327V145H1017V0H180V1471Z"/><glyph unicode="Ж" horiz-adv-x="1915" d="M1031 683V0H882V683L837 724L235 0H40L742 815L96 1471H294L882 849V1471H1031V849L1620 1471H1819L1173 815L1874 0H1679L1076 724L1031 683Z"/><glyph unicode="З" horiz-adv-x="1190" d="M209 1328Q364 1508 592 1508Q773 1508 891 1404T1009 1133Q1009 898 788 796Q1079 706 1079 406Q1079 206 949 84T593 -38Q435 -38 319 27T99 257L213 324Q315 174 404 132T589 89Q729 89 827 170T925 408Q925 491 892 552T797 652T681 700T500 710H475V839H524Q851 839 851 1104Q851 1227 777 1299T588 1372Q440 1372 310 1238L209 1328Z"/><glyph unicode="И" horiz-adv-x="1515" d="M1335 0H1182V1127L213 0H180V1471H327V324L1302 1471H1335V0Z"/><glyph unicode="Й" horiz-adv-x="1515" d="M1335 0H1182V1127L213 0H180V1471H327V324L1302 1471H1335V0ZM403 1823H535Q569 1771 626 1745T762 1719Q842 1719 891 1742T984 1823H1112Q1090 1733 1000 1673T761 1612Q614 1612 521 1671T403 1823Z"/><glyph unicode="К" horiz-adv-x="1210" d="M179 1471H329V919L916 1471H1115L408 811L1170 0H975L329 686V0H179V1471Z"/><glyph unicode="Л" horiz-adv-x="1438" d="M1370 0H1210L723 1137L227 0H67L707 1471H739L1370 0Z"/><glyph unicode="М" horiz-adv-x="1882" d="M112 0L321 1471H345L943 264L1535 1471H1559L1770 0H1625L1481 1052L961 0H924L397 1060L254 0H112Z"/><glyph unicode="Н" horiz-adv-x="1399" d="M177 1471H325V854H1073V1471H1221V0H1073V710H325V0H177V1471Z"/><glyph unicode="О" horiz-adv-x="1780" d="M880 1508Q1214 1508 1439 1285T1664 736Q1664 413 1440 188T892 -37Q565 -37 340 187T115 729Q115 941 217 1122T497 1405T880 1508ZM887 1364Q724 1364 578 1279T350 1050T268 729Q268 467 449 287T887 106Q1058 106 1203 189T1430 416T1512 736Q1512 911 1431 1052T1201 1279T887 1364Z"/><glyph unicode="П" horiz-adv-x="1399" d="M177 1471H1221V0H1073V1331H325V0H177V1471Z"/><glyph unicode="Р" horiz-adv-x="1212" d="M178 1471H471Q723 1471 811 1449Q937 1418 1017 1322T1097 1079Q1097 932 1019 837T804 708Q704 684 430 684H325V0H178V1471ZM325 1328V828L574 825Q725 825 795 852T905 941T945 1079Q945 1153 905 1214T800 1302T585 1328H325Z"/><glyph unicode="С" horiz-adv-x="1665" d="M1549 1198L1433 1109Q1337 1234 1203 1298T907 1363Q731 1363 581 1279T349 1052T266 731Q266 462 450 282T916 102Q1225 102 1433 344L1549 256Q1439 116 1275 40T907 -37Q521 -37 298 220Q111 437 111 744Q111 1067 337 1287T905 1508Q1111 1508 1277 1427T1549 1198Z"/><glyph unicode="Т" horiz-adv-x="872" d="M33 1328V1471H840V1328H512V0H362V1328H33Z"/><glyph unicode="У" horiz-adv-x="1323" d="M67 1467H233L678 468L1085 1471H1246L688 149Q610 -37 411 -37Q331 -37 260 -5T80 149L187 237Q298 128 335 113T410 98Q468 98 510 129T604 284L67 1467Z"/><glyph unicode="Ф" horiz-adv-x="1784" d="M818 1471H965V1283H1078Q1410 1283 1539 1154T1668 843Q1668 678 1555 550T1124 421H965V0H818V421H660Q492 421 382 453T194 592T115 843Q115 1023 243 1153T706 1283H818V1471ZM965 1141V563H1120L1199 562Q1353 562 1434 642T1516 845Q1516 980 1420 1060T1130 1141H965ZM818 1141H653Q472 1141 370 1065T267 846Q267 724 348 643T590 562L664 563H818V1141Z"/><glyph unicode="Х" horiz-adv-x="1247" d="M101 1471H273L625 897L980 1471H1150L712 758L1179 0H1007L625 617L241 0H69L538 758L101 1471Z"/><glyph unicode="Ц" horiz-adv-x="1450" d="M1268 0H178V1471H326V138H1005V1471H1153V138H1405V-220H1268V0Z"/><glyph unicode="Ч" horiz-adv-x="1104" d="M780 836V1471H927V0H780V693H674Q454 693 353 711T171 789T62 937T32 1179V1471H176V1170Q176 985 250 911T499 836L603 837L648 836H780Z"/><glyph unicode="Ш" horiz-adv-x="2064" d="M325 139H953V1471H1101V139H1739V1471H1887V0H177V1471H325V139Z"/><glyph unicode="Щ" horiz-adv-x="2183" d="M1887 139H2139V-220H2001V0H177V1471H325V139H953V1471H1101V139H1739V1471H1887V139Z"/><glyph unicode="Ъ" horiz-adv-x="1401" d="M338 1333H32V1471H485V840H590Q880 840 1006 812T1209 684T1286 424Q1286 267 1211 165T1020 32T631 0H338V1333ZM485 142H642Q890 142 965 165T1085 253T1130 417Q1130 527 1074 596T932 680T609 696H485V142Z"/><glyph unicode="Ы" horiz-adv-x="1624" d="M178 1471H325V840H431Q720 840 846 812T1049 684T1126 424Q1126 268 1051 166T860 32T471 0H178V1471ZM325 142H482Q730 142 805 165T925 253T970 417Q970 527 914 596T772 680T449 696H325V142ZM1299 1471H1446V0H1299V1471Z"/><glyph unicode="Ь" horiz-adv-x="1241" d="M178 1471H325V840H431Q720 840 846 812T1049 684T1126 424Q1126 268 1051 166T860 32T471 0H178V1471ZM325 142H482Q730 142 805 165T925 253T970 417Q970 527 914 596T772 680T449 696H325V142Z"/><glyph unicode="Э" horiz-adv-x="1665" d="M1388 669H693V814H1382Q1363 1066 1174 1214T754 1363Q422 1363 228 1109L111 1198Q211 1342 380 1425T756 1508Q1094 1508 1321 1288T1549 744Q1549 417 1334 190T754 -37Q342 -37 111 256L228 344Q434 102 744 102Q981 102 1164 240T1388 669Z"/><glyph unicode="Ю" horiz-adv-x="2243" d="M324 814H582Q638 1168 862 1338T1343 1508Q1676 1508 1902 1285T2128 736Q2128 414 1904 189T1355 -37Q1057 -37 836 154T582 677H324V0H177V1471H324V814ZM1976 736Q1976 1009 1788 1187T1351 1365Q1104 1365 918 1185T732 729Q732 461 916 284T1351 106Q1610 106 1793 285T1976 736Z"/><glyph unicode="Я" horiz-adv-x="1196" d="M1013 1471H720Q475 1471 388 1451Q257 1421 175 1323T93 1080Q93 960 149 869T311 732T601 684L72 0H254L782 684H866V0H1013V1471ZM866 1327V827L613 825Q466 825 396 853T286 942T246 1080Q246 1154 286 1214T391 1301T607 1327H866Z"/><glyph unicode="а" horiz-adv-x="1399" d="M1240 1088V0H1102V187Q1014 80 905 26T665 -28Q434 -28 271 139T107 547Q107 782 272 949T669 1116Q803 1116 911 1059T1102 888V1088H1240ZM680 981Q563 981 464 924T307 762T248 542Q248 427 307 322T465 159T679 100Q794 100 897 158T1055 315T1111 538Q1111 727 987 854T680 981Z"/><glyph unicode="б" horiz-adv-x="1370" d="M1197 1531V1397Q1097 1380 854 1373Q678 1367 583 1350T416 1283T297 1133T236 908L222 755Q279 942 409 1029T699 1116Q941 1116 1103 946T1266 541Q1266 308 1104 140T699 -28Q450 -28 277 158T104 744Q104 1023 167 1166T313 1373T525 1472T1012 1517Q1122 1520 1197 1531ZM1124 538Q1124 719 998 849T699 979Q527 979 401 849T275 538Q275 358 396 232T699 105Q881 105 1002 231T1124 538Z"/><glyph unicode="в" horiz-adv-x="958" d="M472 0H156V1088H467Q645 1088 723 1006T802 814Q802 648 656 589Q868 514 868 300Q868 0 472 0ZM297 967V627H388Q512 627 550 637T621 686T655 791Q655 859 620 905T547 959T388 967H297ZM297 499V118H447Q553 118 598 131T676 190T709 304Q709 393 653 446T505 499H297Z"/><glyph unicode="г" horiz-adv-x="739" d="M295 965V0H156V1088H706V965H295Z"/><glyph unicode="д" horiz-adv-x="1239" d="M165 119L585 1088H658L1075 119H1206V-139H1071V0H171V-145H33V119H165ZM619 872L301 119H924L619 872Z"/><glyph unicode="е" horiz-adv-x="1331" d="M1072 361L1190 299Q1132 185 1056 115T885 9T670 -28Q404 -28 254 146T104 541Q104 748 231 910Q392 1116 662 1116Q940 1116 1106 905Q1224 756 1226 533H248Q252 343 369 222T658 100Q741 100 819 129T953 206T1072 361ZM1072 654Q1044 766 991 833T849 941T664 982Q504 982 389 879Q305 804 262 654H1072Z"/><glyph unicode="ж" horiz-adv-x="1575" d="M714 1088H856V607L1376 1088H1547L1033 603L1586 0H1407L936 526L856 459V0H714V459L636 526L167 0H-12L535 603L29 1088H200L714 607V1088Z"/><glyph unicode="з" horiz-adv-x="866" d="M338 630H411Q481 630 539 676T598 808Q598 881 551 933T407 986Q294 986 180 898L101 995Q248 1118 413 1118Q549 1118 641 1037T733 828Q733 658 583 597Q779 515 779 310Q779 180 688 76T414 -29Q191 -29 55 116L143 216Q244 102 402 102Q508 102 568 159T629 309Q629 400 568 455T424 510H338V630Z"/><glyph unicode="и" horiz-adv-x="1262" d="M296 1088V283L1095 1088H1106V0H966V798L173 0H156V1088H296Z"/><glyph unicode="й" horiz-adv-x="1262" d="M296 1088V283L1095 1088H1106V0H966V798L173 0H156V1088H296ZM277 1525H409Q443 1473 500 1447T636 1421Q716 1421 765 1444T858 1525H986Q964 1435 874 1375T635 1314Q488 1314 395 1373T277 1525Z"/><glyph unicode="к" horiz-adv-x="1028" d="M156 1088H297V630L800 1088H995L444 590L1039 0H841L341 503L297 464V0H156V1088Z"/><glyph unicode="л" horiz-adv-x="1135" d="M1077 0H928L564 792L203 0H53L551 1088H576L1077 0Z"/><glyph unicode="м" horiz-adv-x="1800" d="M1337 1088H1377L1746 0H1600L1331 801L913 0H887L468 801L200 0H54L425 1088H463L901 237L1337 1088Z"/><glyph unicode="н" horiz-adv-x="1225" d="M929 524H297V0H156V1088H297V656H929V1088H1069V0H929V524Z"/><glyph unicode="о" horiz-adv-x="1341" d="M671 1116Q922 1116 1087 934Q1237 768 1237 541Q1237 313 1079 143T671 -28Q421 -28 263 142T104 541Q104 767 254 933Q419 1116 671 1116ZM671 979Q497 979 372 850T247 538Q247 420 304 318T458 161T671 105Q787 105 884 160T1038 318T1095 538Q1095 721 970 850T671 979Z"/><glyph unicode="п" horiz-adv-x="1225" d="M156 1088H1069V0H929V956H296V0H156V1088Z"/><glyph unicode="р" horiz-adv-x="1397" d="M158 1088H297V888Q380 1002 488 1059T729 1116Q961 1116 1126 949T1291 547Q1291 307 1128 140T733 -28Q603 -28 494 26T297 187V-398H158V1088ZM718 981Q536 981 412 854T287 538Q287 414 342 315T501 158T720 100Q833 100 932 158T1091 322T1150 542Q1150 658 1092 762T934 923T718 981Z"/><glyph unicode="с" horiz-adv-x="1325" d="M1212 862L1101 793Q957 984 708 984Q509 984 378 856T246 545Q246 426 306 321T472 158T709 100Q949 100 1101 291L1212 218Q1134 101 1003 37T703 -28Q445 -28 275 136T105 535Q105 693 184 828T403 1040T714 1116Q822 1116 922 1083T1093 997T1212 862Z"/><glyph unicode="т" horiz-adv-x="784" d="M34 1088H750V967H462V0H321V967H34V1088Z"/><glyph unicode="у" horiz-adv-x="1098" d="M39 1088H187L561 250L924 1088H1073L424 -398H276L486 82L39 1088Z"/><glyph unicode="ф" horiz-adv-x="2216" d="M1039 1508H1178V924Q1309 1110 1555 1110Q1792 1110 1952 949T2113 536Q2113 287 1951 127T1559 -33Q1307 -33 1178 163V-398H1039V163Q912 -34 655 -34Q429 -34 267 126T104 536Q104 788 264 949T662 1110Q913 1110 1039 924V1508ZM1174 518Q1174 323 1285 212T1540 101Q1736 101 1854 231T1972 544Q1972 733 1848 858T1549 983Q1392 983 1283 872T1174 518ZM245 543Q245 361 362 231T677 101Q745 101 823 135T948 222T1020 344T1044 546Q1044 758 934 870T668 983Q493 983 369 858T245 543Z"/><glyph unicode="х" horiz-adv-x="983" d="M32 1088H200L488 685L776 1088H944L572 571L991 0H821L488 457L160 0H-7L405 571L32 1088Z"/><glyph unicode="ц" horiz-adv-x="1337" d="M1173 0H156V1088H297V132H929V1088H1070V132H1305V-172H1173V0Z"/><glyph unicode="ч" horiz-adv-x="938" d="M643 491H397Q230 491 150 577T69 816V1088H206V891Q206 701 260 656T438 610H643V1088H782V0H643V491Z"/><glyph unicode="ш" horiz-adv-x="1937" d="M1782 0H156V1088H297V132H896V1088H1039V132H1639V1088H1782V0Z"/><glyph unicode="щ" horiz-adv-x="2050" d="M1885 0H156V1088H297V132H897V1088H1039V132H1639V1088H1782V132H2018V-172H1885V0Z"/><glyph unicode="ъ" horiz-adv-x="1063" d="M393 657H527Q686 657 776 632T931 522T996 325Q996 191 902 96T617 0H255V960H55V1088H393V657ZM393 539V118H554Q842 118 842 326Q842 397 804 450T703 521T512 539H393Z"/><glyph unicode="ы" horiz-adv-x="1374" d="M295 657H428Q587 657 677 632T832 522T897 325Q897 191 803 96T518 0H156V1088H295V657ZM300 529V118H461Q745 118 745 318Q745 375 715 430T626 507T419 529H300ZM1090 1088H1231V0H1090V1088Z"/><glyph unicode="ь" horiz-adv-x="965" d="M295 657H428Q587 657 677 632T832 522T897 325Q897 191 803 96T518 0H156V1088H295V657ZM300 529V118H461Q745 118 745 318Q745 375 715 430T626 507T419 529H300Z"/><glyph unicode="э" horiz-adv-x="1315" d="M1068 503Q1048 320 918 210T607 100Q367 100 215 291L104 218Q182 94 321 33T613 -28Q876 -28 1043 138T1211 535Q1211 778 1039 947T602 1116Q449 1116 311 1050T104 862L215 793Q359 984 608 984Q782 984 907 883T1068 623H584V503H1068Z"/><glyph unicode="ю" horiz-adv-x="1712" d="M298 0H157V1088H298V631H480Q517 849 674 982T1041 1116Q1283 1116 1445 946T1608 541Q1608 308 1446 140T1042 -28Q826 -28 665 113T480 493H298V0ZM1466 538Q1466 719 1340 849T1042 979Q869 979 743 849T617 538Q617 358 737 232T1042 105Q1223 105 1344 231T1466 538Z"/><glyph unicode="я" horiz-adv-x="911" d="M615 487H515L205 0H54L381 501Q259 516 183 593T107 786Q107 930 194 1009T424 1088H755V0H615V487ZM615 967H523Q389 967 343 950T270 892T243 780Q243 713 278 670T356 616T523 606H615V967Z"/><glyph unicode="ё" horiz-adv-x="1329" d="M1072 361L1190 299Q1132 185 1056 115T885 9T670 -28Q404 -28 254 146T104 541Q104 748 231 910Q392 1116 662 1116Q940 1116 1106 905Q1224 756 1226 533H248Q252 343 369 222T658 100Q741 100 819 129T953 206T1072 361ZM1072 654Q1044 766 991 833T849 941T664 982Q504 982 389 879Q305 804 262 654H1072ZM462 1518Q510 1518 544 1484T578 1402Q578 1354 544 1320T462 1286Q414 1286 380 1320T346 1402Q346 1450 380 1484T462 1518ZM870 1518Q918 1518 952 1484T986 1402Q986 1354 952 1320T870 1286Q822 1286 788 1320T754 1402Q754 1450 788 1484T870 1518Z"/><glyph unicode="ђ" horiz-adv-x="1284" d="M329 1508V1372H809V1252H329V893Q499 1116 737 1116Q879 1116 978 1038T1108 854T1139 560V0L1141 -164Q1141 -426 955 -426Q882 -426 796 -392V-266Q850 -295 897 -295Q946 -295 971 -263T997 -190T999 0V519Q999 708 979 793T890 932T710 987Q613 987 538 943T412 825T345 672T329 399V0H190V1252H35V1372H190V1508H329Z"/><glyph unicode="ѓ" horiz-adv-x="739" d="M295 965V0H156V1088H706V965H295ZM523 1598H738L443 1290H305L523 1598Z"/><glyph unicode="є" horiz-adv-x="1315" d="M247 503Q267 320 397 210T708 100Q948 100 1100 291L1211 218Q1133 94 994 33T702 -28Q439 -28 272 138T104 535Q104 778 276 947T713 1116Q866 1116 1004 1050T1211 862L1100 793Q956 984 707 984Q533 984 408 883T247 623H731V503H247Z"/><glyph unicode="ѕ" horiz-adv-x="795" d="M703 969L613 876Q501 985 394 985Q326 985 278 940T229 835Q229 782 269 734Q309 685 437 619Q593 538 649 463Q704 387 704 292Q704 158 610 65T375 -28Q281 -28 196 13T54 126L142 226Q249 105 369 105Q453 105 512 159T571 286Q571 346 532 393Q493 439 356 509Q209 585 156 659Q103 733 103 828Q103 952 187 1034T401 1116Q551 1116 703 969Z"/><glyph unicode="і" horiz-adv-x="410" d="M205 1536Q253 1536 287 1502T321 1420Q321 1373 287 1339T205 1305Q158 1305 124 1339T90 1420Q90 1468 124 1502T205 1536ZM135 1088H276V0H135V1088Z"/><glyph unicode="ї" horiz-adv-x="410" d="M135 1088H276V0H135V1088ZM1 1518Q49 1518 83 1484T117 1402Q117 1354 83 1320T1 1286Q-47 1286 -81 1320T-115 1402Q-115 1450 -81 1484T1 1518ZM409 1518Q457 1518 491 1484T525 1402Q525 1354 491 1320T409 1286Q361 1286 327 1320T293 1402Q293 1450 327 1484T409 1518Z"/><glyph unicode="ј" horiz-adv-x="416" d="M208 1536Q256 1536 289 1502T323 1420Q323 1373 290 1339T208 1305Q160 1305 127 1339T93 1420Q93 1468 126 1502T208 1536ZM139 1088H281V-164Q281 -301 232 -363T96 -426Q25 -426 -64 -392V-266Q-8 -295 37 -295Q94 -295 122 -248Q139 -218 139 -123V1088Z"/><glyph unicode="љ" horiz-adv-x="1622" d="M577 1088L777 657H1087Q1247 657 1337 632T1492 520T1556 323Q1556 218 1486 123T1244 0H929L560 828L194 0H54L552 1088H577ZM833 529L1018 118H1120Q1404 118 1404 318Q1404 389 1367 441T1270 511T1078 529H833Z"/><glyph unicode="њ" horiz-adv-x="1733" d="M1069 656H1197Q1355 656 1445 631T1600 520T1665 324Q1665 191 1571 96T1287 0H929V524H298V0H156V1088H298V656H929V1088H1069V656ZM1069 524V118H1229Q1513 118 1513 315Q1513 371 1483 425T1393 502T1187 524H1069Z"/><glyph unicode="ћ" horiz-adv-x="1284" d="M191 1252H36V1372H191V1508H330V1372H810V1252H330V893Q500 1116 738 1116Q880 1116 979 1038T1109 854T1140 560V0H1000V519Q1000 708 980 793T891 932T711 987Q614 987 539 943T413 825T346 672T330 399V0H191V1252Z"/><glyph unicode="ќ" horiz-adv-x="1028" d="M156 1088H297V630L800 1088H995L444 590L1039 0H841L341 503L297 464V0H156V1088ZM651 1598H866L571 1290H433L651 1598Z"/><glyph unicode="ў" horiz-adv-x="1098" d="M39 1088H187L561 250L924 1088H1073L424 -398H276L486 82L39 1088ZM194 1525H326Q360 1473 417 1447T553 1421Q633 1421 682 1444T775 1525H903Q881 1435 791 1375T552 1314Q405 1314 312 1373T194 1525Z"/><glyph unicode="џ" horiz-adv-x="1227" d="M541 0H157V1088H298V132H930V1088H1071V0H673V-172H541V0Z"/><glyph unicode="Ґ" horiz-adv-x="829" d="M323 0H177V1471H652V1685H797V1326H323V0Z"/><glyph unicode="ґ" horiz-adv-x="729" d="M295 965V0H156V1088H538V1223H675V965H295Z"/><glyph unicode="Ẁ" horiz-adv-x="1966" d="M96 1471H247L546 411L968 1471H998L1415 411L1720 1471H1870L1448 0H1420L984 1113L539 0H511L96 1471ZM922 1895L1140 1587H1002L707 1895H922Z"/><glyph unicode="ẁ" horiz-adv-x="1702" d="M9 1088H153L486 298L835 1088H860L1208 298L1547 1088H1693L1221 0H1194L848 779L499 0H473L9 1088ZM790 1598L1008 1290H870L575 1598H790Z"/><glyph unicode="Ẃ" horiz-adv-x="1966" d="M96 1471H247L546 411L968 1471H998L1415 411L1720 1471H1870L1448 0H1420L984 1113L539 0H511L96 1471ZM1051 1895H1266L971 1587H833L1051 1895Z"/><glyph unicode="ẃ" horiz-adv-x="1702" d="M9 1088H153L486 298L835 1088H860L1208 298L1547 1088H1693L1221 0H1194L848 779L499 0H473L9 1088ZM919 1598H1134L839 1290H701L919 1598Z"/><glyph unicode="Ẅ" horiz-adv-x="1966" d="M96 1471H247L546 411L968 1471H998L1415 411L1720 1471H1870L1448 0H1420L984 1113L539 0H511L96 1471ZM780 1816Q828 1816 862 1782T896 1700Q896 1652 862 1618T780 1584Q732 1584 698 1618T664 1700Q664 1748 698 1782T780 1816ZM1188 1816Q1236 1816 1270 1782T1304 1700Q1304 1652 1270 1618T1188 1584Q1140 1584 1106 1618T1072 1700Q1072 1748 1106 1782T1188 1816Z"/><glyph unicode="ẅ" horiz-adv-x="1702" d="M9 1088H153L486 298L835 1088H860L1208 298L1547 1088H1693L1221 0H1194L848 779L499 0H473L9 1088ZM649 1518Q697 1518 731 1484T765 1402Q765 1354 731 1320T649 1286Q601 1286 567 1320T533 1402Q533 1450 567 1484T649 1518ZM1057 1518Q1105 1518 1139 1484T1173 1402Q1173 1354 1139 1320T1057 1286Q1009 1286 975 1320T941 1402Q941 1450 975 1484T1057 1518Z"/><glyph unicode="Ỳ" horiz-adv-x="1212" d="M63 1471H233L609 865L979 1471H1149L683 703V0H538V703L63 1471ZM546 1895L764 1587H626L331 1895H546Z"/><glyph unicode="ỳ" horiz-adv-x="1098" d="M39 1088H187L561 250L924 1088H1073L424 -398H276L486 82L39 1088ZM488 1598L706 1290H568L273 1598H488Z"/><glyph unicode="–" horiz-adv-x="1024" d="M-12 637H1036V508H-12V637Z"/><glyph unicode="—" horiz-adv-x="2048" d="M-12 637H2060V508H-12V637Z"/><glyph unicode="―" horiz-adv-x="1536" d="M-12 637H1548V508H-12V637Z"/><glyph unicode="‗" horiz-adv-x="1024" d="M-12 -146H1036V-249H-12V-146ZM-12 -323H1036V-426H-12V-323Z"/><glyph unicode="‘" horiz-adv-x="719" d="M371 1508L449 1464Q411 1388 398 1345T378 1234H467V959H286V1131Q286 1260 303 1333T371 1508Z"/><glyph unicode="’" horiz-adv-x="719" d="M347 959L270 1003Q308 1079 321 1122T340 1233H252V1508H433V1336Q433 1207 416 1134T347 959Z"/><glyph unicode="‚" horiz-adv-x="725" d="M350 -274L273 -231Q311 -155 324 -112T343 0H255V275H436V103Q436 -26 419 -99T350 -274Z"/><glyph unicode="‛" horiz-adv-x="719" d="M371 959Q318 1064 302 1138T286 1336V1508H467V1233H378Q386 1126 449 1003L371 959Z"/><glyph unicode="“" horiz-adv-x="1028" d="M289 1508L367 1464Q329 1388 316 1345T296 1234H385V959H204V1131Q204 1260 221 1333T289 1508ZM734 1508L812 1464Q774 1388 761 1345T741 1234H830V959H649V1131Q649 1260 666 1333T734 1508Z"/><glyph unicode="”" horiz-adv-x="991" d="M721 959L644 1003Q682 1079 695 1122T714 1233H626V1508H807V1336Q807 1207 790 1134T721 959ZM276 959L199 1003Q237 1079 250 1122T269 1233H181V1508H362V1336Q362 1207 345 1134T276 959Z"/><glyph unicode="„" horiz-adv-x="1028" d="M738 -274L661 -230Q699 -154 712 -111T731 0H643V275H824V103Q824 -26 807 -99T738 -274ZM293 -274L216 -230Q254 -154 267 -111T286 0H198V275H379V103Q379 -26 362 -99T293 -274Z"/><glyph unicode="†" horiz-adv-x="1133" d="M489 1508H638L615 1051L975 1072V923L615 949L642 -314H489L518 949L157 923V1072L518 1051L489 1508Z"/><glyph unicode="‡" horiz-adv-x="1133" d="M492 1508H639L616 1154L974 1177V1029L616 1056L639 597L616 145L974 165V17L616 45L639 -314H492L516 45L159 17V165L516 145L492 597L516 1056L159 1029V1177L516 1154L492 1508Z"/><glyph unicode="•" horiz-adv-x="1241" d="M620 1053Q747 1053 837 963T927 746Q927 618 837 528T620 438Q493 438 403 528T313 746Q313 873 403 963T620 1053Z"/><glyph unicode="…" horiz-adv-x="2048" d="M1024 220Q1075 220 1111 184T1147 96Q1147 45 1111 9T1024 -28Q973 -28 937 8T901 96Q901 148 937 184T1024 220ZM341 220Q392 220 428 184T464 96Q464 45 428 9T341 -28Q290 -28 254 8T218 96Q218 148 254 184T341 220ZM1707 220Q1757 220 1793 184T1830 96Q1830 45 1794 9T1707 -28Q1656 -28 1620 8T1584 96Q1584 148 1620 184T1707 220Z"/><glyph unicode="‰" horiz-adv-x="2404" d="M1384 1536L312 -102H180L1155 1390Q982 1348 733 1348L679 1349Q741 1263 741 1167Q741 1030 646 922T392 814Q247 814 148 914T49 1159Q49 1255 94 1333T222 1460T392 1508Q429 1508 514 1490Q644 1462 796 1462Q908 1462 1007 1476T1266 1536H1384ZM395 1381Q304 1381 240 1317T176 1161Q176 1070 240 1006T395 942Q486 942 550 1006T615 1161Q615 1252 551 1316T395 1381ZM1198 649Q1341 649 1442 548T1544 303Q1544 160 1443 59T1198 -43Q1055 -43 954 58T852 303Q852 446 953 547T1198 649ZM1198 522Q1107 522 1043 458T979 303Q979 212 1043 148T1198 84Q1289 84 1353 148T1418 303Q1418 394 1354 458T1198 522ZM1996 649Q2139 649 2240 548T2341 303Q2341 160 2240 59T1996 -43Q1852 -43 1751 58T1650 303Q1650 446 1751 547T1996 649ZM1996 522Q1905 522 1841 458T1776 303Q1776 212 1840 148T1996 84Q2087 84 2151 148T2215 303Q2215 394 2151 458T1996 522Z"/><glyph unicode="′" horiz-adv-x="405" d="M232 1045H129L172 1508H320L232 1045Z"/><glyph unicode="″" horiz-adv-x="633" d="M540 1045H436L480 1508H628L540 1045ZM152 1045H48L91 1508H239L152 1045Z"/><glyph unicode="‹" horiz-adv-x="514" d="M445 1088L222 542L445 0H297L75 542L297 1088H445Z"/><glyph unicode="›" horiz-adv-x="514" d="M70 0L293 545L70 1088H218L440 545L218 0H70Z"/><glyph unicode="‼" horiz-adv-x="1087" d="M373 1508V368H228V1508H373ZM855 1508V368H711V1508H855ZM302 220Q351 220 388 185T425 96Q425 44 389 8T302 -28Q252 -28 216 8T179 96Q179 150 216 185T302 220ZM785 220Q835 220 871 184T908 96Q908 44 872 8T785 -28Q734 -28 698 8T662 96Q662 148 698 184T785 220Z"/><glyph unicode="‾" horiz-adv-x="1135" d="M-42 1869H1177V1795H-42V1869Z"/><glyph unicode="⁄" horiz-adv-x="340" d="M-347 -37L576 1508H688L-237 -37H-347Z"/><glyph unicode="ⁿ" horiz-adv-x="729" d="M76 1256H191V1159Q284 1273 413 1273Q495 1273 554 1225T633 1111T653 925V575H538V901Q538 1007 528 1056T482 1136T389 1167Q323 1167 271 1120T205 1013T191 828V575H76V1256Z"/><glyph unicode="₣" horiz-adv-x="993" d="M325 415H606V277H325V0H179V277H0V415H179V1471H916V1326H325V866H916V721H325V415Z"/><glyph unicode="₤" horiz-adv-x="1135" d="M465 965H823V836H505L536 724H823V595H564Q574 527 574 458Q574 333 552 263Q743 112 825 112Q923 112 934 344H1075Q1075 178 1015 71T845 -37Q693 -37 503 123Q420 -37 263 -37Q182 -37 120 8T57 151Q57 249 124 316T279 383Q350 383 423 344Q430 408 430 452Q430 527 416 595H99V724H385L355 836H99V965H319Q282 1093 282 1171Q282 1317 389 1412T642 1508Q794 1508 886 1406T989 1125H853Q841 1374 647 1374Q538 1374 480 1315T422 1171Q422 1092 465 965ZM385 207Q320 248 271 248Q237 248 216 226T194 171Q194 139 213 118T262 96Q339 96 385 207Z"/><glyph unicode="₧" horiz-adv-x="2219" d="M1097 1088H1172V1492H1313V1088H1693Q1755 1116 1825 1116Q1979 1116 2127 969L2037 876Q1929 985 1818 985Q1757 985 1705 943T1653 835Q1653 784 1691 736T1861 619Q2002 546 2065 474T2128 292Q2128 166 2038 69T1798 -28Q1698 -28 1614 15T1478 126L1566 226Q1673 105 1793 105Q1870 105 1932 156T1994 286Q1994 350 1952 396T1780 509Q1646 579 1587 649T1527 828Q1527 903 1561 968H1313V0H1172V968H1082Q1049 852 974 789T789 705T430 684H325V0H178V1471H471Q713 1471 821 1447T1012 1327T1097 1088ZM325 1328V828Q545 825 570 825Q738 825 808 858T912 953T945 1079Q945 1151 905 1214T797 1303T585 1328H325Z"/><glyph unicode="€" horiz-adv-x="1135" d="M197 965Q274 1216 481 1361T958 1507Q1023 1507 1118 1493L1081 1352Q1023 1364 961 1364Q762 1364 599 1258T360 965H999L963 827H326Q319 781 319 731Q319 701 324 653H915L879 516H354Q423 321 589 211T969 100Q1034 100 1108 117V-23Q1044 -35 958 -35Q677 -35 473 111T195 516H47L82 653H170Q166 709 166 743Q166 775 170 827H47L84 965H197Z"/><glyph unicode="℅" horiz-adv-x="1783" d="M690 1336L596 1283Q524 1401 392 1401Q287 1401 225 1325T162 1152Q162 1048 226 973T392 898Q519 898 597 1016L690 960Q589 794 389 794Q223 794 135 905T46 1145Q46 1297 145 1402T396 1508Q594 1508 690 1336ZM373 -37L1297 1508H1408L483 -37H373ZM1414 698Q1554 698 1645 591T1737 339Q1737 196 1647 90T1414 -17Q1276 -17 1184 88T1092 339Q1092 484 1183 591T1414 698ZM1414 587Q1331 587 1270 514T1209 337Q1209 234 1268 163T1414 91Q1502 91 1561 162T1620 337Q1620 440 1559 513T1414 587Z"/><glyph unicode="ℓ" horiz-adv-x="734" d="M41 422L218 657V1112Q218 1334 278 1412T449 1491Q556 1491 614 1421T672 1256Q672 1160 611 1026T387 665V250Q387 167 400 143T443 118Q495 118 642 225V63Q538 -24 417 -24Q320 -24 269 35T218 217V442L139 344L41 422ZM387 899Q478 1056 505 1122T532 1251Q532 1311 510 1341T456 1371Q414 1371 401 1321T387 1126V899Z"/><glyph unicode="№" horiz-adv-x="2249" d="M180 0V1471H212L1190 345V1471H1335V0H1302L332 1112V0H180ZM2194 633Q2194 491 2093 389T1849 287Q1705 287 1604 388T1503 633Q1503 776 1604 877T1849 979Q1991 979 2092 878T2194 633ZM2068 633Q2068 724 2004 788T1849 853Q1758 853 1694 789T1629 633Q1629 542 1693 478T1849 414Q1939 414 2003 478T2068 633ZM1503 102H2194V0H1503V102Z"/><glyph unicode="™" horiz-adv-x="2048" d="M1966 1513V651H1816V1361L1495 651H1396L1085 1361V651H936V1513H1179L1446 916L1728 1513H1966ZM770 1513V1376H465V651H315V1376H12V1513H770Z"/><glyph unicode="Ω" horiz-adv-x="1573" d="M496 160Q370 239 300 327T190 537T150 802Q150 1012 234 1172T466 1418T808 1503Q1131 1503 1310 1267Q1455 1077 1455 801Q1455 663 1416 545T1304 333T1111 160L1475 166V0H900V177Q990 222 1044 272Q1136 360 1191 491T1247 777Q1247 948 1187 1082T1031 1278T804 1340Q609 1340 486 1193T362 780Q362 560 454 406T704 180V0H127V168L496 160Z"/><glyph unicode="℮" horiz-adv-x="1229" d="M321 531V160Q441 39 619 39Q873 39 1014 285L1086 242Q968 72 855 19T619 -34Q387 -34 239 124T90 531Q90 783 239 939T619 1096Q833 1096 985 954T1148 531H321ZM917 605V902Q793 1023 617 1023Q442 1023 321 901V605H917Z"/><glyph unicode="⅛" horiz-adv-x="1702" d="M284 -37L1207 1508H1319L394 -37H284ZM225 1489H412V733H302V1391H152L225 1489ZM1509 414Q1655 346 1655 220Q1655 125 1577 54T1360 -18Q1216 -18 1142 55T1067 214Q1067 344 1218 414Q1109 470 1109 574Q1109 655 1184 715T1366 775Q1475 775 1545 714T1615 570Q1615 470 1509 414ZM1504 574Q1504 619 1466 647T1362 676Q1304 676 1262 647T1220 572Q1220 524 1264 491T1364 457Q1421 457 1462 491T1504 574ZM1544 219Q1544 280 1493 321T1366 363Q1292 363 1236 322T1179 212Q1179 145 1233 113T1362 80Q1440 80 1492 119T1544 219Z"/><glyph unicode="⅜" horiz-adv-x="1702" d="M173 1293H61Q115 1508 332 1508Q441 1508 517 1449T594 1304Q594 1218 503 1159Q641 1093 641 967Q641 865 556 790T334 715Q79 715 33 956H142Q176 814 335 814Q425 814 478 858T531 959Q531 1013 479 1057T277 1104V1198Q365 1198 422 1227T479 1306Q479 1347 437 1378T333 1409Q220 1409 173 1293ZM333 -37L1257 1508H1368L444 -37H333ZM1509 414Q1655 346 1655 220Q1655 125 1577 54T1360 -18Q1222 -18 1145 52T1067 214Q1067 344 1217 414Q1109 470 1109 574Q1109 655 1184 715T1365 775Q1474 775 1544 714T1614 570Q1614 470 1509 414ZM1503 574Q1503 619 1465 647T1361 676Q1303 676 1262 647T1220 572Q1220 524 1264 491T1364 457Q1421 457 1462 491T1503 574ZM1544 219Q1544 280 1493 321T1366 363Q1292 363 1235 322T1178 212Q1178 145 1232 113T1361 80Q1440 80 1492 119T1544 219Z"/><glyph unicode="⅝" horiz-adv-x="1702" d="M333 -37L1257 1508H1368L444 -37H333ZM613 1489V1392H300L262 1220Q305 1230 350 1230Q479 1230 557 1158T635 982Q635 873 550 794T321 715Q199 715 125 778T42 926H155Q183 813 325 813Q406 813 464 862T522 985Q522 1051 470 1091T330 1132Q250 1132 129 1102L214 1489H613ZM1509 414Q1654 346 1654 220Q1654 125 1577 54T1360 -18Q1215 -18 1141 55T1067 214Q1067 344 1217 414Q1109 470 1109 574Q1109 655 1184 715T1365 775Q1470 775 1542 715T1614 570Q1614 470 1509 414ZM1503 574Q1503 619 1465 647T1361 676Q1303 676 1262 647T1220 572Q1220 524 1264 491T1364 457Q1421 457 1462 491T1503 574ZM1544 219Q1544 280 1493 321T1366 363Q1292 363 1235 322T1178 212Q1178 145 1232 113T1361 80Q1440 80 1492 119T1544 219Z"/><glyph unicode="⅞" horiz-adv-x="1702" d="M259 -37L1182 1508H1293L369 -37H259ZM81 1489H660L185 715L94 755L482 1392H81V1489ZM1509 414Q1655 346 1655 220Q1655 125 1577 54T1360 -18Q1216 -18 1142 55T1067 214Q1067 344 1218 414Q1109 470 1109 574Q1109 655 1184 715T1366 775Q1471 775 1543 715T1615 570Q1615 470 1509 414ZM1504 574Q1504 619 1466 647T1362 676Q1304 676 1262 647T1220 572Q1220 524 1264 491T1364 457Q1421 457 1462 491T1504 574ZM1544 219Q1544 280 1492 321T1366 363Q1292 363 1235 322T1178 212Q1178 145 1232 113T1362 80Q1440 80 1492 119T1544 219Z"/><glyph unicode="←" horiz-adv-x="2048" d="M492 876H568Q487 706 373 567H1968V466H373Q475 364 571 157H493Q270 410 79 498V543Q256 614 492 876Z"/><glyph unicode="↑" horiz-adv-x="1024" d="M153 1050Q415 1286 486 1463H532Q619 1271 872 1048V971Q665 1067 563 1168V-429H462V1168Q323 1054 153 973V1050Z"/><glyph unicode="→" horiz-adv-x="2048" d="M1555 876Q1792 614 1968 543V498Q1777 410 1554 157H1477Q1572 364 1674 466H79V567H1674Q1560 706 1479 876H1555Z"/><glyph unicode="↓" horiz-adv-x="1024" d="M153 -16V60Q323 -21 462 -135V1463H563V-135Q665 -33 872 62V-15Q619 -238 532 -429H486Q415 -253 153 -16Z"/><glyph unicode="↔" horiz-adv-x="2048" d="M1968 540V495Q1787 416 1562 158H1482Q1551 330 1676 469H371Q496 330 565 158H485Q261 416 79 495V540Q261 619 485 878H565Q496 706 371 567H1676Q1551 706 1482 878H1562Q1787 619 1968 540Z"/><glyph unicode="↕" horiz-adv-x="1024" d="M489 1463H534Q613 1281 871 1056V976Q700 1045 560 1171V-135Q700 -9 871 59V-20Q613 -245 534 -427H489Q410 -245 152 -20V59Q323 -9 463 -135V1171Q323 1045 152 976V1056Q410 1281 489 1463Z"/><glyph unicode="↨" horiz-adv-x="1024" d="M489 1463H534Q613 1281 871 1056V976Q700 1045 560 1171V-135Q700 -9 871 59V-20Q613 -245 534 -427H489Q410 -245 152 -20V59Q323 -9 463 -135V1171Q323 1045 152 976V1056Q410 1281 489 1463ZM154 -522H871V-620H154V-522Z"/><glyph unicode="∂" horiz-adv-x="1012" d="M426 1138L291 1198Q358 1347 454 1419T651 1491Q739 1491 813 1435T930 1254T973 926Q973 631 886 412T654 84T364 -25Q226 -25 141 67T56 322Q56 558 220 720Q419 916 858 924Q854 1115 829 1200T757 1324T653 1363Q510 1363 426 1138ZM854 796Q606 781 495 727T310 552T236 303Q236 220 287 166T406 112Q493 112 592 185T760 409T854 796Z"/><glyph unicode="∆" horiz-adv-x="1253" d="M1226 0H26L654 1387L1226 0ZM990 82L591 1049L151 82H990Z"/><glyph unicode="∏" horiz-adv-x="1685" d="M162 1536H1524V-426H1333V1362H355V-426H162V1536Z"/><glyph unicode="∑" horiz-adv-x="1460" d="M139 1536H1376V1372H388L995 576L349 -265H1386V-426H122V-239L742 569L139 1360V1536Z"/><glyph unicode="−" horiz-adv-x="1241" d="M115 804H1127V667H115V804Z"/><glyph unicode="∕" horiz-adv-x="340" d="M-347 -37L576 1508H688L-237 -37H-347Z"/><glyph unicode="∙" horiz-adv-x="567" d="M284 859Q335 859 371 823T407 735Q407 684 371 648T284 611Q233 611 197 647T161 735Q161 787 197 823T284 859Z"/><glyph unicode="√" horiz-adv-x="1124" d="M1047 1869H1121L809 -78L313 943L115 852L81 916L382 1067L787 244L1047 1869Z"/><glyph unicode="∞" horiz-adv-x="1460" d="M687 812Q804 958 873 1001T1020 1044Q1130 1044 1219 966T1308 723Q1308 555 1224 472T1020 388Q933 388 864 437T687 620Q551 449 398 449Q296 449 224 526T152 716Q152 828 224 905T398 983Q551 983 687 812ZM756 717Q839 589 908 537Q958 499 1018 499Q1095 499 1146 555T1197 713Q1197 818 1145 874T1014 931Q961 931 911 895T756 717ZM618 716Q541 813 493 843T398 873Q339 873 301 832T263 719Q263 649 302 606T400 563Q501 563 618 716Z"/><glyph unicode="∟" horiz-adv-x="2005" d="M362 1279H462V100H1643V0H362V1279Z"/><glyph unicode="∩" horiz-adv-x="1206" d="M239 0H129V621L131 859Q132 975 149 1068T208 1237T314 1372T453 1462T603 1492Q721 1492 828 1424T993 1250T1064 1026T1078 621V0H968V628Q968 871 958 976T906 1166T779 1306T603 1361Q513 1361 429 1306T303 1169T250 980T239 628V0Z"/><glyph unicode="∫" horiz-adv-x="561" d="M201 948Q201 1157 217 1447Q227 1631 271 1739Q296 1799 342 1831T435 1863Q484 1863 522 1830T560 1756Q560 1710 534 1681T468 1652Q433 1652 392 1688Q369 1708 352 1708Q334 1708 323 1694T312 1644Q312 1602 321 1499Q358 1089 358 834Q358 767 343 267Q334 -38 259 -143Q204 -220 118 -220Q66 -220 33 -186T0 -99Q0 -55 25 -28T90 0Q130 0 160 -33Q188 -64 208 -64Q225 -64 236 -50T247 -3Q247 39 238 117Q201 433 201 948Z"/><glyph unicode="≈" horiz-adv-x="1124" d="M1070 1023V861Q958 798 910 782T818 765Q723 765 553 842Q421 902 385 913T316 925Q272 925 219 906T54 820V980Q164 1043 213 1059T308 1076Q405 1076 576 995Q694 939 737 926T816 912Q858 912 901 928T1070 1023ZM1070 651V489Q958 426 910 410T818 393Q723 393 553 470Q421 530 385 541T316 553Q272 553 219 534T54 448V608Q164 670 213 687T308 704Q405 704 576 623Q694 567 737 554T816 540Q858 540 901 556T1070 651Z"/><glyph unicode="≠" horiz-adv-x="1124" d="M742 1024H1068V887H689L572 584H1068V447H519L332 -37H194L380 447H56V584H433L549 887H56V1024H601L787 1508H929L742 1024Z"/><glyph unicode="≡" horiz-adv-x="1241" d="M1127 1205V1068H115V1205H1127ZM115 804H1127V667H115V804ZM1127 403V266H115V403H1127Z"/><glyph unicode="≤" horiz-adv-x="1124" d="M1079 481V335L46 804V934L1079 1405V1258L240 868L1079 481ZM1079 231V94H46V231H1079Z"/><glyph unicode="≥" horiz-adv-x="1124" d="M46 481L885 868L46 1258V1405L1079 934V804L46 335V481ZM1079 231V94H46V231H1079Z"/><glyph unicode="⌂" horiz-adv-x="1229" d="M153 0V634L614 1153L1076 634V0H153ZM234 81H995V600L614 1027L234 600V81Z"/><glyph unicode="⌐" horiz-adv-x="1241" d="M115 1024H1127V887H252V447H115V1024Z"/><glyph unicode="⌠" horiz-adv-x="1229" d="M687 -515H542V1296Q542 1503 628 1620T834 1737Q908 1737 940 1703T972 1628Q972 1587 946 1562T884 1536Q850 1536 829 1549T786 1597Q762 1634 739 1634Q710 1634 699 1610T687 1456V-515Z"/><glyph unicode="⌡" horiz-adv-x="1229" d="M542 1737H687V-74Q687 -281 601 -398T395 -515Q336 -515 297 -487T257 -406Q257 -365 283 -340T344 -314Q379 -314 400 -328T443 -375Q467 -412 490 -412Q519 -412 530 -388T542 -234V1737Z"/><glyph unicode="─" horiz-adv-x="1460" d="M1478 534H-18V709H1478V534Z"/><glyph unicode="│" horiz-adv-x="1460" d="M643 -621V1864H818V-621H643Z"/><glyph unicode="┌" horiz-adv-x="1460" d="M1479 709V534H818V-621H643V709H1479Z"/><glyph unicode="┐" horiz-adv-x="1460" d="M642 534H-18V709H817V-621H642V534Z"/><glyph unicode="└" horiz-adv-x="1460" d="M643 534V1864H818V709H1479V534H643Z"/><glyph unicode="┘" horiz-adv-x="1460" d="M817 534H-18V709H642V1864H817V534Z"/><glyph unicode="├" horiz-adv-x="1460" d="M643 -621V1864H818V709H1479V534H818V-621H643Z"/><glyph unicode="┤" horiz-adv-x="1460" d="M642 -621V534H-18V709H642V1864H817V-621H642Z"/><glyph unicode="┬" horiz-adv-x="1460" d="M642 534H-18V709H1478V534H817V-621H642V534Z"/><glyph unicode="┴" horiz-adv-x="1460" d="M1478 534H-18V709H642V1864H817V709H1478V534Z"/><glyph unicode="┼" horiz-adv-x="1460" d="M642 534H-18V709H642V1864H817V709H1478V534H817V-621H642V534Z"/><glyph unicode="═" horiz-adv-x="1460" d="M1478 724H-18V899H1478V724ZM1478 344H-18V519H1478V344Z"/><glyph unicode="║" horiz-adv-x="1460" d="M833 -621V1864H1008V-621H833ZM453 -621V1864H628V-621H453Z"/><glyph unicode="╒" horiz-adv-x="1460" d="M643 -621V899H1479V724H818V519H1479V344H818V-621H643Z"/><glyph unicode="╓" horiz-adv-x="1460" d="M453 -621V709H1479V534H1008V-621H833V519H628V-621H453Z"/><glyph unicode="╔" horiz-adv-x="1460" d="M628 -621H453V899H1478V724H628V-621ZM1008 344V-621H833V519H1478V344H1008Z"/><glyph unicode="╕" horiz-adv-x="1460" d="M642 344H-18V519H642V724H-18V899H817V-621H642V344Z"/><glyph unicode="╖" horiz-adv-x="1460" d="M452 -621V534H-18V709H1007V-621H832V534H627V-621H452Z"/><glyph unicode="╗" horiz-adv-x="1460" d="M832 -621V724H-18V899H1007V-621H832ZM452 344H-18V519H627V-621H452V344Z"/><glyph unicode="╘" horiz-adv-x="1460" d="M643 344V1864H818V899H1479V724H818V519H1479V344H643Z"/><glyph unicode="╙" horiz-adv-x="1460" d="M1478 534H453V1864H628V709H833V1864H1008V709H1478V534Z"/><glyph unicode="╚" horiz-adv-x="1460" d="M628 1864V519H1478V344H453V1864H628ZM1008 899H1478V724H833V1864H1008V899Z"/><glyph unicode="╛" horiz-adv-x="1460" d="M817 344H-18V519H642V724H-18V899H642V1864H817V344Z"/><glyph unicode="╜" horiz-adv-x="1460" d="M1007 534H-18V709H452V1864H627V709H832V1864H1007V534Z"/><glyph unicode="╝" horiz-adv-x="1460" d="M832 1864H1007V344H-18V519H832V1864ZM452 899V1864H627V724H-18V899H452Z"/><glyph unicode="╞" horiz-adv-x="1460" d="M643 -621V1864H818V899H1479V724H818V519H1479V344H818V-621H643Z"/><glyph unicode="╟" horiz-adv-x="1460" d="M833 -621V1864H1008V709H1479V534H1008V-621H833ZM453 -621V1864H628V-621H453Z"/><glyph unicode="╠" horiz-adv-x="1460" d="M453 -621V1864H628V-621H453ZM833 724V1864H1008V899H1479V724H833ZM833 -621V519H1479V344H1008V-621H833Z"/><glyph unicode="╡" horiz-adv-x="1460" d="M642 344H-18V519H642V724H-18V899H642V1864H817V-621H642V344Z"/><glyph unicode="╢" horiz-adv-x="1460" d="M452 -621V534H-18V709H452V1864H627V-621H452ZM832 -621V1864H1007V-621H832Z"/><glyph unicode="╣" horiz-adv-x="1460" d="M832 -621V1864H1007V-621H832ZM627 1864V724H-18V899H452V1864H627ZM452 344H-18V519H627V-621H452V344Z"/><glyph unicode="╤" horiz-adv-x="1460" d="M1478 724H-18V899H1478V724ZM642 344H-18V519H1478V344H817V-621H642V344Z"/><glyph unicode="╥" horiz-adv-x="1460" d="M452 -621V534H-18V709H1478V534H1007V-621H832V519H627V-621H452Z"/><glyph unicode="╦" horiz-adv-x="1460" d="M1478 724H-18V899H1478V724ZM452 344H-18V519H627V-621H452V344ZM832 -621V519H1478V344H1007V-621H832Z"/><glyph unicode="╧" horiz-adv-x="1460" d="M1478 724H-18V899H642V1864H817V899H1478V724ZM1478 344H-18V519H1478V344Z"/><glyph unicode="╨" horiz-adv-x="1460" d="M1478 534H-18V709H452V1864H627V709H832V1864H1007V709H1478V534Z"/><glyph unicode="╩" horiz-adv-x="1460" d="M627 724H-18V899H452V1864H627V724ZM1478 724H832V1864H1007V899H1478V724ZM1478 344H-18V519H1478V344Z"/><glyph unicode="╪" horiz-adv-x="1460" d="M642 344H-18V519H642V724H-18V899H642V1864H817V899H1478V724H817V519H1478V344H817V-621H642V344Z"/><glyph unicode="╫" horiz-adv-x="1460" d="M452 -621V534H-18V709H452V1864H627V709H832V1864H1007V709H1478V534H1007V-621H832V534H627V-621H452Z"/><glyph unicode="╬" horiz-adv-x="1460" d="M1008 899H1478V724H833V1864H1008V899ZM452 899V1864H627V724H-18V899H452ZM452 344H-18V519H627V-621H452V344ZM1008 344V-621H833V519H1478V344H1008Z"/><glyph unicode="▀" horiz-adv-x="1460" d="M1478 621H-18V1864H1478V621Z"/><glyph unicode="▄" horiz-adv-x="1460" d="M1478 -621H-18V621H1478V-621Z"/><glyph unicode="█" horiz-adv-x="1460" d="M-18 -621V1864H1478V-621H-18Z"/><glyph unicode="▌" horiz-adv-x="1460" d="M-18 -621V1864H730V-621H-18Z"/><glyph unicode="▐" horiz-adv-x="1460" d="M730 -621V1864H1478V-621H730Z"/><glyph unicode="░" horiz-adv-x="1460" d="M107 1864H232V1739H107V1864ZM605 1864H730V1739H605V1864ZM1104 1864H1229V1739H1104V1864ZM356 1615H481V1490H356V1615ZM855 1615H979V1490H855V1615ZM1353 1615H1478V1490H1353V1615ZM1104 1366H1229V1241H1104V1366ZM605 1366H730V1241H605V1366ZM107 1366H232V1241H107V1366ZM1353 1116H1478V992H1353V1116ZM855 1116H979V992H855V1116ZM356 1116H481V992H356V1116ZM107 867H232V742H107V867ZM605 867H730V742H605V867ZM1104 867H1229V742H1104V867ZM1353 618H1478V493H1353V618ZM855 618H979V493H855V618ZM356 618H481V493H356V618ZM107 369H232V244H107V369ZM605 369H730V244H605V369ZM1104 369H1229V244H1104V369ZM356 119H481V-5H356V119ZM855 119H979V-5H855V119ZM1353 119H1478V-5H1353V119ZM1104 -130H1229V-255H1104V-130ZM605 -130H730V-255H605V-130ZM107 -130H232V-255H107V-130ZM356 -379H481V-504H356V-379ZM855 -379H979V-504H855V-379ZM1353 -379H1478V-504H1353V-379Z"/><glyph unicode="▒" horiz-adv-x="1460" d="M107 1864H231V1739H107V1864ZM356 1864H480V1739H356V1864ZM605 1864H730V1739H605V1864ZM854 1864H979V1739H854V1864ZM1104 1864H1228V1739H1104V1864ZM1353 1864H1477V1739H1353V1864ZM-18 1615H107V1490H-18V1615ZM231 1615H356V1490H231V1615ZM480 1615H605V1490H480V1615ZM730 1615H854V1490H730V1615ZM979 1615H1104V1490H979V1615ZM1228 1615H1353V1490H1228V1615ZM107 1366H231V1241H107V1366ZM356 1366H480V1241H356V1366ZM605 1366H730V1241H605V1366ZM854 1366H979V1241H854V1366ZM1104 1366H1228V1241H1104V1366ZM1353 1366H1477V1241H1353V1366ZM-18 1116H107V992H-18V1116ZM231 1116H356V992H231V1116ZM480 1116H605V992H480V1116ZM730 1116H854V992H730V1116ZM979 1116H1104V992H979V1116ZM1228 1116H1353V992H1228V1116ZM107 867H231V742H107V867ZM356 867H480V742H356V867ZM605 867H730V742H605V867ZM854 867H979V742H854V867ZM1104 867H1228V742H1104V867ZM1353 867H1477V742H1353V867ZM-18 618H107V493H-18V618ZM480 618H605V493H480V618ZM730 618H854V493H730V618ZM979 618H1104V493H979V618ZM1228 618H1353V493H1228V618ZM231 618H356V493H231V618ZM1353 369H1477V244H1353V369ZM1104 369H1228V244H1104V369ZM854 369H979V244H854V369ZM605 369H730V244H605V369ZM356 369H480V244H356V369ZM107 369H231V244H107V369ZM-18 119H107V-5H-18V119ZM231 119H356V-5H231V119ZM480 119H605V-5H480V119ZM730 119H854V-5H730V119ZM979 119H1104V-5H979V119ZM1228 119H1353V-5H1228V119ZM1353 -130H1477V-255H1353V-130ZM1104 -130H1228V-255H1104V-130ZM854 -130H979V-255H854V-130ZM605 -130H730V-255H605V-130ZM356 -130H480V-255H356V-130ZM107 -130H231V-255H107V-130ZM-18 -379H107V-504H-18V-379ZM231 -379H356V-504H231V-379ZM480 -379H605V-504H480V-379ZM730 -379H854V-504H730V-379ZM979 -379H1104V-504H979V-379ZM1228 -379H1353V-504H1228V-379Z"/><glyph unicode="▓" horiz-adv-x="1495" d="M1495 1490V1116H1371V992H1495V618H1371V493H1495V119H1371V-5H1495V-379H1371V-504H1495V-628H0V-255H125V-130H0V244H125V369H0V742H125V867H0V1241H125V1366H0V1739H125V1864H249V1739H374V1864H498V1739H623V1864H748V1739H872V1864H997V1739H1122V1864H1246V1739H1371V1864H1495V1615H1371V1490H1495ZM125 1615V1490H249V1615H125ZM374 1615V1490H498V1615H374ZM623 1615V1490H748V1615H623ZM872 1615V1490H997V1615H872ZM1122 1615V1490H1246V1615H1122ZM1371 1366H1246V1241H1371V1366ZM1122 1366H997V1241H1122V1366ZM872 1366H748V1241H872V1366ZM623 1366H498V1241H623V1366ZM374 1366H249V1241H374V1366ZM125 1116V992H249V1116H125ZM374 1116V992H498V1116H374ZM623 1116V992H748V1116H623ZM872 1116V992H997V1116H872ZM1122 1116V992H1246V1116H1122ZM374 867H249V742H374V867ZM498 867V742H623V867H498ZM748 867V742H872V867H748ZM997 867V742H1122V867H997ZM1246 867V742H1371V867H1246ZM125 618V493H249V618H125ZM623 618V493H748V618H623ZM498 493V618H374V493H498ZM872 618V493H997V618H872ZM1122 618V493H1246V618H1122ZM1371 244V369H1246V244H1371ZM1122 244V369H997V244H1122ZM872 244V369H748V244H872ZM623 244V369H498V244H623ZM374 244V369H249V244H374ZM125 119V-5H249V119H125ZM374 119V-5H498V119H374ZM623 119V-5H748V119H623ZM872 119V-5H997V119H872ZM1122 119V-5H1246V119H1122ZM1371 -255V-130H1246V-255H1371ZM1122 -255V-130H997V-255H1122ZM872 -255V-130H748V-255H872ZM623 -255V-130H498V-255H623ZM374 -255V-130H249V-255H374ZM125 -379V-504H249V-379H125ZM374 -379V-504H498V-379H374ZM623 -379V-504H748V-379H623ZM872 -379V-504H997V-379H872ZM1122 -379V-504H1246V-379H1122Z"/><glyph unicode="■" horiz-adv-x="1237" d="M146 944H1090V0H146V944Z"/><glyph unicode="□" horiz-adv-x="1237" d="M146 944H1090V0H146V944ZM222 868V76H1014V868H222Z"/><glyph unicode="▪" horiz-adv-x="726" d="M594 909V445H131V908L594 909Z"/><glyph unicode="▫" horiz-adv-x="726" d="M594 909V445H131V908L594 909ZM518 833L207 832V521H518V833Z"/><glyph unicode="▬" horiz-adv-x="2048" d="M0 703H2047V317H0V703Z"/><glyph unicode="▲" horiz-adv-x="2027" d="M304 0L1014 1419L1724 0H304Z"/><glyph unicode="►" horiz-adv-x="2027" d="M288 1417L1739 693L288 -31V1417Z"/><glyph unicode="▼" horiz-adv-x="2027" d="M1724 1388L1014 -31L304 1388H1724Z"/><glyph unicode="◄" horiz-adv-x="2027" d="M1739 1417V-31L288 693L1739 1417Z"/><glyph unicode="◊" horiz-adv-x="1012" d="M549 1422L967 709L549 0H438L47 709L438 1422H549ZM495 1325L155 709L495 94L854 709L495 1325Z"/><glyph unicode="○" horiz-adv-x="1229" d="M1055 578Q1055 396 926 267T615 137Q432 137 303 266T174 578Q174 760 303 889T614 1018Q797 1018 926 889T1055 578ZM979 578Q979 728 872 835T615 942Q464 942 357 835T250 578Q250 429 357 321T615 213Q765 213 872 320T979 578Z"/><glyph unicode="●" horiz-adv-x="1237" d="M619 1018Q800 1018 929 889T1059 578Q1059 396 930 267T619 137Q437 137 308 266T178 578Q178 767 309 892T619 1018Z"/><glyph unicode="◘" horiz-adv-x="1229" d="M124 0V980H1104V0H124ZM816 490Q816 573 757 632T614 692Q532 692 472 633T412 490Q412 407 471 348T614 288Q698 288 757 348T816 490Z"/><glyph unicode="◙" horiz-adv-x="1229" d="M38 0V1155H1193V0H38ZM1056 577Q1056 758 927 888T616 1018Q433 1018 304 888T175 577Q175 396 304 267T616 137Q797 137 926 266T1056 577ZM980 577Q980 427 873 320T616 213Q465 213 358 320T251 577Q251 728 358 835T616 942Q766 942 873 836T980 577Z"/><glyph unicode="◦" horiz-adv-x="726" d="M363 928Q464 928 539 856T614 677Q614 573 541 500T363 426Q259 426 186 499T112 677Q112 781 186 854T363 928ZM363 852Q292 852 240 802T188 677Q188 604 239 553T363 502Q435 502 486 553T538 677Q538 751 486 801T363 852Z"/><glyph unicode="☺" horiz-adv-x="2091" d="M1683 518Q1683 256 1496 69T1046 -119Q782 -119 595 67T408 518Q408 781 595 968T1046 1156Q1310 1156 1496 970T1683 518ZM1591 518Q1591 743 1431 903T1046 1063Q821 1063 661 903T501 518Q501 294 661 134T1046 -26Q1270 -26 1430 134T1591 518ZM882 650Q882 617 859 593T801 569Q768 569 744 593T720 650Q720 684 744 707T801 731Q835 731 858 708T882 650ZM1371 650Q1371 617 1347 593T1290 569Q1257 569 1233 593T1209 650Q1209 684 1233 707T1290 731Q1323 731 1347 708T1371 650ZM752 313L814 349Q893 205 1046 205Q1199 205 1277 349L1340 313Q1236 118 1046 118Q855 118 752 313Z"/><glyph unicode="☻" horiz-adv-x="2155" d="M1715 518Q1715 256 1528 69T1078 -119Q814 -119 627 67T440 518Q440 781 627 968T1078 1156Q1342 1156 1528 970T1715 518ZM914 650Q914 684 891 707T833 731Q800 731 776 708T752 650Q752 617 776 593T833 569Q867 569 890 593T914 650ZM1403 650Q1403 684 1379 707T1322 731Q1289 731 1265 708T1241 650Q1241 617 1265 593T1322 569Q1355 569 1379 593T1403 650ZM784 313Q887 118 1078 118Q1268 118 1372 313L1309 349Q1231 205 1078 205Q925 205 846 349L784 313Z"/><glyph unicode="☼" horiz-adv-x="1878" d="M902 1621H978V1284Q1169 1277 1328 1144L1617 1427L1669 1374L1383 1088Q1523 913 1526 730H1862V661H1526Q1512 471 1383 313L1669 24L1612 -27L1328 253Q1161 128 978 114V-223H902V114Q699 139 557 253L261 -27L212 24L496 313Q371 466 352 665H16V734H352Q366 931 496 1083L212 1370L261 1427L552 1144Q732 1274 902 1284V1621ZM1450 699Q1450 911 1300 1061T937 1211Q726 1211 576 1061T425 699Q425 488 575 337T937 186Q1148 186 1299 337T1450 699Z"/><glyph unicode="♀" horiz-adv-x="1131" d="M591 481V116H1008V62H591V-337H537V62H119V116H537V481Q456 481 348 532T164 700T89 956Q89 1152 228 1292T565 1432Q761 1432 901 1292T1041 956Q1041 771 914 633T591 481ZM992 955Q992 1131 867 1256T565 1381Q389 1381 264 1256T138 955Q138 779 263 654T565 528Q741 528 866 653T992 955Z"/><glyph unicode="♂" horiz-adv-x="1366" d="M1107 1372L1136 1362Q1171 1003 1297 747L1272 731Q1123 919 1050 1146L755 511Q865 469 956 349T1047 81Q1047 -107 914 -223T588 -339Q383 -339 243 -205T102 118Q102 306 232 434T539 562Q615 562 709 529L1002 1165Q788 1075 545 1061V1088Q710 1139 800 1185T1107 1372ZM531 516Q373 516 259 403T145 134Q145 -38 261 -148T536 -259Q698 -259 809 -146T921 122Q921 291 803 403T531 516Z"/><glyph unicode="♠" horiz-adv-x="1092" d="M547 1231Q565 1149 611 1062T815 832Q937 721 984 651T1032 499Q1032 403 968 339T812 275Q658 275 558 465Q558 235 659 140T936 37L943 0H150L158 37Q340 37 440 142T541 424V465Q451 275 279 275Q187 275 124 341T60 496Q60 646 248 801Q510 1016 547 1231Z"/><glyph unicode="♣" horiz-adv-x="1354" d="M1103 0H255L263 34Q416 67 482 102T607 241T666 469L665 511Q610 394 522 334T338 273Q223 273 142 354T60 553Q60 664 132 746T302 828Q366 828 465 777Q398 883 398 959Q398 1072 477 1151T674 1231Q792 1231 872 1152T953 964Q953 870 884 777Q990 830 1046 830Q1151 830 1222 748T1293 557Q1293 437 1212 356T1019 274Q941 274 852 323T687 511Q691 354 735 261T857 116T1095 34L1103 0Z"/><glyph unicode="♥" horiz-adv-x="1210" d="M607 -24Q575 98 515 204T239 594Q138 727 99 806T60 969Q60 1079 134 1154T317 1230Q523 1230 607 979Q641 1108 720 1169T892 1231Q1001 1231 1075 1156T1150 979Q1150 895 1110 800T936 536Q652 176 607 -24Z"/><glyph unicode="♦" horiz-adv-x="1038" d="M517 1231Q710 908 978 604Q926 552 764 339T517 -24Q416 166 60 604Q384 987 517 1231Z"/><glyph unicode="♪" horiz-adv-x="1579" d="M926 1535H986Q1150 1435 1352 1226T1554 941Q1554 925 1534 897T1495 868Q1467 868 1432 912Q1377 978 1237 1102T995 1290L1021 -84Q1021 -206 950 -277T733 -408T441 -469Q244 -469 135 -370T26 -142Q26 17 188 137T561 257Q753 257 957 163L926 1535Z"/><glyph unicode="♫" horiz-adv-x="2048" d="M832 1195L1766 1486V185Q1766 37 1729 -36T1604 -157T1403 -205Q1258 -205 1191 -128T1123 58Q1123 175 1213 260T1447 345Q1531 345 1647 295V1145L948 928V-53Q948 -176 919 -256T798 -392T581 -449Q460 -449 382 -380T304 -188Q304 -59 397 22T627 104Q722 104 832 50V1195Z"/><glyph unicode="" horiz-adv-x="1617"/><glyph unicode="" horiz-adv-x="997" d="M858 1264H716Q687 1402 549 1402Q487 1402 446 1375T386 1302T368 1136V1088H594V965H368V0H226V965H84V1088H226V1136Q226 1293 261 1368T371 1490T551 1536Q683 1536 766 1460T858 1264ZM716 1088H858V0H716V1088Z"/><glyph unicode="" horiz-adv-x="993" d="M603 1088V964H379V0H235V964H92V1088H235V1124Q235 1293 268 1367T377 1488T552 1536Q652 1536 727 1487T834 1365T865 1107V0H722V1115Q722 1253 707 1300T649 1377T550 1406Q494 1406 452 1376T391 1290Q379 1250 379 1088H603Z"/><glyph unicode="" horiz-adv-x="705" d="M562 1528V1000H667V903H562V733H451V903H19L562 1528ZM451 1000V1248L237 1000H451Z"/><glyph unicode="" horiz-adv-x="682" d="M326 -121L448 -178L265 -518L176 -480L326 -121Z"/><glyph unicode="" horiz-adv-x="664" d="M233 -127Q279 -112 328 -112Q485 -112 485 -222Q485 -291 423 -335T255 -380Q193 -380 110 -358L132 -287Q200 -301 236 -301Q366 -301 366 -236Q366 -193 293 -193Q266 -193 221 -206L233 -127Z"/><glyph unicode="" horiz-adv-x="1124" d="M0 1063H1124V905H962V0H773V905H347V0H159V905H0V1063Z"/><glyph unicode="" horiz-adv-x="1111" d="M177 1467H1066V1293H371V0H177V1467Z"/><glyph unicode="" horiz-adv-x="1530" d="M773 1503Q1072 1503 1243 1300T1415 731Q1415 506 1342 327T1120 54T776 -40Q565 -40 424 46T199 307T115 734Q115 1082 282 1292T773 1503ZM773 1345Q559 1345 440 1195T321 737Q321 515 375 386T525 187T761 118Q972 118 1091 267T1210 745Q1210 1028 1095 1186T773 1345ZM492 829H1039V662H492V829Z"/><glyph unicode="" horiz-adv-x="1713" d="M761 1503H955V1309Q1598 1286 1598 724Q1598 159 955 137V-175H761V137Q115 160 115 724Q115 988 265 1141T761 1309V1503ZM761 1155Q325 1151 325 723Q325 314 761 289V1155ZM955 1155V289Q1390 297 1390 724Q1390 1147 955 1155Z"/><glyph unicode="" horiz-adv-x="1287" d="M952 192Q815 -28 580 -28Q353 -28 229 126T104 507Q104 770 234 925T586 1080Q830 1080 947 883L991 1063H1186Q1115 803 1115 549Q1115 260 1199 0H997Q966 113 952 192ZM620 942Q474 942 394 833T314 521Q314 336 393 223T620 110Q766 110 846 214T927 531Q927 717 853 829T620 942Z"/><glyph unicode="" horiz-adv-x="1270" d="M652 942Q493 1065 444 1144T394 1307Q394 1423 493 1489T766 1556Q890 1556 997 1525V1393Q874 1413 810 1413Q711 1413 655 1378T599 1287Q599 1244 630 1203T745 1095Q989 904 1077 770T1166 480Q1166 265 1026 119T632 -28Q394 -28 249 116T104 485Q104 636 171 736T338 893T561 950Q597 950 652 942ZM641 841Q483 841 398 743T312 477Q312 306 399 207T637 108Q775 108 865 201T956 475Q956 629 879 735T641 841Z"/><glyph unicode="" horiz-adv-x="1047" d="M943 -12Q841 -28 746 -28Q446 -28 275 114T104 523Q104 765 257 922T714 1080Q814 1080 930 1066V919L904 921Q775 930 724 930Q358 930 317 610H922V469H315Q318 317 429 220T773 122Q869 122 943 138V-12Z"/><glyph unicode="" horiz-adv-x="1398" d="M1019 912Q1161 776 1161 529Q1161 276 1023 124T635 -28Q389 -28 247 120T104 528Q104 786 245 933T608 1080Q650 1080 764 1072Q808 1068 896 1064H1359V912H1019ZM640 955Q310 955 310 512Q310 332 391 220T630 108Q795 108 874 221T954 537Q954 718 879 836T640 955Z"/><glyph unicode="" horiz-adv-x="981" d="M41 1063H941V903H588V0H394V903H41V1063Z"/><glyph unicode="" horiz-adv-x="1580" d="M698 1332H886V1075Q1155 1071 1315 938T1476 545Q1476 371 1421 257T1226 66T884 -15V-387H694V-14Q448 -12 276 116T104 537Q104 807 264 937T698 1077V1332ZM696 941Q564 936 482 892T358 757T315 534Q315 124 696 122V941ZM886 941V122Q1266 125 1266 536Q1266 936 886 941Z"/><glyph unicode="ﬁ" horiz-adv-x="997" d="M858 1264H716Q687 1402 549 1402Q487 1402 446 1375T386 1302T368 1136V1088H594V965H368V0H226V965H84V1088H226V1136Q226 1293 261 1368T371 1490T551 1536Q683 1536 766 1460T858 1264ZM716 1088H858V0H716V1088Z"/><glyph unicode="ﬂ" horiz-adv-x="993" d="M603 1088V964H379V0H235V964H92V1088H235V1124Q235 1293 268 1367T377 1488T552 1536Q652 1536 727 1487T834 1365T865 1107V0H722V1115Q722 1253 707 1300T649 1377T550 1406Q494 1406 452 1376T391 1290Q379 1250 379 1088H603Z"/></font>
</defs>
</svg>
