<?xml version="1.0" encoding="UTF-8"?><svg xmlns="http://www.w3.org/2000/svg" width="100%" height="100%"><defs><font id="web" horiz-adv-x="1074"><!--



NOTICE: This font software is the valuable property 
of Monotype Imaging and/or its suppliers and its use 
by you is covered under the terms of the Web Font license 
agreement between you and Monotype Imaging. You may 
ONLY use this font software with the licensed web site. 
Except as specifically permitted by the license, you 
may not copy this font software. If you have any questions, 
please contact Monotype Imaging. 

For more information, please visit http://www.ascenderfonts.com/info/webfont-eula.aspx

Licensed to: Microsoft

Serial number: SH-00001
--><font-face font-family="" units-per-em="2048" panose-1="2 7 5 3 6 7 6 2 3 3" ascent="1878" descent="-485" alphabetic="0"/><missing-glyph horiz-adv-x="2048" d="M256 0V1536H1792V0H256ZM384 128H1664V1408H384V128Z"/><glyph unicode=" " horiz-adv-x="489"/><glyph unicode="!" horiz-adv-x="555" d="M305 426H254Q249 616 241 725T198 1027Q158 1255 158 1290Q158 1423 274 1423Q395 1423 395 1303Q395 1257 350 996Q308 755 305 426ZM162 96Q162 146 196 180T281 215Q329 215 364 180T399 96Q399 47 364 12T281 -23Q232 -23 197 12T162 96Z"/><glyph unicode="&quot;" horiz-adv-x="836" d="M575 840L521 1143Q500 1263 500 1303Q500 1423 596 1423Q640 1423 670 1395T700 1317Q700 1281 677 1154L618 840H575ZM211 840L156 1143Q135 1263 135 1303Q135 1423 231 1423Q276 1423 306 1395T336 1317Q336 1281 312 1154L254 840H211Z"/><glyph unicode="#" horiz-adv-x="1366" d="M88 973H414L502 1376H625L537 973H956L1042 1376H1165L1079 973H1278V850H1055L979 479H1278V356H956L868 -47H745L831 356H410L326 -47H203L287 356H88V479H311L389 850H88V973ZM932 850H512L434 479H856L932 850Z"/><glyph unicode="$" horiz-adv-x="981" d="M377 1440H430V1376Q474 1378 555 1378V1440H608V1370Q749 1349 829 1280T909 1112Q909 1047 877 1017T805 987Q768 987 740 1012T711 1081Q711 1141 778 1169Q811 1183 811 1200Q811 1227 763 1261T608 1317V778Q775 706 845 614T915 397Q915 262 833 156T608 6V-209H555V-6Q503 -14 430 -14V-209H377V-14Q209 16 131 106T53 287Q53 344 83 388T168 432Q213 432 239 405T266 330Q266 290 249 269T180 238Q137 230 137 209Q137 172 200 116T377 41V684Q90 814 90 1034Q90 1275 377 1364V1440ZM555 799V1323Q535 1326 512 1326Q477 1326 430 1319V854L555 799ZM377 881V1307Q217 1252 217 1106Q217 1036 261 975T377 881ZM555 606L430 664V37Q498 37 555 47V606ZM608 584V63Q711 101 758 174T805 324Q805 483 608 584Z"/><glyph unicode="%" horiz-adv-x="1985" d="M209 1022Q209 1170 290 1272T477 1374Q587 1374 665 1272T743 1024Q743 878 665 776T475 674Q361 674 285 775T209 1022ZM575 1075Q575 1229 550 1287T477 1346Q418 1346 398 1270T377 965Q377 824 399 763T477 702Q518 702 538 729T567 834T575 1075ZM1440 1374H1528L545 -59H457L1440 1374ZM1241 293Q1241 439 1319 541T1503 643Q1617 643 1695 542T1774 295Q1774 149 1696 46T1505 -57Q1396 -57 1319 45T1241 293ZM1606 362Q1606 504 1584 559T1507 614Q1437 614 1423 526T1409 227Q1409 88 1431 30T1509 -29Q1565 -29 1585 30T1606 362Z"/><glyph unicode="&amp;" horiz-adv-x="1536" d="M473 848Q375 1001 362 1044T348 1135Q348 1260 444 1341T684 1423Q825 1423 913 1346T1001 1174Q1001 999 688 874L1042 332Q1209 552 1225 817H1024V872H1462V817H1278Q1257 523 1075 285L1225 55H1430V0H1024L932 143Q739 -18 528 -18Q325 -18 200 101T74 379Q74 663 473 848ZM565 1063L657 928Q850 985 850 1171Q850 1261 804 1314T674 1368Q597 1368 550 1326T502 1225Q502 1156 565 1063ZM905 188L504 805Q258 700 258 532Q258 386 369 230T637 74Q765 74 905 188Z"/><glyph unicode="'" horiz-adv-x="369" d="M162 840L107 1143Q86 1263 86 1303Q86 1423 182 1423Q227 1423 257 1395T287 1317Q287 1281 263 1154L205 840H162Z"/><glyph unicode="(" horiz-adv-x="662" d="M612 -449L575 -479Q364 -270 257 -27T150 469Q150 734 261 981T569 1423L604 1389Q445 1226 390 1008T334 471Q334 153 393 -68T612 -449Z"/><glyph unicode=")" horiz-adv-x="662" d="M50 -449L87 -479Q298 -270 405 -27T512 469Q512 734 401 981T93 1423L58 1389Q217 1226 272 1008T328 471Q328 153 269 -68T50 -449Z"/><glyph unicode="*" horiz-adv-x="981" d="M217 1274Q283 1274 379 1161Q433 1098 453 1098Q469 1098 469 1118Q469 1171 446 1217Q420 1283 420 1329Q420 1371 438 1397T492 1423Q526 1423 544 1398T563 1337Q563 1289 538 1218Q508 1131 508 1118Q508 1100 526 1100Q554 1100 604 1165Q689 1274 760 1274Q785 1274 805 1256T825 1206Q825 1130 647 1094Q614 1088 582 1076T549 1051Q549 1024 643 1007Q753 987 790 959T827 895Q827 869 810 849T764 829Q703 829 631 907Q545 1001 526 1001Q508 1001 508 981Q508 969 529 907Q561 812 561 756Q561 719 541 696T489 672Q420 672 420 762Q420 813 446 889Q451 899 460 932T469 987Q469 1006 453 1006Q434 1006 346 909Q274 831 219 831Q195 831 174 851T152 897Q152 945 210 974T336 1010Q432 1026 432 1051Q432 1063 409 1071T279 1106Q152 1138 152 1208Q152 1236 171 1255T217 1274Z"/><glyph unicode="+" horiz-adv-x="1366" d="M139 727H616V1204H748V727H1227V596H748V119H616V596H139V727Z"/><glyph unicode="," horiz-adv-x="555" d="M197 -326L164 -289Q279 -199 323 -133T367 2Q367 26 355 50T330 74Q319 74 307 41Q287 -14 227 -14Q181 -14 149 17T117 90Q117 139 150 179T244 219Q322 219 372 157T422 16Q422 -166 197 -326Z"/><glyph unicode="-" horiz-adv-x="555" d="M94 487H461V340H94V487Z"/><glyph unicode="." horiz-adv-x="555" d="M160 98Q160 146 194 180T276 215Q327 215 362 181T397 98Q397 49 361 13T276 -23Q228 -23 194 13T160 98Z"/><glyph unicode="/" horiz-adv-x="1087" d="M813 1409H971L274 -29H117L813 1409Z"/><glyph unicode="0" horiz-adv-x="981" d="M35 678Q35 948 169 1160T485 1372Q664 1372 802 1165T940 670Q940 387 804 179T489 -29Q304 -29 170 190T35 678ZM739 729Q739 1043 679 1180T487 1317Q352 1317 294 1185T236 641Q236 320 295 174T487 27Q627 27 683 165T739 729Z"/><glyph unicode="1" horiz-adv-x="981" d="M158 1352L592 1372V55H850V0H182V55H438V1223Q438 1266 418 1283T350 1300H158V1352Z"/><glyph unicode="2" horiz-adv-x="981" d="M174 152H752Q814 152 827 183T844 340H897L879 0H49V106Q436 458 569 631T702 985Q702 1102 631 1198T428 1294Q310 1294 233 1221T156 1079Q156 1051 180 1051Q187 1051 220 1056Q249 1061 254 1061Q289 1061 316 1033T344 963Q344 917 312 887T236 856Q176 856 136 909T96 1040Q96 1174 211 1274T496 1374Q678 1374 788 1270T899 1040Q899 952 859 866T662 610T174 152Z"/><glyph unicode="3" horiz-adv-x="981" d="M502 727V723Q899 691 899 391Q899 212 764 92T420 -29Q252 -29 154 52T55 246Q55 298 89 332T170 367Q212 367 244 338T276 260Q276 186 203 168Q168 159 168 141Q168 104 240 66T414 27Q572 27 638 120T705 356Q705 688 393 688Q381 688 324 684Q281 678 258 678Q211 678 211 715Q211 758 260 758Q271 758 330 752Q379 748 387 748Q514 748 577 833T641 1059Q641 1159 618 1211T548 1290T434 1317Q337 1317 287 1283T236 1225Q236 1212 260 1204Q328 1183 328 1118Q328 1078 303 1049T238 1020Q193 1020 163 1053T133 1145Q133 1244 216 1308T446 1372Q632 1372 729 1279T827 1061Q827 949 741 853T502 727Z"/><glyph unicode="4" horiz-adv-x="981" d="M612 1372H705V420H901V578H952V188H901V365H705V55H872V0H375V55H551V365H35V438L612 1372ZM551 420V1174H547L86 420H551Z"/><glyph unicode="5" horiz-adv-x="981" d="M754 1413H807Q790 1296 751 1252T627 1208H223L205 776Q334 838 446 838Q636 838 771 717T907 408Q907 217 762 94T412 -29Q252 -29 156 50T59 238Q59 293 94 330T174 367Q215 367 245 337T276 258Q276 181 199 162Q170 155 170 139Q170 101 238 63T399 25Q550 25 630 132T711 397Q711 553 631 658T395 764Q290 764 190 700H152L167 1066Q175 1252 178 1278T201 1330T260 1356H670Q741 1356 754 1413Z"/><glyph unicode="6" horiz-adv-x="981" d="M846 1372V1317Q358 1311 260 760L264 756Q373 885 530 885Q703 885 825 759T948 440Q948 241 817 106T504 -29Q297 -29 168 148T39 571Q39 714 87 849T226 1093T440 1271T653 1355T846 1372ZM242 651Q236 555 236 518Q236 358 266 248T357 83T506 27Q617 27 670 88T735 228T748 418Q748 629 690 726T516 823Q359 823 242 651Z"/><glyph unicode="7" horiz-adv-x="981" d="M172 1343H920V1286L706 849Q621 675 578 547T535 342Q535 306 575 145Q586 104 586 78Q586 26 554 -1T477 -29Q427 -29 394 10T360 111Q360 184 380 247T473 482T628 821L811 1188H258Q195 1188 174 1150T125 1010H72L172 1343Z"/><glyph unicode="8" horiz-adv-x="981" d="M375 696V700Q72 778 72 1032Q72 1193 197 1282T483 1372Q653 1372 776 1279T899 1028Q899 777 594 700V696Q754 661 847 565T940 336Q940 174 809 73T489 -29Q302 -29 168 72T33 338Q33 470 127 567T375 696ZM715 1044Q715 1171 655 1244T485 1317Q254 1317 254 1024Q254 886 315 808T487 729Q598 729 656 812T715 1044ZM741 342Q741 488 676 576T481 664Q361 664 295 580T229 332Q229 184 294 106T487 27Q616 27 678 102T741 342Z"/><glyph unicode="9" horiz-adv-x="981" d="M135 -29V27Q623 33 721 584L717 588Q608 459 451 459Q278 459 156 585T33 903Q33 1102 164 1237T477 1372Q684 1372 813 1195T942 772Q942 630 894 495T755 250T541 73T328 -12T135 -29ZM745 692Q752 788 752 825Q752 1066 683 1191T481 1317Q371 1317 318 1256T252 1116T240 926Q240 715 297 618T471 520Q628 520 745 692Z"/><glyph unicode=":" horiz-adv-x="555" d="M158 723Q158 770 190 805T274 840Q328 840 361 805T395 723Q395 673 361 638T276 602Q228 602 193 638T158 723ZM160 96Q160 145 195 180T279 215Q327 215 362 180T397 96Q397 47 362 12T279 -23Q230 -23 195 12T160 96Z"/><glyph unicode=";" horiz-adv-x="555" d="M160 725Q160 770 192 806T274 842Q329 842 363 807T397 723Q397 675 362 640T279 604Q230 604 195 640T160 725ZM197 -326L164 -289Q279 -199 323 -133T367 2Q367 26 355 50T330 74Q319 74 307 41Q287 -14 227 -14Q181 -14 149 17T117 90Q117 139 150 179T244 219Q322 219 372 157T422 16Q422 -166 197 -326Z"/><glyph unicode="&lt;" horiz-adv-x="1366" d="M139 723L1227 1180V1036L317 664L1227 289V147L139 604V723Z"/><glyph unicode="=" horiz-adv-x="1366" d="M139 956H1227V825H139V956ZM139 498H1227V367H139V498Z"/><glyph unicode="&gt;" horiz-adv-x="1366" d="M1227 723L139 1180V1036L1049 664L139 289V147L1227 604V723Z"/><glyph unicode="?" horiz-adv-x="768" d="M317 410H274Q254 516 254 584Q254 690 296 758T449 920Q541 996 579 1049T618 1167Q618 1244 556 1310T377 1376Q278 1376 210 1338T141 1255Q141 1235 178 1223Q252 1197 252 1130Q252 1092 224 1065T154 1038Q103 1038 73 1074T43 1165Q43 1256 130 1339T365 1423Q523 1423 626 1328T729 1085Q729 969 654 875T457 692Q358 621 338 576T317 410ZM197 94Q197 143 231 177T313 211Q362 211 396 177T430 94Q430 46 396 12T313 -23Q266 -23 232 12T197 94Z"/><glyph unicode="@" horiz-adv-x="1886" d="M1413 961Q1246 393 1224 312T1202 182Q1202 157 1221 132T1276 106Q1425 106 1563 301T1702 758Q1702 1024 1522 1198T1053 1372Q812 1372 616 1244T309 891T197 420Q197 64 417 -156T979 -377Q1240 -377 1452 -238T1782 176H1839Q1742 -116 1502 -277T973 -438Q600 -438 350 -187T100 446Q100 715 226 940T573 1294T1047 1423Q1377 1423 1569 1228T1761 739Q1761 470 1607 253T1210 35Q1057 35 1057 172Q1057 242 1075 315L1071 319Q847 29 680 29Q599 29 550 101T500 264Q500 412 589 579T810 857T1051 967Q1190 967 1221 829H1225L1255 940L1413 961ZM1186 776Q1186 839 1152 880T1061 922Q978 922 885 815T724 548T657 297Q657 241 690 199T772 156Q869 156 982 278T1140 547T1186 776Z"/><glyph unicode="A" horiz-adv-x="1430" d="M709 1423H737L1225 55H1378V0H811V55H1016L856 504H438L281 55H487V0H43V55H223L709 1423ZM840 559L647 1098H643L459 559H840Z"/><glyph unicode="B" horiz-adv-x="1323" d="M78 1393H721Q933 1393 1055 1304T1178 1061Q1178 817 866 729V725Q1053 691 1143 595T1233 369Q1233 201 1091 101T721 0H78V55H268V1337H78V1393ZM709 1337H469V758H690Q840 758 900 815T961 1065Q961 1197 910 1267T709 1337ZM700 702H469V55H700Q886 55 946 132T1006 385Q1006 542 934 622T700 702Z"/><glyph unicode="C" horiz-adv-x="1323" d="M1071 1317L1126 1368H1165L1176 1053H1126Q1026 1368 748 1368Q581 1368 498 1266T392 1021T369 684Q369 556 377 456T420 256T535 92T748 27Q1052 27 1143 373H1196V16H1143L1085 106Q931 -29 741 -29Q495 -29 314 172T133 686Q133 999 317 1211T745 1423Q913 1423 1071 1317Z"/><glyph unicode="D" horiz-adv-x="1536" d="M98 1393H772Q1049 1393 1230 1192T1411 698Q1411 390 1230 195T731 0H98V55H283V1337H98V1393ZM723 1337H483V55H743Q922 55 1049 169T1176 702Q1176 1039 1077 1188T723 1337Z"/><glyph unicode="E" horiz-adv-x="1323" d="M90 1393H1165L1184 1042H1130Q1097 1209 1028 1273T836 1337H471V733H590Q685 733 736 788T788 922V969H844V436H788V479Q788 678 571 678H471V55H864Q991 55 1067 133T1184 408H1239L1214 0H90V55H270V1337H90V1393Z"/><glyph unicode="F" horiz-adv-x="1194" d="M66 1393H1122L1143 1004H1087Q1072 1171 995 1254T795 1337H440V739H555Q649 739 702 797T756 918V969H811V434H756V483Q756 575 704 629T569 684H440V55H641V0H66V55H240V1337H66V1393Z"/><glyph unicode="G" horiz-adv-x="1430" d="M1034 1323L1098 1382H1135L1155 1026H1102Q1013 1368 707 1368Q509 1368 419 1216T328 713Q328 478 368 327T494 102T729 27Q851 27 906 74T974 199T987 461H782V516H1372V461H1214Q1214 358 1199 290T1121 143T954 18T731 -29Q475 -29 284 180T92 688Q92 979 268 1201T723 1423Q878 1423 1034 1323Z"/><glyph unicode="H" horiz-adv-x="1536" d="M92 1393H651V1337H471V743H1065V1337H887V1393H1444V1337H1266V55H1444V0H887V55H1065V688H471V55H651V0H92V55H270V1337H92V1393Z"/><glyph unicode="I" horiz-adv-x="768" d="M92 1393H676V1337H481V55H676V0H92V55H281V1337H92V1393Z"/><glyph unicode="J" horiz-adv-x="874" d="M201 1393H788V1337H610V207Q610 28 505 -68T262 -164Q171 -164 107 -113T43 4Q43 50 74 86T154 123Q200 123 227 93T254 23Q254 -17 228 -47T201 -84Q201 -109 266 -109Q338 -109 374 -63T410 109V1337H201V1393Z"/><glyph unicode="K" horiz-adv-x="1536" d="M72 1393H645V1337H463V55H645V0H72V55H262V1337H72V1393ZM901 1393H1370V1337H1186L651 836L1321 55H1473V0H874V55H1067L475 741L1106 1337H901V1393Z"/><glyph unicode="L" horiz-adv-x="1194" d="M70 1393H625V1337H442V55H815Q1041 55 1081 399H1137L1124 0H70V55H242V1337H70V1393Z"/><glyph unicode="M" horiz-adv-x="1642" d="M33 1393H451L801 313H805L1163 1393H1565V1337H1386V55H1565V0H1004V55H1186V1300H1182L760 0H696L279 1300H274V55H477V0H33V55H219V1337H33V1393Z"/><glyph unicode="N" horiz-adv-x="1536" d="M106 1393H530L1200 356H1204V1337H1020V1393H1438V1337H1260V-14H1217L356 1305H352V55H561V0H106V55H297V1337H106V1393Z"/><glyph unicode="O" horiz-adv-x="1430" d="M111 698Q111 1000 283 1211T707 1423Q956 1423 1137 1219T1319 700Q1319 388 1143 180T721 -29Q472 -29 292 179T111 698ZM1083 688Q1083 1045 1000 1206T709 1368Q513 1368 430 1211T346 698Q346 328 436 178T719 27Q907 27 995 175T1083 688Z"/><glyph unicode="P" horiz-adv-x="1323" d="M106 1393H729Q946 1393 1082 1291T1219 1030Q1219 863 1075 751T676 639H487V55H688V0H106V55H287V1337H106V1393ZM651 1337H487V694H670Q849 694 925 758T1001 1038Q1001 1178 957 1242T843 1322T651 1337Z"/><glyph unicode="Q" horiz-adv-x="1430" d="M1155 -391H1212V-432H1155Q884 -432 742 -341T600 -18Q373 41 242 243T111 705Q111 1016 291 1219T713 1423Q958 1423 1138 1218T1319 696Q1319 448 1196 250T836 -18Q836 -114 848 -178T900 -293T1014 -367T1155 -391ZM1083 688Q1083 1054 998 1211T705 1368Q508 1368 427 1210T346 700Q346 328 437 177T721 25Q906 25 994 173T1083 688Z"/><glyph unicode="R" horiz-adv-x="1430" d="M96 1393H705Q926 1393 1053 1308T1180 1071Q1180 936 1065 848T770 737V733Q955 693 1041 594T1130 311Q1132 151 1150 95T1243 39Q1278 39 1358 63L1376 23Q1288 -23 1214 -23Q1178 -23 1131 -12T1036 32T956 120T919 242T908 363Q898 483 892 522T854 604T781 672T692 708T604 719H483V55H664V0H96V55H283V1337H96V1393ZM664 1337H483V774H621Q799 774 881 836T963 1087Q963 1195 927 1249T829 1320T664 1337Z"/><glyph unicode="S" horiz-adv-x="1087" d="M786 1339L848 1393H903V1065H848Q751 1368 479 1368Q356 1368 270 1301T184 1128Q184 1049 232 1001T351 927T539 872Q671 840 765 801T930 673T1001 438Q1001 249 869 110T535 -29Q384 -29 205 68L131 0H76V369H131Q186 199 295 113T535 27Q670 27 779 112T889 342Q889 443 837 501T700 591T459 659Q254 708 164 798T74 1034Q74 1203 185 1313T496 1423Q569 1423 628 1407T786 1339Z"/><glyph unicode="T" horiz-adv-x="1323" d="M78 1393H1249L1270 985H1217Q1191 1182 1127 1259T942 1337H766V55H979V0H356V55H565V1337H389Q269 1337 204 1263T109 985H55L78 1393Z"/><glyph unicode="U" horiz-adv-x="1430" d="M57 1393H627V1337H440V358Q440 37 764 37Q1137 37 1137 428V1337H952V1393H1372V1337H1192V395Q1192 177 1079 74T739 -29Q494 -29 367 76T240 354V1337H57V1393Z"/><glyph unicode="V" horiz-adv-x="1430" d="M63 1393H606V1337H422L803 281H807L1161 1337H950V1393H1374V1337H1217L756 -29H719L217 1337H63V1393Z"/><glyph unicode="W" horiz-adv-x="1962" d="M55 1393H1399V1337H1260L1102 891L1331 260H1335L1702 1337H1507V1393H1917V1337H1755L1288 -29H1241L981 666L735 -29H682L184 1337H55V1393ZM1202 1337H936L1071 969H1075L1202 1337ZM729 1337H387L776 260H780L950 743L729 1337Z"/><glyph unicode="X" horiz-adv-x="1536" d="M61 1393H637V1337H469L791 842L1130 1337H954V1393H1378V1337H1192L821 793L1309 55H1477V0H907V55H1077L705 625L317 55H518V0H68V55H250L674 672L240 1337H61V1393Z"/><glyph unicode="Y" horiz-adv-x="1430" d="M33 1393H616V1337H424L797 717L1139 1337H926V1393H1374V1337H1198L825 659V55H1034V0H424V55H625V639L205 1337H33V1393Z"/><glyph unicode="Z" horiz-adv-x="1194" d="M139 1393H1112V1352L260 55H788Q897 55 961 128T1067 408H1118L1096 0H35V55L881 1337H401Q341 1337 300 1320T222 1238T164 1061H113L139 1393Z"/><glyph unicode="[" horiz-adv-x="662" d="M215 1393H592V1337H369V-416H592V-471H215V1393Z"/><glyph unicode="\" horiz-adv-x="1087" d="M274 1409H116L813 -29H970L274 1409Z"/><glyph unicode="]" horiz-adv-x="662" d="M447 1393H70V1337H293V-416H70V-471H447V1393Z"/><glyph unicode="^" horiz-adv-x="961" d="M498 1393L924 676H811L481 1233L152 676H37L469 1393H498Z"/><glyph unicode="_" horiz-adv-x="1024" d="M-12 -154H1036V-256H-12V-154Z"/><glyph unicode="`" horiz-adv-x="682" d="M487 965H436Q280 1145 238 1199T195 1278Q195 1334 268 1334Q343 1334 369 1285T487 965Z"/><glyph unicode="a" horiz-adv-x="874" d="M541 469V657Q541 720 510 752T401 784Q329 784 273 764T217 721Q217 706 240 694Q283 669 283 627Q283 591 259 570T199 549Q159 549 136 577T113 641Q113 730 210 785T442 840Q698 840 698 657V164Q698 70 739 70Q782 70 782 152H827Q827 -23 694 -23Q642 -23 609 2T551 96Q432 -23 279 -23Q184 -23 119 36T53 176Q53 304 173 383T541 469ZM541 205V422Q207 422 207 238Q207 162 253 111T371 59Q439 59 490 103T541 205Z"/><glyph unicode="b" horiz-adv-x="1087" d="M45 1395H170Q194 1395 231 1399L311 1409H362V690H367Q454 840 618 840Q777 840 884 717T991 416Q991 232 873 105T614 -23Q459 -23 367 133H362V-14H317Q299 -14 252 -9Q181 0 82 0V55H205V1339H45V1395ZM807 336V469Q807 656 757 724T614 793Q505 793 434 711T362 514V326Q362 192 436 109T614 25Q707 25 757 93T807 336Z"/><glyph unicode="c" horiz-adv-x="874" d="M766 266H811Q739 -23 487 -23Q318 -23 199 102T80 401Q80 577 202 708T504 840Q627 840 704 779T782 635Q782 590 756 563T686 535Q646 535 622 559T598 618Q598 661 641 700Q657 713 657 729Q657 753 611 773T498 793Q387 793 326 729T264 463Q264 305 276 218T339 78T498 25Q703 25 766 266Z"/><glyph unicode="d" horiz-adv-x="1087" d="M559 1395H651Q693 1395 737 1399L825 1409H877V55H1014V0H909Q873 0 838 -4L760 -14H719V127H715Q617 -23 475 -23Q316 -23 205 101T94 401Q94 567 203 703T461 840Q619 840 715 694H719V1339H559V1395ZM719 291V537Q719 631 646 712T465 793Q367 793 323 723T279 440V324Q279 143 331 84T475 25Q581 25 650 104T719 291Z"/><glyph unicode="e" horiz-adv-x="874" d="M752 477H252V340Q252 164 311 95T479 25Q700 25 774 274H817Q735 -23 471 -23Q305 -23 189 107T72 408Q72 576 182 708T455 840Q556 840 640 785T766 649T807 512Q807 488 795 483T752 477ZM252 532H627Q631 581 631 606Q631 793 446 793Q387 793 345 771T278 694T252 532Z"/><glyph unicode="f" horiz-adv-x="662" d="M225 819V893Q225 1126 316 1272T578 1419Q659 1419 712 1381T766 1286Q766 1252 743 1226T684 1200Q645 1200 623 1225T600 1278L604 1323Q604 1364 547 1364Q467 1364 425 1277T383 1049V819H590V764H383V55H545V0H61V55H225V764H61V819H225Z"/><glyph unicode="g" horiz-adv-x="981" d="M297 299V303Q215 340 176 408T137 553Q137 679 227 759T461 840Q605 840 705 735Q771 840 844 840Q882 840 908 818T934 762Q934 735 917 717T870 698Q837 698 809 729Q791 750 776 750Q757 750 729 705Q772 634 772 553Q772 434 680 350T408 262Q305 260 264 253T192 220T160 166Q160 102 309 102L631 109Q765 109 835 43T905 -143Q905 -254 856 -330T713 -444T489 -483Q298 -483 187 -409T76 -240Q76 -184 123 -139T297 -41V-37Q86 -31 86 117Q86 189 137 238T297 299ZM608 553Q608 682 572 737T446 793Q373 793 336 743T299 547Q299 418 336 364T457 309Q534 309 571 364T608 553ZM592 -29Q570 -29 489 -33T400 -40Q361 -56 331 -71T273 -109T226 -163T207 -233Q207 -280 237 -329T331 -407T489 -436Q638 -436 743 -364T848 -174Q848 -95 793 -62T592 -29Z"/><glyph unicode="h" horiz-adv-x="1087" d="M68 1395H143Q186 1395 227 1399L315 1409H354V643H358Q397 731 474 785T655 840Q768 840 839 781T911 610V55H1040V0H623V55H754V623Q754 701 714 742T608 784Q504 784 429 677T354 459V55H483V0H68V55H197V1339H68V1395Z"/><glyph unicode="i" horiz-adv-x="555" d="M160 1227Q160 1270 191 1301T266 1333Q310 1333 340 1302T371 1227Q371 1184 340 1153T266 1122Q222 1122 191 1153T160 1227ZM55 819H170Q194 819 232 824L311 834H358V55H504V0H55V55H201V764H55V819Z"/><glyph unicode="j" horiz-adv-x="555" d="M180 1227Q180 1270 211 1301T285 1333Q329 1333 360 1302T391 1227Q391 1184 360 1153T285 1122Q242 1122 211 1153T180 1227ZM70 819H197Q218 819 255 823L340 834H379V-49Q379 -245 290 -364T90 -483Q41 -483 9 -454T-23 -383Q-23 -349 -1 -326T53 -303Q83 -303 103 -324T125 -372Q128 -406 150 -406Q221 -406 221 -219V764H70V819Z"/><glyph unicode="k" horiz-adv-x="1087" d="M27 1395H143Q165 1395 205 1399L285 1409H352V55H475V0H61V55H195V1339H27V1395ZM592 817H967V762H803L506 530L936 55H1047V0H614V55H754L369 481L737 758V762H592V817Z"/><glyph unicode="l" horiz-adv-x="555" d="M43 1395H168Q191 1395 229 1399L311 1409H365V55H512V0H57V55H207V1339H43V1395Z"/><glyph unicode="m" horiz-adv-x="1642" d="M1468 608V55H1595V0H1180V55H1311V608Q1311 690 1275 737T1167 784Q1061 784 987 683T913 465V55H1047V0H627V55H756V623Q756 699 719 741T612 784Q501 784 430 680T358 457V55H487V0H68V55H201V764H68V819H180Q203 819 242 824L324 834H358V647H362Q437 768 499 804T655 840Q868 840 913 657Q1028 840 1208 840Q1327 840 1397 781T1468 608Z"/><glyph unicode="n" horiz-adv-x="1087" d="M909 625V55H1040V0H618V55H752V635Q752 709 713 746T608 784Q497 784 426 677T354 403V55H481V0H63V55H197V764H63V819H162Q186 819 224 824L305 834H354V635H358Q447 840 647 840Q765 840 837 785T909 625Z"/><glyph unicode="o" horiz-adv-x="981" d="M84 410Q84 588 205 714T492 840Q656 840 775 713T895 410Q895 240 781 109T494 -23Q323 -23 204 105T84 410ZM711 424Q711 628 658 710T489 793Q376 793 322 720T268 395Q268 203 315 114T494 25Q605 25 658 102T711 424Z"/><glyph unicode="p" horiz-adv-x="1087" d="M358 119V-428H508V-483H68V-428H201V764H68V819H180Q203 819 243 824L322 834H358V696H362Q447 840 614 840Q777 840 882 710T987 412Q987 237 872 107T610 -23Q464 -23 362 119H358ZM803 362V487Q803 584 794 644T743 749T614 793Q507 793 433 712T358 510V285Q358 191 429 108T621 25Q720 25 761 93T803 362Z"/><glyph unicode="q" horiz-adv-x="1087" d="M721 702V834H770Q863 819 911 819H1028V764H879V-428H1018V-483H565V-428H721V117H717Q627 -23 465 -23Q304 -23 199 103T94 406Q94 586 211 713T481 840Q634 840 717 702H721ZM721 311V479Q721 565 711 611T660 704T569 772T469 793Q374 793 327 721T279 385Q279 173 326 99T469 25Q569 25 645 107T721 311Z"/><glyph unicode="r" horiz-adv-x="768" d="M367 469V55H532V0H57V55H209V764H57V819H180Q203 819 243 824L324 834H367V633H371Q416 740 480 790T612 840Q661 840 696 807T731 725Q731 683 705 661T645 639Q570 639 565 727Q563 752 560 760T545 768Q493 768 430 665T367 469Z"/><glyph unicode="s" horiz-adv-x="768" d="M553 778L582 805H625V584H582Q535 793 354 793Q275 793 220 752T164 651Q164 583 214 562T410 520Q571 499 634 431T698 256Q698 127 609 52T408 -23Q296 -23 197 55L137 10H98V272H143Q206 25 408 25Q502 25 564 79T627 201Q627 275 555 309T346 360Q236 374 191 402T117 480T88 590Q88 688 161 764T356 840Q459 840 553 778Z"/><glyph unicode="t" horiz-adv-x="662" d="M190 1067H348V819H553V764H348V174Q348 39 428 39Q516 39 567 160H612Q552 -23 352 -23Q278 -23 234 10T190 133V764H45V819H190V1067Z"/><glyph unicode="u" horiz-adv-x="1087" d="M55 817H344V203Q344 33 479 33Q553 33 612 83T706 199T741 281V762H596V817H895V55H1022V0H922L778 -14H741V174H737Q618 -23 440 -23Q337 -23 264 35T190 203V762H55V817Z"/><glyph unicode="v" horiz-adv-x="981" d="M41 817H453V762H326L551 199L758 762H616V817H940V762H805L512 -23H483L172 762H41V817Z"/><glyph unicode="w" horiz-adv-x="1323" d="M41 817H446V762H305L494 223H498L700 817H735L963 223H967L1130 762H985V817H1288V762H1176L934 -23H905L670 586L459 -23H430L156 762H41V817Z"/><glyph unicode="x" horiz-adv-x="981" d="M51 817H461V762H340L512 510L692 762H557V817H877V762H748L539 473L823 55H938V0H526V55H649L449 352L236 55H383V0H35V55H182L422 389L164 762H51V817Z"/><glyph unicode="y" horiz-adv-x="981" d="M29 817H459V762H315L557 203L760 762H606V817H934V762H803L469 -162Q398 -361 346 -422T229 -483Q189 -483 161 -457T133 -397Q133 -368 156 -343T213 -317Q250 -317 281 -365Q281 -369 288 -379T303 -389Q319 -389 347 -346T397 -241L485 6L160 762H29V817Z"/><glyph unicode="z" horiz-adv-x="768" d="M94 817H725V784L223 55H479Q629 55 672 299H717L705 0H53V55L547 770H295Q163 770 121 530H76L94 817Z"/><glyph unicode="{" horiz-adv-x="983" d="M803 -406V-440Q627 -415 528 -301T428 -55Q428 23 449 104Q473 203 473 260Q473 321 420 388T246 471V512Q361 529 417 592T473 723Q473 780 449 879Q428 966 428 1038Q428 1168 527 1282T803 1423V1389Q578 1330 578 1157Q578 1079 602 993Q623 911 623 838Q623 739 552 645T328 496V492Q471 439 547 344T623 145Q623 75 602 -12Q578 -98 578 -174Q578 -255 634 -316T803 -406Z"/><glyph unicode="|" horiz-adv-x="1079" d="M473 1409H606V-483H473V1409Z"/><glyph unicode="}" horiz-adv-x="983" d="M180 -406V-440Q356 -415 455 -301T555 -55Q555 23 534 104Q510 203 510 260Q510 321 563 388T737 471V512Q622 529 566 592T510 723Q510 780 534 879Q555 966 555 1038Q555 1168 456 1282T180 1423V1389Q405 1330 405 1157Q405 1079 381 993Q360 911 360 838Q360 739 431 645T655 496V492Q512 439 436 344T360 145Q360 75 381 -12Q405 -98 405 -174Q405 -255 349 -316T180 -406Z"/><glyph unicode="~" horiz-adv-x="1366" d="M1171 817H1223Q1219 676 1146 594T965 512Q906 512 851 529T655 604Q517 660 467 677T375 694Q223 694 195 512H143Q148 671 223 744T393 817Q444 817 506 800T709 725Q863 661 906 647T991 633Q1062 633 1111 678T1171 817Z"/><glyph unicode=" " horiz-adv-x="489"/><glyph unicode="¡" horiz-adv-x="555" d="M305 518H254Q249 328 241 219T198 -83Q158 -311 158 -346Q158 -479 274 -479Q395 -479 395 -359Q395 -313 350 -52Q308 189 305 518ZM162 848Q162 798 196 764T281 729Q329 729 364 764T399 848Q399 897 364 932T281 967Q232 967 197 932T162 848Z"/><glyph unicode="¢" horiz-adv-x="874" d="M649 817L788 1192H838L690 797Q746 758 770 714T795 635Q795 594 767 565T696 535Q646 535 612 586L408 41Q452 25 494 25Q713 25 774 268H819Q749 -23 498 -23Q430 -23 389 -6L258 -354H211L348 8Q219 60 156 170T92 401Q92 575 212 707T512 840Q586 840 649 817ZM369 63L633 770Q571 793 498 793Q424 793 368 757T294 657T276 377Q276 214 301 155T369 63Z"/><glyph unicode="£" horiz-adv-x="1087" d="M489 803H866V748H496L520 635H866V580H532Q549 490 549 389Q549 323 526 250Q786 136 816 127T870 117Q917 117 945 141T1008 250L1053 240Q969 -29 774 -29Q707 -29 651 2T479 135Q360 -29 215 -29Q133 -29 81 14T29 137Q29 195 56 235T131 295T233 315Q338 315 479 264Q487 300 487 340Q487 463 426 580H78V635H403L348 748H78V803H328Q303 897 303 971Q303 1151 417 1261T690 1372Q812 1372 887 1302T963 1141Q963 1095 937 1060T864 1024Q830 1024 808 1046T786 1104Q786 1185 868 1194Q897 1194 897 1210Q897 1236 845 1274T715 1313Q596 1313 534 1212T471 956Q471 886 489 803ZM436 170Q317 256 229 256Q170 256 125 224T80 137Q80 84 115 51T209 18Q342 18 436 170Z"/><glyph unicode="¤" horiz-adv-x="1409" d="M977 1024L1104 1151L1192 1061L1067 934Q1157 812 1157 662Q1157 513 1067 391L1192 264L1104 176L977 301Q855 211 705 211Q557 211 432 301L305 176L217 264L344 391Q252 514 252 662Q252 806 344 934L217 1061L305 1151L432 1024Q558 1114 705 1114Q851 1114 977 1024ZM1030 664Q1030 797 934 892T705 987Q571 987 475 892T379 664Q379 529 474 434T705 338Q839 338 934 433T1030 664Z"/><glyph unicode="¥" horiz-adv-x="1430" d="M578 717L205 1337H33V1393H616V1337H424L797 717L1139 1337H926V1393H1374V1337H1198L858 717H1290V662H827L825 657V375H1290V319H825V55H1034V0H424V55H625V319H119V375H625V637L610 662H119V717H578Z"/><glyph unicode="¦" horiz-adv-x="1079" d="M473 1409H606V684H473V1409ZM473 242H606V-483H473V242Z"/><glyph unicode="§" horiz-adv-x="768" d="M199 780Q63 906 63 1071Q63 1228 164 1324T395 1421Q506 1421 591 1351T676 1192Q676 1139 643 1098T559 1057Q518 1057 494 1082T469 1149Q469 1213 543 1235Q584 1249 584 1270Q584 1309 523 1341T393 1374Q291 1374 218 1304T145 1143Q145 1074 191 1012T401 868Q583 777 651 677T719 459Q719 282 561 154Q692 33 692 -141Q692 -293 592 -388T362 -483Q257 -483 174 -417T90 -252Q90 -188 124 -149T207 -109Q246 -109 273 -135T301 -201Q301 -259 227 -281Q178 -294 178 -319Q178 -356 230 -396T356 -436Q454 -436 536 -363T618 -195Q618 -111 563 -61T346 80Q157 185 98 275T39 467Q39 651 199 780ZM236 752Q183 713 149 657T115 547Q115 442 219 377L524 184Q651 277 651 401Q651 513 503 598L236 752Z"/><glyph unicode="¨" horiz-adv-x="682" d="M37 1063Q37 1105 67 1135T139 1166Q182 1166 212 1136T242 1063Q242 1021 212 991T139 961Q96 961 67 990T37 1063ZM436 1063Q436 1105 465 1135T537 1166Q580 1166 610 1136T641 1063Q641 1021 611 991T537 961Q495 961 466 991T436 1063Z"/><glyph unicode="©" horiz-adv-x="1556" d="M70 713Q70 904 165 1069T424 1328T778 1423Q1070 1423 1278 1216T1487 713Q1487 523 1392 359T1133 99T778 4Q486 4 278 212T70 713ZM1425 713Q1425 982 1235 1172T778 1362Q512 1362 322 1172T131 713Q131 445 320 256T778 66Q1045 66 1235 256T1425 713ZM1128 1169L1149 889H1110Q1038 1126 807 1126Q661 1126 573 1022T485 735Q485 540 570 433T817 326Q1014 326 1128 485L1167 467Q1029 264 782 264Q582 264 451 394T319 709Q319 899 460 1034T817 1169Q868 1169 901 1163T1004 1133Q1031 1124 1040 1124Q1072 1124 1090 1169H1128Z"/><glyph unicode="ª" horiz-adv-x="575" d="M514 977H543Q538 862 453 862Q420 862 400 876T356 938Q276 864 180 864Q117 864 77 905T37 999Q37 1044 71 1086T176 1155T356 1182V1321Q356 1389 262 1389Q218 1389 182 1376T145 1346Q145 1343 154 1334T168 1323Q186 1308 186 1284Q186 1263 170 1249T131 1235Q106 1235 92 1254T78 1298Q78 1348 138 1385T287 1423Q362 1423 409 1397T457 1321V1001Q457 922 485 922Q514 922 514 977ZM356 999V1153Q137 1153 137 1032Q137 986 164 951T242 915Q289 915 322 945T356 999Z"/><glyph unicode="«" horiz-adv-x="662" d="M358 915H393L211 463L393 12H358L57 463L358 915ZM569 825H604L494 463L604 100H563L367 463L569 825Z"/><glyph unicode="¬" horiz-adv-x="1366" d="M139 956H1227V367H1096V825H139V956Z"/><glyph unicode="­" horiz-adv-x="555" d="M94 487H461V340H94V487Z"/><glyph unicode="®" horiz-adv-x="1556" d="M70 713Q70 904 165 1069T424 1328T778 1423Q1070 1423 1278 1216T1487 713Q1487 523 1392 359T1133 99T778 4Q486 4 278 212T70 713ZM1425 713Q1425 982 1235 1172T778 1362Q512 1362 322 1172T131 713Q131 445 320 256T778 66Q1045 66 1235 256T1425 713ZM385 1149H772Q908 1149 988 1087T1069 926Q1069 755 846 705Q1058 404 1089 363T1178 317V285H993L698 690H623V381Q623 317 741 317V285H375V317Q447 317 463 345T479 457V979Q479 1063 465 1088T385 1114V1149ZM623 1090V733H653Q771 733 839 779T907 915Q907 995 852 1050T707 1106Q669 1106 623 1090Z"/><glyph unicode="¯" horiz-adv-x="1024" d="M-12 1649H1036V1546H-12V1649Z"/><glyph unicode="°" horiz-adv-x="819" d="M102 1116Q102 1244 192 1333T410 1423Q535 1423 626 1333T717 1116Q717 989 627 899T410 809Q283 809 193 899T102 1116ZM612 1116Q612 1209 557 1264T410 1319Q318 1319 263 1264T207 1116Q207 1024 261 969T410 913Q502 913 557 968T612 1116Z"/><glyph unicode="±" horiz-adv-x="1366" d="M139 895H616V1374H748V895H1227V764H748V289H616V764H139V895ZM139 131H1227V0H139V131Z"/><glyph unicode="²" horiz-adv-x="662" d="M78 684V754Q275 903 342 978T410 1163Q410 1238 373 1285T270 1333Q205 1333 163 1287T121 1210Q121 1186 137 1186Q142 1186 164 1199Q180 1208 209 1208Q239 1208 257 1188T276 1137Q276 1102 253 1078T195 1053Q149 1053 120 1093T90 1184Q90 1261 152 1316T324 1372Q433 1372 504 1318T575 1178Q575 1062 443 970T193 809V805H494Q546 805 547 905H578L561 684H78Z"/><glyph unicode="³" horiz-adv-x="662" d="M377 1057V1053Q588 1016 588 877Q588 786 506 727T301 668Q206 668 141 708T76 805Q76 837 96 862T152 887Q184 887 207 865T231 813Q231 775 195 752Q193 752 187 747T180 737Q180 722 216 710T287 698Q420 698 420 860Q420 1034 285 1034L225 1030Q209 1030 209 1049Q209 1067 231 1067Q310 1067 329 1074T364 1105T384 1155T389 1206Q389 1341 276 1341Q247 1341 227 1331T207 1309Q207 1305 221 1288Q244 1261 244 1235Q244 1203 223 1184T172 1165Q143 1165 121 1186T98 1241Q98 1301 157 1336T305 1372Q408 1372 481 1330T555 1210Q555 1098 377 1057Z"/><glyph unicode="´" horiz-adv-x="682" d="M195 965Q297 1262 320 1298T414 1334Q487 1334 487 1278Q487 1252 439 1193L246 965H195Z"/><glyph unicode="µ" horiz-adv-x="1024" d="M119 817H283V383Q283 199 319 147T424 94Q542 94 659 229V817H823V262Q823 144 839 112T893 80Q956 80 975 203H1016Q996 -29 817 -29Q673 -29 659 162Q505 -29 346 -29Q244 -29 193 55H188Q188 -16 193 -61T222 -227Q238 -309 238 -332Q238 -374 213 -408T143 -442Q100 -442 78 -410T55 -334Q55 -294 100 -104Q119 -31 119 190V817Z"/><glyph unicode="¶" horiz-adv-x="961" d="M831 1337V-483H758V1337H561V-483H487V610Q192 619 91 732T-10 1004Q-10 1176 109 1284T457 1393H971V1337H831Z"/><glyph unicode="·" horiz-adv-x="555" d="M160 578Q160 625 194 659T276 694Q327 694 362 660T397 578Q397 528 362 493T276 457Q228 457 194 492T160 578Z"/><glyph unicode="¸" horiz-adv-x="682" d="M299 16H393L352 -29Q430 -67 430 -147Q430 -229 364 -271T186 -313Q157 -313 123 -307V-221Q193 -221 212 -219T250 -204T275 -177T281 -150Q281 -92 184 -86L299 16Z"/><glyph unicode="¹" horiz-adv-x="662" d="M414 1376V715H520V684H154V715H260V1321H154V1352Q295 1352 414 1376Z"/><glyph unicode="º" horiz-adv-x="641" d="M55 1143Q55 1254 130 1338T315 1423Q428 1423 506 1340T584 1143Q584 1033 509 949T322 864Q206 864 131 949T55 1143ZM463 1147Q463 1295 428 1345T317 1395Q245 1395 211 1347T176 1137Q176 1013 204 953T324 893Q400 893 431 946T463 1147Z"/><glyph unicode="»" horiz-adv-x="662" d="M304 915H269L451 463L269 12H304L605 463L304 915ZM93 825H58L168 463L58 100H99L295 463L93 825Z"/><glyph unicode="¼" horiz-adv-x="1962" d="M498 -55L1384 1423H1479L600 -55H498ZM586 1423V735H721V692H313V735H453V1300Q453 1335 438 1347T381 1360H301V1409L586 1423ZM1507 692H1591V193H1700V283H1743V55H1700V150H1591V0H1686V-43H1358V0H1466V150H1153V207L1507 692ZM1466 193V557H1462L1194 193H1466Z"/><glyph unicode="½" horiz-adv-x="1962" d="M494 -55L1370 1423H1468L594 -55H494ZM578 1423V733H715V688H309V733H449V1300Q449 1358 389 1358H301V1409Q446 1411 578 1423ZM1176 -43V55Q1398 232 1477 325T1556 496Q1556 551 1517 595T1407 639Q1348 639 1307 611T1266 561Q1266 547 1280 547Q1340 547 1361 527T1382 473Q1382 439 1358 415T1294 391Q1250 391 1222 424T1194 506Q1194 585 1266 636T1452 688Q1576 688 1646 634T1716 502Q1716 434 1657 363T1278 88V84H1585Q1650 84 1662 95T1675 174H1716L1706 -43H1176Z"/><glyph unicode="¾" horiz-adv-x="1962" d="M496 -57L1378 1423H1470L594 -57H496ZM565 1092V1087Q772 1054 772 897Q772 799 686 738T475 676Q364 676 301 724T238 831Q238 869 262 896T324 924Q356 924 382 902T408 844Q408 805 362 780Q344 771 344 762Q344 747 373 735T440 723Q513 723 561 768T610 899Q610 1053 446 1053L362 1049Q332 1049 332 1075Q332 1100 371 1100Q506 1100 544 1140T582 1247Q582 1310 550 1341T467 1372Q439 1372 417 1365T395 1348Q395 1343 418 1324Q438 1307 438 1282Q438 1253 418 1235T365 1217Q329 1217 310 1239T291 1296Q291 1355 348 1389T494 1423Q602 1423 667 1381T733 1262Q733 1134 565 1092ZM1509 692H1595V199H1700V289H1743V68H1700V154H1595V0H1688V-43H1358V0H1468V154H1151V209L1509 692ZM1468 199V563H1464L1198 199H1468Z"/><glyph unicode="¿" horiz-adv-x="768" d="M451 534H494Q514 428 514 360Q514 254 472 186T319 24Q227 -52 189 -105T150 -223Q150 -300 212 -366T391 -432Q490 -432 558 -394T627 -311Q627 -291 590 -279Q516 -253 516 -186Q516 -148 544 -121T614 -94Q665 -94 695 -130T725 -221Q725 -312 638 -395T403 -479Q245 -479 142 -384T39 -141Q39 -25 114 69T311 252Q410 323 430 368T451 534ZM571 850Q571 801 537 767T455 733Q406 733 372 767T338 850Q338 898 372 932T455 967Q502 967 536 932T571 850Z"/><glyph unicode="À" horiz-adv-x="1430" d="M709 1423H737L1225 55H1378V0H811V55H1016L856 504H438L281 55H487V0H43V55H223L709 1423ZM840 559L647 1098H643L459 559H840ZM861 1503H810Q654 1683 612 1737T569 1816Q569 1872 642 1872Q717 1872 743 1823T861 1503Z"/><glyph unicode="Á" horiz-adv-x="1430" d="M709 1423H737L1225 55H1378V0H811V55H1016L856 504H438L281 55H487V0H43V55H223L709 1423ZM840 559L647 1098H643L459 559H840ZM569 1503Q671 1800 694 1836T788 1872Q861 1872 861 1816Q861 1790 813 1731L620 1503H569Z"/><glyph unicode="Â" horiz-adv-x="1430" d="M709 1423H737L1225 55H1378V0H811V55H1016L856 504H438L281 55H487V0H43V55H223L709 1423ZM840 559L647 1098H643L459 559H840ZM680 1874H783L1026 1501H838L672 1761L475 1501H406L680 1874Z"/><glyph unicode="Ã" horiz-adv-x="1430" d="M709 1423H737L1225 55H1378V0H811V55H1016L856 504H438L281 55H487V0H43V55H223L709 1423ZM840 559L647 1098H643L459 559H840ZM984 1759H1031Q1027 1627 975 1564T841 1501Q782 1501 667 1558Q577 1605 534 1605Q461 1605 446 1503H399Q401 1626 454 1692T591 1759Q663 1759 771 1700Q857 1657 894 1657Q932 1657 956 1686T984 1759Z"/><glyph unicode="Ä" horiz-adv-x="1430" d="M709 1423H737L1225 55H1378V0H811V55H1016L856 504H438L281 55H487V0H43V55H223L709 1423ZM840 559L647 1098H643L459 559H840ZM412 1601Q412 1643 442 1673T514 1704Q557 1704 587 1674T617 1601Q617 1559 587 1529T514 1499Q471 1499 442 1528T412 1601ZM811 1601Q811 1643 840 1673T912 1704Q955 1704 985 1674T1016 1601Q1016 1559 986 1529T912 1499Q870 1499 841 1529T811 1601Z"/><glyph unicode="Å" horiz-adv-x="1430" d="M709 1423H737L1225 55H1378V0H811V55H1016L856 504H438L281 55H487V0H43V55H223L709 1423ZM840 559L647 1098H643L459 559H840ZM533 1665Q533 1741 587 1795T717 1849Q791 1849 845 1795T899 1667Q899 1590 845 1536T715 1482Q640 1482 587 1536T533 1665ZM828 1665Q828 1711 796 1744T717 1777Q670 1777 637 1744T604 1665Q604 1619 637 1587T717 1554Q763 1554 795 1586T828 1665Z"/><glyph unicode="Æ" horiz-adv-x="1962" d="M674 1393H1815L1833 1049H1778Q1728 1337 1526 1337H1122V737H1239Q1330 737 1384 789T1438 926V971H1493V438H1438V481Q1438 537 1414 584T1344 656T1229 682H1122V55H1511Q1637 55 1715 131T1833 412H1886L1866 0H737V55H922V504H500L262 55H440V0H23V55H197L879 1337H674V1393ZM922 559V1307H918L530 559H922Z"/><glyph unicode="Ç" horiz-adv-x="1323" d="M770 -29L743 -86Q802 -86 829 -94T880 -126T915 -179T926 -236Q926 -310 865 -359T713 -408Q612 -408 516 -371L537 -330Q600 -348 643 -348Q700 -348 745 -311T791 -227Q791 -195 767 -166T698 -137Q678 -137 651 -145L713 -29Q469 -13 301 189T133 686Q133 999 317 1211T745 1423Q913 1423 1071 1317L1126 1368H1165L1176 1053H1126Q1026 1368 748 1368Q581 1368 498 1266T392 1021T369 684Q369 556 377 456T420 256T535 92T748 27Q1052 27 1143 373H1196V16H1143L1085 106Q959 -9 770 -29Z"/><glyph unicode="È" horiz-adv-x="1323" d="M90 1393H1165L1184 1042H1130Q1097 1209 1028 1273T836 1337H471V733H590Q685 733 736 788T788 922V969H844V436H788V479Q788 678 571 678H471V55H864Q991 55 1067 133T1184 408H1239L1214 0H90V55H270V1337H90V1393ZM808 1503H757Q601 1683 559 1737T516 1816Q516 1872 589 1872Q664 1872 690 1823T808 1503Z"/><glyph unicode="É" horiz-adv-x="1323" d="M90 1393H1165L1184 1042H1130Q1097 1209 1028 1273T836 1337H471V733H590Q685 733 736 788T788 922V969H844V436H788V479Q788 678 571 678H471V55H864Q991 55 1067 133T1184 408H1239L1214 0H90V55H270V1337H90V1393ZM557 1503Q659 1800 682 1836T776 1872Q849 1872 849 1816Q849 1790 801 1731L608 1503H557Z"/><glyph unicode="Ê" horiz-adv-x="1323" d="M90 1393H1165L1184 1042H1130Q1097 1209 1028 1273T836 1337H471V733H590Q685 733 736 788T788 922V969H844V436H788V479Q788 678 571 678H471V55H864Q991 55 1067 133T1184 408H1239L1214 0H90V55H270V1337H90V1393ZM626 1874H729L972 1501H784L618 1761L421 1501H352L626 1874Z"/><glyph unicode="Ë" horiz-adv-x="1323" d="M90 1393H1165L1184 1042H1130Q1097 1209 1028 1273T836 1337H471V733H590Q685 733 736 788T788 922V969H844V436H788V479Q788 678 571 678H471V55H864Q991 55 1067 133T1184 408H1239L1214 0H90V55H270V1337H90V1393ZM358 1601Q358 1643 388 1673T460 1704Q503 1704 533 1674T563 1601Q563 1559 533 1529T460 1499Q417 1499 388 1528T358 1601ZM757 1601Q757 1643 786 1673T858 1704Q901 1704 931 1674T962 1601Q962 1559 932 1529T858 1499Q816 1499 787 1529T757 1601Z"/><glyph unicode="Ì" horiz-adv-x="768" d="M92 1393H676V1337H481V55H676V0H92V55H281V1337H92V1393ZM530 1503H479Q323 1683 281 1737T238 1816Q238 1872 311 1872Q386 1872 412 1823T530 1503Z"/><glyph unicode="Í" horiz-adv-x="768" d="M92 1393H676V1337H481V55H676V0H92V55H281V1337H92V1393ZM238 1503Q340 1800 363 1836T457 1872Q530 1872 530 1816Q530 1790 482 1731L289 1503H238Z"/><glyph unicode="Î" horiz-adv-x="768" d="M92 1393H676V1337H481V55H676V0H92V55H281V1337H92V1393ZM348 1874H451L694 1501H506L340 1761L143 1501H74L348 1874Z"/><glyph unicode="Ï" horiz-adv-x="768" d="M92 1393H676V1337H481V55H676V0H92V55H281V1337H92V1393ZM80 1601Q80 1643 110 1673T182 1704Q225 1704 255 1674T285 1601Q285 1559 255 1529T182 1499Q139 1499 110 1528T80 1601ZM479 1601Q479 1643 508 1673T580 1704Q623 1704 653 1674T684 1601Q684 1559 654 1529T580 1499Q538 1499 509 1529T479 1601Z"/><glyph unicode="Ð" horiz-adv-x="1536" d="M283 670H98V725H283V1337H98V1393H772Q1049 1393 1230 1192T1411 698Q1411 390 1230 195T731 0H98V55H283V670ZM829 670H483V55H743Q877 55 980 115T1129 302T1176 702Q1176 1040 1076 1188T723 1337H483V725H829V670Z"/><glyph unicode="Ñ" horiz-adv-x="1536" d="M106 1393H530L1200 356H1204V1337H1020V1393H1438V1337H1260V-14H1217L356 1305H352V55H561V0H106V55H297V1337H106V1393ZM1038 1759H1085Q1081 1627 1029 1564T895 1501Q836 1501 721 1558Q631 1605 588 1605Q515 1605 500 1503H453Q455 1626 508 1692T645 1759Q717 1759 825 1700Q911 1657 948 1657Q986 1657 1010 1686T1038 1759Z"/><glyph unicode="Ò" horiz-adv-x="1430" d="M111 698Q111 1000 283 1211T707 1423Q956 1423 1137 1219T1319 700Q1319 388 1143 180T721 -29Q472 -29 292 179T111 698ZM1083 688Q1083 1045 1000 1206T709 1368Q513 1368 430 1211T346 698Q346 328 436 178T719 27Q907 27 995 175T1083 688ZM861 1503H810Q654 1683 612 1737T569 1816Q569 1872 642 1872Q717 1872 743 1823T861 1503Z"/><glyph unicode="Ó" horiz-adv-x="1430" d="M111 698Q111 1000 283 1211T707 1423Q956 1423 1137 1219T1319 700Q1319 388 1143 180T721 -29Q472 -29 292 179T111 698ZM1083 688Q1083 1045 1000 1206T709 1368Q513 1368 430 1211T346 698Q346 328 436 178T719 27Q907 27 995 175T1083 688ZM569 1503Q671 1800 694 1836T788 1872Q861 1872 861 1816Q861 1790 813 1731L620 1503H569Z"/><glyph unicode="Ô" horiz-adv-x="1430" d="M111 698Q111 1000 283 1211T707 1423Q956 1423 1137 1219T1319 700Q1319 388 1143 180T721 -29Q472 -29 292 179T111 698ZM1083 688Q1083 1045 1000 1206T709 1368Q513 1368 430 1211T346 698Q346 328 436 178T719 27Q907 27 995 175T1083 688ZM680 1874H783L1026 1501H838L672 1761L475 1501H406L680 1874Z"/><glyph unicode="Õ" horiz-adv-x="1430" d="M111 698Q111 1000 283 1211T707 1423Q956 1423 1137 1219T1319 700Q1319 388 1143 180T721 -29Q472 -29 292 179T111 698ZM1083 688Q1083 1045 1000 1206T709 1368Q513 1368 430 1211T346 698Q346 328 436 178T719 27Q907 27 995 175T1083 688ZM984 1759H1031Q1027 1627 975 1564T841 1501Q782 1501 667 1558Q577 1605 534 1605Q461 1605 446 1503H399Q401 1626 454 1692T591 1759Q663 1759 771 1700Q857 1657 894 1657Q932 1657 956 1686T984 1759Z"/><glyph unicode="Ö" horiz-adv-x="1430" d="M111 698Q111 1000 283 1211T707 1423Q956 1423 1137 1219T1319 700Q1319 388 1143 180T721 -29Q472 -29 292 179T111 698ZM1083 688Q1083 1045 1000 1206T709 1368Q513 1368 430 1211T346 698Q346 328 436 178T719 27Q907 27 995 175T1083 688ZM412 1601Q412 1643 442 1673T514 1704Q557 1704 587 1674T617 1601Q617 1559 587 1529T514 1499Q471 1499 442 1528T412 1601ZM811 1601Q811 1643 840 1673T912 1704Q955 1704 985 1674T1016 1601Q1016 1559 986 1529T912 1499Q870 1499 841 1529T811 1601Z"/><glyph unicode="×" horiz-adv-x="1366" d="M684 754L1090 1163L1182 1069L776 662L1182 256L1090 164L684 569L276 164L184 256L590 662L184 1069L276 1163L684 754Z"/><glyph unicode="Ø" horiz-adv-x="1430" d="M1143 1214L1323 1419L1364 1386L1176 1171Q1319 977 1319 696Q1319 389 1143 180T721 -29Q484 -29 295 174L115 -29L72 0L262 215Q111 415 111 702Q111 1000 284 1211T707 1423Q951 1423 1143 1214ZM375 344L1042 1102Q999 1248 918 1308T702 1368Q519 1368 433 1215T346 655Q346 474 375 344ZM1059 1040L391 285Q467 27 721 27Q909 27 997 174T1085 686Q1085 908 1059 1040Z"/><glyph unicode="Ù" horiz-adv-x="1430" d="M57 1393H627V1337H440V358Q440 37 764 37Q1137 37 1137 428V1337H952V1393H1372V1337H1192V395Q1192 177 1079 74T739 -29Q494 -29 367 76T240 354V1337H57V1393ZM861 1503H810Q654 1683 612 1737T569 1816Q569 1872 642 1872Q717 1872 743 1823T861 1503Z"/><glyph unicode="Ú" horiz-adv-x="1430" d="M57 1393H627V1337H440V358Q440 37 764 37Q1137 37 1137 428V1337H952V1393H1372V1337H1192V395Q1192 177 1079 74T739 -29Q494 -29 367 76T240 354V1337H57V1393ZM610 1503Q712 1800 735 1836T829 1872Q902 1872 902 1816Q902 1790 854 1731L661 1503H610Z"/><glyph unicode="Û" horiz-adv-x="1430" d="M57 1393H627V1337H440V358Q440 37 764 37Q1137 37 1137 428V1337H952V1393H1372V1337H1192V395Q1192 177 1079 74T739 -29Q494 -29 367 76T240 354V1337H57V1393ZM680 1874H783L1026 1501H838L672 1761L475 1501H406L680 1874Z"/><glyph unicode="Ü" horiz-adv-x="1430" d="M57 1393H627V1337H440V358Q440 37 764 37Q1137 37 1137 428V1337H952V1393H1372V1337H1192V395Q1192 177 1079 74T739 -29Q494 -29 367 76T240 354V1337H57V1393ZM412 1601Q412 1643 442 1673T514 1704Q557 1704 587 1674T617 1601Q617 1559 587 1529T514 1499Q471 1499 442 1528T412 1601ZM811 1601Q811 1643 840 1673T912 1704Q955 1704 985 1674T1016 1601Q1016 1559 986 1529T912 1499Q870 1499 841 1529T811 1601Z"/><glyph unicode="Ý" horiz-adv-x="1430" d="M33 1393H616V1337H424L797 717L1139 1337H926V1393H1374V1337H1198L825 659V55H1034V0H424V55H625V639L205 1337H33V1393ZM610 1503Q712 1800 735 1836T829 1872Q902 1872 902 1816Q902 1790 854 1731L661 1503H610Z"/><glyph unicode="Þ" horiz-adv-x="1323" d="M694 1393V1337H485V1073H719Q945 1073 1082 973T1219 707Q1219 531 1067 425T686 319H485V55H686V0H106V55H285V1337H106V1393H694ZM694 1018H485V375H657Q854 375 927 440T1001 719Q1001 842 964 907T862 995T694 1018Z"/><glyph unicode="ß" horiz-adv-x="1087" d="M207 55V1004Q207 1150 241 1233T362 1368T561 1419Q706 1419 805 1337T905 1120Q905 900 653 819V815Q995 725 995 397Q995 225 895 101T659 -23Q597 -23 560 9T522 92Q522 126 542 150T596 174Q628 174 647 154T666 109Q666 84 654 65Q641 45 641 41Q641 25 670 25Q708 25 750 69T801 193T811 442Q811 577 788 649T702 757T518 797V842Q647 843 693 896T739 1094Q739 1262 688 1317T547 1372Q470 1372 429 1337T377 1239T365 1061V55H465V0H80V55H207Z"/><glyph unicode="à" horiz-adv-x="874" d="M541 469V657Q541 720 510 752T401 784Q329 784 273 764T217 721Q217 706 240 694Q283 669 283 627Q283 591 259 570T199 549Q159 549 136 577T113 641Q113 730 210 785T442 840Q698 840 698 657V164Q698 70 739 70Q782 70 782 152H827Q827 -23 694 -23Q642 -23 609 2T551 96Q432 -23 279 -23Q184 -23 119 36T53 176Q53 304 173 383T541 469ZM541 205V422Q207 422 207 238Q207 162 253 111T371 59Q439 59 490 103T541 205ZM542 965H491Q335 1145 293 1199T250 1278Q250 1334 323 1334Q398 1334 424 1285T542 965Z"/><glyph unicode="á" horiz-adv-x="874" d="M541 469V657Q541 720 510 752T401 784Q329 784 273 764T217 721Q217 706 240 694Q283 669 283 627Q283 591 259 570T199 549Q159 549 136 577T113 641Q113 730 210 785T442 840Q698 840 698 657V164Q698 70 739 70Q782 70 782 152H827Q827 -23 694 -23Q642 -23 609 2T551 96Q432 -23 279 -23Q184 -23 119 36T53 176Q53 304 173 383T541 469ZM541 205V422Q207 422 207 238Q207 162 253 111T371 59Q439 59 490 103T541 205ZM250 965Q352 1262 375 1298T469 1334Q542 1334 542 1278Q542 1252 494 1193L301 965H250Z"/><glyph unicode="â" horiz-adv-x="874" d="M541 469V657Q541 720 510 752T401 784Q329 784 273 764T217 721Q217 706 240 694Q283 669 283 627Q283 591 259 570T199 549Q159 549 136 577T113 641Q113 730 210 785T442 840Q698 840 698 657V164Q698 70 739 70Q782 70 782 152H827Q827 -23 694 -23Q642 -23 609 2T551 96Q432 -23 279 -23Q184 -23 119 36T53 176Q53 304 173 383T541 469ZM541 205V422Q207 422 207 238Q207 162 253 111T371 59Q439 59 490 103T541 205ZM360 1336H463L706 963H518L352 1223L155 963H86L360 1336Z"/><glyph unicode="ã" horiz-adv-x="874" d="M541 469V657Q541 720 510 752T401 784Q329 784 273 764T217 721Q217 706 240 694Q283 669 283 627Q283 591 259 570T199 549Q159 549 136 577T113 641Q113 730 210 785T442 840Q698 840 698 657V164Q698 70 739 70Q782 70 782 152H827Q827 -23 694 -23Q642 -23 609 2T551 96Q432 -23 279 -23Q184 -23 119 36T53 176Q53 304 173 383T541 469ZM541 205V422Q207 422 207 238Q207 162 253 111T371 59Q439 59 490 103T541 205ZM706 1221H753Q749 1089 697 1026T563 963Q504 963 389 1020Q299 1067 256 1067Q183 1067 168 965H121Q123 1088 176 1154T313 1221Q385 1221 493 1162Q579 1119 616 1119Q654 1119 678 1148T706 1221Z"/><glyph unicode="ä" horiz-adv-x="874" d="M541 469V657Q541 720 510 752T401 784Q329 784 273 764T217 721Q217 706 240 694Q283 669 283 627Q283 591 259 570T199 549Q159 549 136 577T113 641Q113 730 210 785T442 840Q698 840 698 657V164Q698 70 739 70Q782 70 782 152H827Q827 -23 694 -23Q642 -23 609 2T551 96Q432 -23 279 -23Q184 -23 119 36T53 176Q53 304 173 383T541 469ZM541 205V422Q207 422 207 238Q207 162 253 111T371 59Q439 59 490 103T541 205ZM92 1063Q92 1105 122 1135T194 1166Q237 1166 267 1136T297 1063Q297 1021 267 991T194 961Q151 961 122 990T92 1063ZM491 1063Q491 1105 520 1135T592 1166Q635 1166 665 1136T696 1063Q696 1021 666 991T592 961Q550 961 521 991T491 1063Z"/><glyph unicode="å" horiz-adv-x="874" d="M541 469V657Q541 720 510 752T401 784Q329 784 273 764T217 721Q217 706 240 694Q283 669 283 627Q283 591 259 570T199 549Q159 549 136 577T113 641Q113 730 210 785T442 840Q698 840 698 657V164Q698 70 739 70Q782 70 782 152H827Q827 -23 694 -23Q642 -23 609 2T551 96Q432 -23 279 -23Q184 -23 119 36T53 176Q53 304 173 383T541 469ZM541 205V422Q207 422 207 238Q207 162 253 111T371 59Q439 59 490 103T541 205ZM254 1127Q254 1203 308 1257T438 1311Q512 1311 566 1257T620 1129Q620 1052 566 998T436 944Q361 944 308 998T254 1127ZM549 1127Q549 1173 517 1206T438 1239Q391 1239 358 1206T325 1127Q325 1081 358 1049T438 1016Q484 1016 516 1048T549 1127Z"/><glyph unicode="æ" horiz-adv-x="1323" d="M547 469V657Q547 793 403 793Q331 793 276 769T221 725Q221 709 244 694Q283 671 283 629Q283 593 259 571T201 549Q163 549 140 577T117 641Q117 725 207 782T451 840Q604 840 680 764Q787 840 905 840Q1065 840 1159 731T1253 514Q1253 500 1242 491T1217 481H700V309Q700 25 930 25Q1152 25 1223 274H1266Q1183 -23 922 -23Q732 -23 602 150Q469 -23 289 -23Q189 -23 123 35T57 180Q57 296 175 378T547 469ZM700 567V537H1077V606Q1077 793 895 793Q805 793 753 730T700 567ZM547 207V426Q211 424 211 240Q211 166 253 114T375 61Q450 61 498 103T547 207Z"/><glyph unicode="ç" horiz-adv-x="874" d="M498 -23L465 -80Q568 -80 601 -116T635 -201Q635 -266 580 -309T430 -352Q364 -352 301 -324L317 -285Q357 -301 408 -301Q455 -301 488 -268T522 -190Q522 -161 502 -141T442 -121Q415 -121 383 -133L451 -23Q295 -9 188 116T80 401Q80 577 202 708T504 840Q627 840 704 779T782 635Q782 590 756 563T686 535Q646 535 622 559T598 618Q598 661 641 700Q657 713 657 729Q657 753 611 773T498 793Q387 793 326 729T264 463Q264 305 276 218T339 78T498 25Q703 25 766 266H811Q737 -23 498 -23Z"/><glyph unicode="è" horiz-adv-x="874" d="M752 477H252V340Q252 164 311 95T479 25Q700 25 774 274H817Q735 -23 471 -23Q305 -23 189 107T72 408Q72 576 182 708T455 840Q556 840 640 785T766 649T807 512Q807 488 795 483T752 477ZM252 532H627Q631 581 631 606Q631 793 446 793Q387 793 345 771T278 694T252 532ZM583 965H532Q376 1145 334 1199T291 1278Q291 1334 364 1334Q439 1334 465 1285T583 965Z"/><glyph unicode="é" horiz-adv-x="874" d="M752 477H252V340Q252 164 311 95T479 25Q700 25 774 274H817Q735 -23 471 -23Q305 -23 189 107T72 408Q72 576 182 708T455 840Q556 840 640 785T766 649T807 512Q807 488 795 483T752 477ZM252 532H627Q631 581 631 606Q631 793 446 793Q387 793 345 771T278 694T252 532ZM291 965Q393 1262 416 1298T510 1334Q583 1334 583 1278Q583 1252 535 1193L342 965H291Z"/><glyph unicode="ê" horiz-adv-x="874" d="M752 477H252V340Q252 164 311 95T479 25Q700 25 774 274H817Q735 -23 471 -23Q305 -23 189 107T72 408Q72 576 182 708T455 840Q556 840 640 785T766 649T807 512Q807 488 795 483T752 477ZM252 532H627Q631 581 631 606Q631 793 446 793Q387 793 345 771T278 694T252 532ZM432 1336H535L778 963H590L424 1223L227 963H158L432 1336Z"/><glyph unicode="ë" horiz-adv-x="874" d="M752 477H252V340Q252 164 311 95T479 25Q700 25 774 274H817Q735 -23 471 -23Q305 -23 189 107T72 408Q72 576 182 708T455 840Q556 840 640 785T766 649T807 512Q807 488 795 483T752 477ZM252 532H627Q631 581 631 606Q631 793 446 793Q387 793 345 771T278 694T252 532ZM164 1063Q164 1105 194 1135T266 1166Q309 1166 339 1136T369 1063Q369 1021 339 991T266 961Q223 961 194 990T164 1063ZM563 1063Q563 1105 592 1135T664 1166Q707 1166 737 1136T768 1063Q768 1021 738 991T664 961Q622 961 593 991T563 1063Z"/><glyph unicode="ì" horiz-adv-x="555" d="M55 819H170Q194 819 232 824L311 834H358V55H504V0H55V55H201V764H55V819ZM679 965H628Q472 1145 430 1199T387 1278Q387 1334 460 1334Q535 1334 561 1285T679 965Z"/><glyph unicode="í" horiz-adv-x="555" d="M55 819H170Q194 819 232 824L311 834H358V55H504V0H55V55H201V764H55V819ZM387 965Q489 1262 512 1298T606 1334Q679 1334 679 1278Q679 1252 631 1193L438 965H387Z"/><glyph unicode="î" horiz-adv-x="555" d="M55 819H170Q194 819 232 824L311 834H358V55H504V0H55V55H201V764H55V819ZM497 1336H600L843 963H655L489 1223L292 963H223L497 1336Z"/><glyph unicode="ï" horiz-adv-x="555" d="M55 819H170Q194 819 232 824L311 834H358V55H504V0H55V55H201V764H55V819ZM229 1063Q229 1105 259 1135T331 1166Q374 1166 404 1136T434 1063Q434 1021 404 991T331 961Q288 961 259 990T229 1063ZM628 1063Q628 1105 657 1135T729 1166Q772 1166 802 1136T833 1063Q833 1021 803 991T729 961Q687 961 658 991T628 1063Z"/><glyph unicode="ð" horiz-adv-x="981" d="M588 1251L795 1364L815 1325L621 1219Q780 1031 837 830T895 463Q895 218 770 98T489 -23Q328 -23 207 104T86 412Q86 590 206 715T496 840Q584 840 666 801Q632 1005 532 1169L248 1016L229 1055L506 1206Q432 1326 311 1393L340 1423Q444 1389 588 1251ZM270 410Q270 201 318 113T498 25Q613 25 662 105T711 410Q711 611 666 702T485 793Q364 793 317 708T270 410Z"/><glyph unicode="ñ" horiz-adv-x="1087" d="M909 625V55H1040V0H618V55H752V635Q752 709 713 746T608 784Q497 784 426 677T354 403V55H481V0H63V55H197V764H63V819H162Q186 819 224 824L305 834H354V635H358Q447 840 647 840Q765 840 837 785T909 625ZM812 1221H859Q855 1089 803 1026T669 963Q610 963 495 1020Q405 1067 362 1067Q289 1067 274 965H227Q229 1088 282 1154T419 1221Q491 1221 599 1162Q685 1119 722 1119Q760 1119 784 1148T812 1221Z"/><glyph unicode="ò" horiz-adv-x="981" d="M84 410Q84 588 205 714T492 840Q656 840 775 713T895 410Q895 240 781 109T494 -23Q323 -23 204 105T84 410ZM711 424Q711 628 658 710T489 793Q376 793 322 720T268 395Q268 203 315 114T494 25Q605 25 658 102T711 424ZM636 965H585Q429 1145 387 1199T344 1278Q344 1334 417 1334Q492 1334 518 1285T636 965Z"/><glyph unicode="ó" horiz-adv-x="981" d="M84 410Q84 588 205 714T492 840Q656 840 775 713T895 410Q895 240 781 109T494 -23Q323 -23 204 105T84 410ZM711 424Q711 628 658 710T489 793Q376 793 322 720T268 395Q268 203 315 114T494 25Q605 25 658 102T711 424ZM344 965Q446 1262 469 1298T563 1334Q636 1334 636 1278Q636 1252 588 1193L395 965H344Z"/><glyph unicode="ô" horiz-adv-x="981" d="M84 410Q84 588 205 714T492 840Q656 840 775 713T895 410Q895 240 781 109T494 -23Q323 -23 204 105T84 410ZM711 424Q711 628 658 710T489 793Q376 793 322 720T268 395Q268 203 315 114T494 25Q605 25 658 102T711 424ZM485 1336H588L831 963H643L477 1223L280 963H211L485 1336Z"/><glyph unicode="õ" horiz-adv-x="981" d="M84 410Q84 588 205 714T492 840Q656 840 775 713T895 410Q895 240 781 109T494 -23Q323 -23 204 105T84 410ZM711 424Q711 628 658 710T489 793Q376 793 322 720T268 395Q268 203 315 114T494 25Q605 25 658 102T711 424ZM759 1221H806Q802 1089 750 1026T616 963Q557 963 442 1020Q352 1067 309 1067Q236 1067 221 965H174Q176 1088 229 1154T366 1221Q438 1221 546 1162Q632 1119 669 1119Q707 1119 731 1148T759 1221Z"/><glyph unicode="ö" horiz-adv-x="981" d="M84 410Q84 588 205 714T492 840Q656 840 775 713T895 410Q895 240 781 109T494 -23Q323 -23 204 105T84 410ZM711 424Q711 628 658 710T489 793Q376 793 322 720T268 395Q268 203 315 114T494 25Q605 25 658 102T711 424ZM186 1063Q186 1105 216 1135T288 1166Q331 1166 361 1136T391 1063Q391 1021 361 991T288 961Q245 961 216 990T186 1063ZM585 1063Q585 1105 614 1135T686 1166Q729 1166 759 1136T790 1063Q790 1021 760 991T686 961Q644 961 615 991T585 1063Z"/><glyph unicode="÷" horiz-adv-x="1366" d="M600 1120Q600 1156 624 1180T684 1204Q718 1204 743 1180T768 1120Q768 1086 743 1061T684 1036Q649 1036 625 1061T600 1120ZM139 727H1227V596H139V727ZM598 203Q598 239 622 263T682 287Q716 287 741 262T766 203Q766 169 741 144T682 119Q647 119 623 144T598 203Z"/><glyph unicode="ø" horiz-adv-x="981" d="M754 733L850 840L885 809L786 700Q895 574 895 410Q895 239 781 108T494 -23Q342 -23 227 80L139 -20L102 8L197 113Q84 239 84 410Q84 588 205 714T492 840Q636 840 754 733ZM283 209L684 655Q640 793 485 793Q368 793 318 711T268 428Q268 325 283 209ZM696 600L297 158Q341 25 494 25Q605 25 658 103T711 412Q711 519 696 600Z"/><glyph unicode="ù" horiz-adv-x="1087" d="M55 817H344V203Q344 33 479 33Q553 33 612 83T706 199T741 281V762H596V817H895V55H1022V0H922L778 -14H741V174H737Q618 -23 440 -23Q337 -23 264 35T190 203V762H55V817ZM689 965H638Q482 1145 440 1199T397 1278Q397 1334 470 1334Q545 1334 571 1285T689 965Z"/><glyph unicode="ú" horiz-adv-x="1087" d="M55 817H344V203Q344 33 479 33Q553 33 612 83T706 199T741 281V762H596V817H895V55H1022V0H922L778 -14H741V174H737Q618 -23 440 -23Q337 -23 264 35T190 203V762H55V817ZM418 965Q520 1262 543 1298T637 1334Q710 1334 710 1278Q710 1252 662 1193L469 965H418Z"/><glyph unicode="û" horiz-adv-x="1087" d="M55 817H344V203Q344 33 479 33Q553 33 612 83T706 199T741 281V762H596V817H895V55H1022V0H922L778 -14H741V174H737Q618 -23 440 -23Q337 -23 264 35T190 203V762H55V817ZM507 1336H610L853 963H665L499 1223L302 963H233L507 1336Z"/><glyph unicode="ü" horiz-adv-x="1087" d="M55 817H344V203Q344 33 479 33Q553 33 612 83T706 199T741 281V762H596V817H895V55H1022V0H922L778 -14H741V174H737Q618 -23 440 -23Q337 -23 264 35T190 203V762H55V817ZM240 1063Q240 1105 270 1135T342 1166Q385 1166 415 1136T445 1063Q445 1021 415 991T342 961Q299 961 270 990T240 1063ZM639 1063Q639 1105 668 1135T740 1166Q783 1166 813 1136T844 1063Q844 1021 814 991T740 961Q698 961 669 991T639 1063Z"/><glyph unicode="ý" horiz-adv-x="981" d="M29 817H459V762H315L557 203L760 762H606V817H934V762H803L469 -162Q398 -361 346 -422T229 -483Q189 -483 161 -457T133 -397Q133 -368 156 -343T213 -317Q250 -317 281 -365Q281 -369 288 -379T303 -389Q319 -389 347 -346T397 -241L485 6L160 762H29V817ZM365 965Q467 1262 490 1298T584 1334Q657 1334 657 1278Q657 1252 609 1193L416 965H365Z"/><glyph unicode="þ" horiz-adv-x="1087" d="M358 119V-428H508V-483H68V-428H201V1339H68V1395H180Q202 1395 242 1399L322 1409H358V696H362Q447 840 614 840Q777 840 882 710T987 412Q987 237 872 107T610 -23Q464 -23 362 119H358ZM805 362V487Q805 580 796 641T744 748T614 793Q507 793 433 712T358 510V285Q358 191 429 108T621 25Q721 25 763 94T805 362Z"/><glyph unicode="ÿ" horiz-adv-x="981" d="M29 817H459V762H315L557 203L760 762H606V817H934V762H803L469 -162Q398 -361 346 -422T229 -483Q189 -483 161 -457T133 -397Q133 -368 156 -343T213 -317Q250 -317 281 -365Q281 -369 288 -379T303 -389Q319 -389 347 -346T397 -241L485 6L160 762H29V817ZM186 1063Q186 1105 216 1135T288 1166Q331 1166 361 1136T391 1063Q391 1021 361 991T288 961Q245 961 216 990T186 1063ZM585 1063Q585 1105 614 1135T686 1166Q729 1166 759 1136T790 1063Q790 1021 760 991T686 961Q644 961 615 991T585 1063Z"/><glyph unicode="ı" horiz-adv-x="555" d="M55 819H170Q194 819 232 824L311 834H358V55H504V0H55V55H201V764H55V819Z"/><glyph unicode="Ł" horiz-adv-x="1194" d="M442 784L688 993V924L442 715V55H815Q1041 55 1081 399H1137L1124 0H70V55H242V545L70 401V473L242 616V1337H70V1393H625V1337H442V784Z"/><glyph unicode="ł" horiz-adv-x="555" d="M365 803L512 928V862L365 737V55H512V0H57V55H207V604L57 479V547L207 672V1339H43V1395H145Q164 1395 207 1399L311 1409H365V803Z"/><glyph unicode="Œ" horiz-adv-x="1962" d="M1864 0H915L799 -4Q579 -4 443 80T210 323T113 692Q113 972 292 1184T786 1397L899 1393H1815L1831 1047H1780Q1747 1204 1681 1270T1509 1337H1157V733H1243Q1342 733 1398 786T1454 973H1509V438H1454Q1454 575 1399 626T1243 678H1157V55H1483Q1631 55 1709 128T1831 410H1886L1864 0ZM956 1337H793Q548 1337 448 1154T348 698Q348 538 387 389T517 146T774 51Q841 51 956 55V1337Z"/><glyph unicode="œ" horiz-adv-x="1536" d="M1419 481H899V301Q899 168 958 97T1135 25Q1365 25 1440 276H1483Q1407 -23 1122 -23Q953 -23 821 117Q669 -23 508 -23Q341 -23 218 102T94 410Q94 597 221 718T514 840Q690 840 821 700Q890 781 958 810T1116 840Q1290 840 1383 734T1477 514Q1477 493 1464 487T1419 481ZM899 537H1300V598Q1300 793 1114 793Q1013 793 956 736T899 569V537ZM745 436Q745 626 692 709T510 793Q385 793 332 696T279 395Q279 212 327 119T512 25Q635 25 690 105T745 436Z"/><glyph unicode="Š" horiz-adv-x="1087" d="M786 1339L848 1393H903V1065H848Q751 1368 479 1368Q356 1368 270 1301T184 1128Q184 1049 232 1001T351 927T539 872Q671 840 765 801T930 673T1001 438Q1001 249 869 110T535 -29Q384 -29 205 68L131 0H76V369H131Q186 199 295 113T535 27Q670 27 779 112T889 342Q889 443 837 501T700 591T459 659Q254 708 164 798T74 1034Q74 1203 185 1313T496 1423Q569 1423 628 1407T786 1339ZM579 1491H476L233 1863H421L587 1603L784 1863H853L579 1491Z"/><glyph unicode="š" horiz-adv-x="768" d="M553 778L582 805H625V584H582Q535 793 354 793Q275 793 220 752T164 651Q164 583 214 562T410 520Q571 499 634 431T698 256Q698 127 609 52T408 -23Q296 -23 197 55L137 10H98V272H143Q206 25 408 25Q502 25 564 79T627 201Q627 275 555 309T346 360Q236 374 191 402T117 480T88 590Q88 688 161 764T356 840Q459 840 553 778ZM420 953H317L74 1325H262L428 1065L625 1325H694L420 953Z"/><glyph unicode="Ÿ" horiz-adv-x="1430" d="M33 1393H616V1337H424L797 717L1139 1337H926V1393H1374V1337H1198L825 659V55H1034V0H424V55H625V639L205 1337H33V1393ZM412 1601Q412 1643 442 1673T514 1704Q557 1704 587 1674T617 1601Q617 1559 587 1529T514 1499Q471 1499 442 1528T412 1601ZM811 1601Q811 1643 840 1673T912 1704Q955 1704 985 1674T1016 1601Q1016 1559 986 1529T912 1499Q870 1499 841 1529T811 1601Z"/><glyph unicode="Ž" horiz-adv-x="1194" d="M139 1393H1112V1352L260 55H788Q897 55 961 128T1067 408H1118L1096 0H35V55L881 1337H401Q341 1337 300 1320T222 1238T164 1061H113L139 1393ZM633 1491H530L287 1863H475L641 1603L838 1863H907L633 1491Z"/><glyph unicode="ž" horiz-adv-x="768" d="M94 817H725V784L223 55H479Q629 55 672 299H717L705 0H53V55L547 770H295Q163 770 121 530H76L94 817ZM420 953H317L74 1325H262L428 1065L625 1325H694L420 953Z"/><glyph unicode="ƒ" horiz-adv-x="1323" d="M821 819H1030L1010 764H805L659 239Q592 1 512 -160T339 -402T143 -483Q78 -483 34 -449T-10 -362Q-10 -325 13 -299T74 -272Q107 -272 128 -291T150 -342Q150 -358 129 -399Q125 -412 125 -414Q125 -436 156 -436Q235 -436 302 -346T416 -92L659 764H487L504 819H682Q894 1423 1165 1423Q1232 1423 1281 1388T1331 1294Q1331 1254 1307 1226T1243 1198Q1206 1198 1185 1221T1163 1276Q1163 1301 1178 1325Q1179 1325 1186 1339T1194 1356Q1194 1376 1153 1376Q965 1376 821 819Z"/><glyph unicode="ˆ" horiz-adv-x="682" d="M305 1336H408L651 963H463L297 1223L100 963H31L305 1336Z"/><glyph unicode="ˇ" horiz-adv-x="682" d="M377 953H274L31 1325H219L385 1065L582 1325H651L377 953Z"/><glyph unicode="ˉ" horiz-adv-x="682" d="M684 1141V987H-2V1141H684Z"/><glyph unicode="˘" horiz-adv-x="682" d="M82 1309H104Q145 1129 326 1129Q533 1129 571 1309H598Q586 1158 512 1084T340 1010Q238 1010 163 1086T82 1309Z"/><glyph unicode="˙" horiz-adv-x="682" d="M340 1186Q387 1186 420 1154T453 1076Q453 1028 420 995T340 961Q294 961 261 994T227 1076Q227 1122 260 1154T340 1186Z"/><glyph unicode="˚" horiz-adv-x="682" d="M158 1127Q158 1203 212 1257T342 1311Q416 1311 470 1257T524 1129Q524 1052 470 998T340 944Q265 944 212 998T158 1127ZM453 1127Q453 1173 421 1206T342 1239Q295 1239 262 1206T229 1127Q229 1081 262 1049T342 1016Q388 1016 420 1048T453 1127Z"/><glyph unicode="˛" horiz-adv-x="682" d="M612 -231L633 -258Q515 -375 367 -375Q287 -375 230 -325T172 -199Q172 -98 291 18H340Q281 -43 281 -100Q281 -163 342 -222T483 -281Q543 -281 612 -231Z"/><glyph unicode="˜" horiz-adv-x="682" d="M610 1221H657Q653 1089 601 1026T467 963Q408 963 293 1020Q203 1067 160 1067Q87 1067 72 965H25Q27 1088 80 1154T217 1221Q289 1221 397 1162Q483 1119 520 1119Q558 1119 582 1148T610 1221Z"/><glyph unicode="˝" horiz-adv-x="682" d="M311 959Q475 1189 517 1222T596 1256Q629 1256 651 1231T674 1176Q674 1133 633 1094T326 942L311 959ZM-14 959Q149 1189 191 1222T270 1256Q304 1256 326 1231T348 1176Q348 1133 307 1094T0 942L-14 959Z"/><glyph unicode="π" horiz-adv-x="1124" d="M1085 309Q1080 154 1010 61T842 -33Q763 -33 704 58T644 340Q644 382 646 420T651 492L686 821H455Q395 197 357 79T226 -40Q187 -40 152 -9T117 73Q117 119 189 201T270 352L330 821H233Q193 821 155 802T98 756L55 692H20Q69 844 140 920T305 997H1069V821H811Q799 701 793 581T786 340Q786 258 824 207T919 156Q954 156 992 184T1036 259Q1039 281 1040 293T1042 309H1085Z"/><glyph unicode="–" horiz-adv-x="1024" d="M-12 551H1036V489H-12V551Z"/><glyph unicode="—" horiz-adv-x="2048" d="M-12 551H2060V489H-12V551Z"/><glyph unicode="‘" horiz-adv-x="555" d="M350 1423L383 1386Q268 1296 224 1230T180 1095Q180 1071 192 1047T217 1023Q228 1023 240 1056Q260 1111 320 1111Q366 1111 398 1080T430 1007Q430 958 397 918T303 878Q225 878 175 940T125 1081Q125 1263 350 1423Z"/><glyph unicode="’" horiz-adv-x="555" d="M205 878L172 915Q287 1005 331 1071T375 1206Q375 1230 363 1254T338 1278Q327 1278 315 1245Q295 1190 235 1190Q189 1190 157 1221T125 1294Q125 1343 158 1383T252 1423Q330 1423 380 1361T430 1220Q430 1038 205 878Z"/><glyph unicode="‚" horiz-adv-x="555" d="M197 -326L164 -289Q279 -199 323 -133T367 2Q367 26 355 50T330 74Q319 74 307 41Q287 -14 227 -14Q181 -14 149 17T117 90Q117 139 150 179T244 219Q322 219 372 157T422 16Q422 -166 197 -326Z"/><glyph unicode="“" horiz-adv-x="981" d="M784 1423L815 1386Q614 1229 614 1093Q614 1069 624 1048T649 1027Q659 1027 668 1050Q687 1115 760 1115Q807 1115 835 1081T864 1005Q864 959 828 921T731 882Q658 882 609 941T559 1076Q559 1261 784 1423ZM342 1423L373 1386Q172 1229 172 1093Q172 1069 182 1048T207 1027Q216 1027 225 1050Q245 1115 317 1115Q364 1115 393 1081T422 1005Q422 958 385 920T289 882Q215 882 166 941T117 1076Q117 1261 342 1423Z"/><glyph unicode="”" horiz-adv-x="981" d="M197 882L166 919Q367 1076 367 1212Q367 1236 357 1257T332 1278Q322 1278 313 1255Q294 1190 221 1190Q174 1190 146 1224T117 1300Q117 1346 153 1384T250 1423Q323 1423 372 1364T422 1229Q422 1044 197 882ZM639 882L608 919Q809 1076 809 1212Q809 1236 799 1257T774 1278Q765 1278 756 1255Q736 1190 664 1190Q617 1190 588 1224T559 1300Q559 1347 596 1385T692 1423Q766 1423 815 1364T864 1229Q864 1044 639 882Z"/><glyph unicode="„" horiz-adv-x="981" d="M197 -322L166 -285Q367 -128 367 8Q367 32 357 53T332 74Q322 74 313 51Q294 -14 221 -14Q174 -14 146 20T117 96Q117 142 153 180T250 219Q323 219 372 160T422 25Q422 -160 197 -322ZM639 -322L608 -285Q809 -128 809 8Q809 32 799 53T774 74Q765 74 756 51Q736 -14 664 -14Q617 -14 588 20T559 96Q559 143 596 181T692 219Q766 219 815 160T864 25Q864 -160 639 -322Z"/><glyph unicode="†" horiz-adv-x="981" d="M504 -483H455V-367Q455 -64 436 144T358 553Q463 663 463 858Q379 858 264 821Q190 797 150 797Q106 797 74 821T41 883Q41 919 73 944T156 969Q186 969 270 942Q372 908 463 905Q463 968 459 1006T430 1127Q391 1267 391 1288Q391 1340 419 1381T492 1423Q533 1423 560 1389T588 1296Q588 1249 557 1157Q512 1013 512 905Q601 906 711 942Q774 965 821 965Q876 965 908 940T940 879Q940 842 907 820T815 797Q767 797 696 823Q608 855 512 858Q515 667 612 553Q551 341 528 129T504 -483Z"/><glyph unicode="‡" horiz-adv-x="981" d="M463 973Q463 1037 434 1137Q403 1236 403 1298Q403 1355 427 1388T492 1421Q535 1421 557 1383T580 1294Q580 1262 539 1110Q520 1039 520 973Q616 975 727 1010Q788 1028 823 1028Q868 1028 897 1006T926 948Q926 872 827 872Q791 872 719 895Q612 928 520 928Q525 814 594 735Q514 631 514 469Q514 307 594 205Q521 126 514 10Q590 12 705 41Q802 63 827 63Q874 63 899 42T924 -12Q924 -45 897 -68T834 -92Q816 -92 674 -53Q592 -31 514 -31Q514 -95 545 -195Q575 -291 575 -360Q575 -415 552 -450T489 -485Q445 -485 422 -444T399 -344Q399 -293 428 -209Q452 -140 457 -108T463 -31Q413 -31 395 -33T287 -58Q164 -88 143 -88Q102 -88 78 -66T53 -12Q53 20 78 43T150 66Q175 66 314 32Q403 10 463 10Q457 128 381 205Q465 304 465 473Q465 555 448 611T381 735Q461 814 463 928Q378 925 258 895Q189 877 154 877Q111 877 82 899T53 956Q53 989 82 1009T154 1030Q186 1030 260 1008Q375 973 463 973Z"/><glyph unicode="•" horiz-adv-x="717" d="M109 678Q109 781 183 854T360 928Q463 928 536 855T610 678Q610 573 538 500T360 426Q257 426 183 500T109 678Z"/><glyph unicode="…" horiz-adv-x="2048" d="M1587 98Q1587 146 1621 180T1704 215Q1754 215 1789 181T1825 98Q1825 49 1789 13T1704 -23Q1656 -23 1622 13T1587 98ZM223 98Q223 146 257 180T340 215Q391 215 426 181T461 98Q461 49 425 13T340 -23Q292 -23 258 13T223 98ZM905 96Q905 144 939 178T1022 213Q1073 213 1108 179T1143 96Q1143 47 1107 11T1022 -25Q974 -25 940 11T905 96Z"/><glyph unicode="‰" horiz-adv-x="1985" d="M61 1022Q61 1171 142 1272T330 1374Q439 1374 517 1272T596 1024Q596 879 518 777T328 674Q214 674 138 775T61 1022ZM428 1075Q428 1229 403 1287T330 1346Q269 1346 249 1271T229 965Q229 825 251 764T328 702Q370 702 390 729T419 834T428 1075ZM1120 1374H1208L225 -59H137L1120 1374ZM750 293Q750 440 827 541T1012 643Q1126 643 1204 542T1282 295Q1282 148 1203 46T1014 -57Q904 -57 827 45T750 293ZM1114 362Q1114 503 1092 558T1016 614Q945 614 932 528T918 227Q918 86 939 29T1016 -29Q1075 -29 1094 33T1114 362ZM1389 293Q1389 440 1467 541T1651 643Q1765 643 1844 542T1923 295Q1923 149 1844 46T1655 -57Q1545 -57 1467 45T1389 293ZM1755 362Q1755 496 1734 555T1655 614Q1584 614 1570 526T1556 227Q1556 88 1578 30T1657 -29Q1717 -29 1736 42T1755 362Z"/><glyph unicode="‹" horiz-adv-x="555" d="M410 915H446L260 463L446 12H410L109 463L410 915Z"/><glyph unicode="›" horiz-adv-x="555" d="M145 915H109L295 463L109 12H145L446 463L145 915Z"/><glyph unicode="⁄" horiz-adv-x="662" d="M844 1372H938L-248 -41H-342L844 1372Z"/><glyph unicode="€" horiz-adv-x="1051" d="M870 616L860 561H307Q316 282 389 155T606 27Q721 27 798 98T915 358H965V14H915L870 102Q739 -31 600 -31Q418 -31 279 127T113 561H-2L6 616H109V662Q109 710 111 731H-2L6 786H115Q149 1055 289 1213T604 1372Q721 1372 858 1268L905 1319H938L946 1014H899Q855 1177 786 1248T606 1319Q464 1319 391 1191T307 786H895L885 731H307V616H870Z"/><glyph unicode="™" horiz-adv-x="2007" d="M53 1393H780L803 1192H768Q762 1251 722 1292T573 1333H500V754Q500 672 518 649T606 623V586H231V623Q288 627 310 643T332 754V1333H256Q164 1333 122 1303T66 1192H31L53 1393ZM1157 1393L1432 821L1696 1393H1974V1358Q1901 1355 1883 1331T1864 1221V754Q1864 671 1881 649T1974 623V586H1577V623Q1654 624 1675 648T1696 754V1245H1692L1389 586H1356L1053 1235H1049V754Q1049 681 1064 652T1143 623H1178V586H872V623Q938 623 961 641T985 754V1221Q985 1306 968 1332T872 1358V1393H1157Z"/><glyph unicode="Ω" horiz-adv-x="1573" d="M1506 0H902L935 311Q1096 370 1161 511T1226 824Q1226 1051 1119 1197T788 1343Q564 1343 457 1197T350 824Q350 652 415 511T641 311L674 0H70V332H100Q116 266 140 237T236 207H559L555 264Q317 329 214 485T111 817Q111 1076 303 1242T788 1409Q1081 1409 1273 1243T1465 817Q1465 641 1362 485T1021 264L1017 207H1340Q1412 207 1436 236T1476 332H1506V0Z"/><glyph unicode="∂" horiz-adv-x="1012" d="M295 1120H250Q381 1423 629 1423Q790 1423 892 1296T995 920Q995 562 831 266T403 -31Q248 -31 157 60T66 305Q66 544 232 725T616 907Q838 907 928 717H932Q942 861 942 903Q942 1078 850 1179T596 1280Q402 1280 295 1120ZM911 629Q830 854 627 854Q449 854 341 664T233 264Q233 156 287 92T430 27Q566 27 709 189T911 629Z"/><glyph unicode="∆" horiz-adv-x="1253" d="M668 1409L1245 0H12L668 1409ZM594 1059L147 100H991L594 1059Z"/><glyph unicode="∏" horiz-adv-x="1686" d="M1645 -207H1016V-160Q1136 -160 1175 -119T1215 6V1425H481V6Q481 -78 520 -119T680 -160V-207H51V-160Q173 -160 211 -119T250 6V1288Q250 1389 202 1440T55 1491V1538H1641V1491Q1543 1491 1495 1440T1446 1288V6Q1446 -78 1484 -119T1645 -160V-207Z"/><glyph unicode="∑" horiz-adv-x="1460" d="M1423 238Q1391 113 1369 -2T1335 -221Q1272 -210 1233 -205T1178 -199H147Q127 -199 88 -202T29 -205L743 610L33 1540Q103 1533 156 1530T246 1526H1264L1276 1200H1235Q1204 1302 1183 1341T1101 1407Q1071 1420 1027 1427T922 1434H383L942 700L340 6H1100Q1227 6 1277 58T1376 238H1423Z"/><glyph unicode="−" horiz-adv-x="1366" d="M139 729H1227V598H139V729Z"/><glyph unicode="∕" horiz-adv-x="662" d="M844 1372H938L-248 -41H-342L844 1372Z"/><glyph unicode="∙" horiz-adv-x="555" d="M160 578Q160 625 194 659T276 694Q327 694 362 660T397 578Q397 528 362 493T276 457Q228 457 194 492T160 578Z"/><glyph unicode="√" horiz-adv-x="1124" d="M1055 1868L748 -78L250 950L53 854L20 922L319 1069L723 244L983 1878L1055 1868Z"/><glyph unicode="∞" horiz-adv-x="1460" d="M653 668Q724 837 812 890T1024 944Q1185 944 1296 828T1407 526Q1407 340 1296 223T1057 106Q962 106 887 169T721 393Q604 160 397 160Q248 160 151 264T53 528Q53 685 142 790T360 895Q440 895 509 853T653 668ZM750 465Q814 327 884 264T1061 201Q1187 201 1268 292T1350 526Q1350 666 1266 766T1067 866Q1012 866 970 845T895 783T831 666L750 465ZM614 557L625 590Q529 805 358 805Q248 805 179 729T109 530Q109 407 175 323T338 238Q420 238 487 303T614 557Z"/><glyph unicode="∫" horiz-adv-x="561" d="M602 1760Q602 1721 573 1696T497 1671Q460 1671 437 1696T393 1721Q375 1721 366 1707T356 1663Q356 1629 375 1407T395 856Q395 351 365 147T286 -136Q260 -177 219 -198T133 -219Q84 -219 47 -184T10 -99Q10 -61 35 -34T100 -7Q134 -7 165 -40T210 -73Q235 -73 249 -29T264 125Q264 162 258 322T252 884Q252 1365 269 1522T310 1738Q339 1808 379 1842T463 1876Q520 1876 561 1844T602 1760Z"/><glyph unicode="≈" horiz-adv-x="1124" d="M1022 874H1073Q1052 719 978 636T791 553Q694 553 487 670Q348 748 276 748Q127 748 98 561H51Q71 715 144 799T326 883Q373 883 433 864T657 756Q775 694 850 694Q994 694 1022 874ZM1022 487H1073Q1052 332 978 249T791 166Q695 166 523 263T276 360Q127 360 98 174H51Q71 327 144 410T326 494Q373 494 438 473T657 369Q775 307 850 307Q994 307 1022 487Z"/><glyph unicode="≠" horiz-adv-x="1124" d="M1106 279H485L301 -51L201 6L352 279H31V391H416L573 676H31V788H637L823 1124L924 1067L768 788H1106V676H707L547 391H1106V279Z"/><glyph unicode="≤" horiz-adv-x="1124" d="M1077 240L59 711V838L1077 1309V1182L190 774L1077 367V240ZM1077 0H59V112H1077V0Z"/><glyph unicode="≥" horiz-adv-x="1124" d="M1077 711L59 240V367L946 774L59 1182V1309L1077 838V711ZM1077 0H59V112H1077V0Z"/><glyph unicode="◊" horiz-adv-x="1012" d="M962 763L565 0H443L46 763L443 1526H565L962 763ZM839 763L504 1415L169 763L504 111L839 763Z"/><glyph unicode="ﬁ" horiz-adv-x="1087" d="M197 819V909Q197 1139 309 1279T610 1419Q712 1419 783 1378T854 1272Q854 1236 829 1209T766 1182Q729 1182 707 1204T684 1251Q684 1256 691 1288Q698 1320 698 1325Q698 1348 671 1360T606 1372Q482 1372 418 1273T354 1006V819H723Q745 819 786 824L866 834H911V55H1036V0H618V55H754V764H354V55H485V0H61V55H197V764H61V819H197Z"/><glyph unicode="ﬂ" horiz-adv-x="1087" d="M918 1419V55H1042V0H625V55H760V764H360V55H489V0H72V55H203V764H61V819H203V909Q203 1141 315 1280T616 1419L791 1403Q808 1403 832 1408L879 1419H918ZM360 819H760V1190Q707 1213 707 1255Q707 1261 713 1290Q719 1320 719 1325Q719 1372 612 1372Q476 1372 418 1265T360 926V819Z"/></font>
</defs>
</svg>
